<?xml version="1.0" standalone="no"?>
<!DOCTYPE svg PUBLIC "-//W3C//DTD SVG 1.1//EN" "http://www.w3.org/Graphics/SVG/1.1/DTD/svg11.dtd" >
<svg xmlns="http://www.w3.org/2000/svg">
<metadata>
This is a custom SVG webfont generated by Font Squirrel.
Copyright   : Digitized data copyright  2006 Google Corporation
Foundry     : Ascender Corporation
Foundry URL : httpwwwascendercorpcom
</metadata>
<defs>
<font id="webfont7ME1Vy05" horiz-adv-x="1144" >
<font-face units-per-em="2048" ascent="1638" descent="-410" />
<missing-glyph horiz-adv-x="530" />
<glyph unicode=" "  horiz-adv-x="530" />
<glyph unicode="&#x09;" horiz-adv-x="530" />
<glyph unicode="&#xa0;" horiz-adv-x="530" />
<glyph unicode="!" horiz-adv-x="681" d="M211 125q0 37 10 68q8 27 27 40q20 18 41 23q33 8 51 8q16 0 49 -8q20 -4 41 -23q20 -16 29 -40q10 -31 10 -68q0 -35 -10 -66q-8 -27 -29 -43q-20 -18 -41 -22q-33 -8 -49 -8q-18 0 -51 8q-20 4 -41 22q-16 14 -27 43q-10 31 -10 66zM221 1462h238l-72 -1050h-94z" />
<glyph unicode="&#x22;" horiz-adv-x="835" d="M117 1462h217l-62 -481h-94zM502 1462h217l-62 -481h-94z" />
<glyph unicode="#" d="M82 416v121h190l78 401h-244v121h267l73 403h125l-75 -403h284l76 403h123l-76 -403h160v-121h-182l-76 -401h233v-121h-258l-78 -416h-122l77 416h-284l-78 -416h-123l78 416h-168zM397 537h285l76 401h-285z" />
<glyph unicode="$" d="M135 166v315h86q0 -61 21 -110q23 -53 61.5 -96.5t93.5 -69.5q53 -27 121 -33v506q-92 41 -162 86q-72 45 -108 88q-43 49 -60 100q-18 55 -18 121q0 70 25 125q25 57 69 98q43 41 109 66q68 27 145 35v159h103v-155q98 -4 157 -21q65 -18 105 -49q41 -31 59 -71 q18 -39 19 -89q0 -66 -43 -100q-41 -33 -119 -33q0 29 -8 90q-6 41 -27 84q-18 39 -53 64q-33 25 -90 31v-478q96 -41 163 -79q63 -35 119 -88q49 -45 74 -103q25 -55 24 -129q0 -152 -100 -240q-98 -86 -280 -104v-248h-103v244q-33 0 -102 4q-23 2 -103 16q-47 8 -94 25 q-41 14 -84 39zM354 1089.5q0 -38.5 11 -75.5q8 -33 30 -58q18 -20 54 -45q20 -14 69 -37v429q-39 -8 -72 -29q-27 -16 -51 -47q-22 -28 -30 -62q-11 -37 -11 -75.5zM621 178q94 16 143 74t49 147q0 37 -10 74q-8 27 -33 59q-23 29 -59 54q-25 16 -90 47v-455z" />
<glyph unicode="%" horiz-adv-x="1832" d="M92 1030q0 104 19 187q18 80 61 143q41 59 104 90q70 33 154 33q80 0 145 -33q59 -31 105 -90q41 -55 63 -143q20 -80 20.5 -186.5t-20.5 -186.5q-23 -86 -63.5 -145.5t-104 -92.5t-147.5 -33q-88 0 -152 33q-68 35 -104 92q-45 68 -61 146q-19 82 -19 186zM276 1030 q0 -94 9 -158q10 -78 24 -116q18 -47 47 -74q29 -25 72 -25t72 25q27 23 45 74q20 57 26 116q6 70 6.5 158t-6.5 156q-6 61 -26 114q-20 49 -45 72q-29 25 -70 25t-72 -25q-27 -23 -47 -72q-16 -41 -26 -114q-9 -60 -9 -156zM481 0l731 1462h134l-730 -1462h-135zM1071 436 q0 104 19 187q18 80 61 143q41 59 104 90q70 33 154 33q82 0 147 -33q57 -29 103 -90q41 -55 63 -143q20 -80 20.5 -186.5t-20.5 -186.5q-23 -86 -63.5 -145.5t-104 -92t-147.5 -32.5q-88 0 -152 32q-68 35 -104 92q-45 68 -61 146q-19 82 -19 186zM1255 436q0 -94 9 -157 q10 -78 24 -117q18 -47 47 -74q29 -25 72 -25t72 25q27 23 45 74q18 49 24 117q8 94 8 157q0 66 -8 156q-6 70 -24 115q-20 49 -45 71q-29 25 -70 25t-72 -25q-27 -23 -47 -71q-16 -41 -26 -115q-9 -60 -9 -156z" />
<glyph unicode="&#x26;" horiz-adv-x="1519" d="M74 410q0 86 24 151q27 70 66 115q45 51 102 86q61 37 135 67q-39 45 -69 89q-33 45 -49 83q-20 47 -29 86q-10 47 -10 95q0 66 22 123q20 53 70 96q47 41 119 61q70 20 176 21q96 0 168 -23q68 -20 112 -63q43 -40 62 -92q20 -57 20 -113q0 -65 -18 -117 q-18 -51 -62 -94q-41 -43 -106 -82q-53 -33 -160 -78l373 -395q8 29 22 94q6 31 15 92q4 29 8 90q2 29 2 80v80h369v-86h-19q-23 0 -67 -4q-34 -3 -62 -18q-31 -16 -51 -43q-23 -29 -35 -74l-41 -143q-23 -68 -59 -154l190 -203q15 -15 31 -24q18 -10 37 -17q16 -4 51 -8 q20 -2 72 -2h18v-86h-327l-170 180q-25 -29 -82 -78q-41 -35 -99 -63q-55 -29 -118 -43q-70 -16 -144 -16q-123 0 -215 30q-86 29 -151 88q-57 53 -91 135q-30 81 -30 177zM274 403q0 -72 23 -133q20 -55 61 -96q37 -37 97 -59q53 -20 125 -21q59 0 112 12q47 10 94 35 q41 20 78 52q39 33 66 67l-453 485q-43 -23 -84 -57q-39 -33 -65 -74q-20 -33 -39 -94q-15 -49 -15 -117zM434 1188q0 -43 8 -74q12 -45 25 -67q14 -27 45 -68q37 -49 66 -80q49 20 104 55q45 29 73.5 64t43 76t14.5 96q0 39 -10 76q-10 35 -33 61q-20 23 -59 39t-88 16 q-90 0 -140 -53q-49 -52 -49 -141z" />
<glyph unicode="'" horiz-adv-x="450" d="M117 1462h217l-62 -481h-94z" />
<glyph unicode="(" horiz-adv-x="708" d="M117 649q0 178 28 328q27 143 93 254q66 113 163 190q102 80 242 135v-92q-109 -68 -168 -153q-66 -94 -94 -197q-33 -115 -41 -223q-10 -133 -10 -241.5t10 -241.5q8 -113 41 -226q29 -102 94 -196q59 -86 168 -154v-94q-139 55 -242 135q-98 78 -163 190 q-63 111 -93 256q-28 150 -28 330z" />
<glyph unicode=")" horiz-adv-x="708" d="M66 -168q109 68 168 154t94 196q31 100 41 226q10 133 10 241.5t-10 241.5q-10 123 -41 223q-35 111 -94.5 197t-167.5 153v92q139 -55 241 -135q94 -74 162 -190q63 -109 94 -254q29 -135 29 -328q0 -195 -29 -330q-31 -150 -94 -256q-68 -117 -162 -190 q-102 -80 -241 -135v94z" />
<glyph unicode="*" horiz-adv-x="1024" d="M84 1063l344 102l-344 103l72 162l315 -199l-53 325h178l-57 -323l317 192l72 -159l-346 -101l346 -100l-72 -158l-317 191l57 -324h-178l51 324l-313 -195z" />
<glyph unicode="+" d="M133 672v121h377v378h123v-378h379v-121h-379v-379h-123v379h-377z" />
<glyph unicode="," horiz-adv-x="512" d="M61 -229q100 31 147.5 78t47.5 106q0 23 -10 33q-20 20 -29 24q-6 4 -18.5 10.5t-18.5 10.5q-12 6 -35 24q-16 14 -28 35q-10 18 -11 51q0 59 39 90t95 31q31 0 59 -12q33 -14 51 -33q23 -23 35 -57.5t12 -75.5q0 -66 -18 -127q-16 -57 -60 -113q-37 -49 -102 -92 q-63 -41 -156 -69v86z" />
<glyph unicode="-" horiz-adv-x="634" d="M51 481v154h533v-154h-533z" />
<glyph unicode="." horiz-adv-x="585" d="M164 125q0 37 10 68q8 27 27 40q20 18 41 23q33 8 51 8q16 0 49 -8q20 -4 41 -23q20 -16 29 -40q10 -31 10 -68q0 -35 -10 -66q-8 -27 -29 -43q-20 -18 -41 -22q-33 -8 -49 -8q-18 0 -51 8q-20 4 -41 22q-16 14 -27 43q-10 31 -10 66z" />
<glyph unicode="/" horiz-adv-x="589" d="M0 -248l471 1804h119l-469 -1804h-121z" />
<glyph unicode="0" d="M92 735q0 164 29 307q29 139 86 237.5t149 150.5q94 53 219 53q119 0 209 -53q88 -51 150 -150q57 -92 90 -238q29 -129 29 -309q0 -178 -29 -307q-33 -147 -90 -240q-59 -96 -150 -151q-88 -55 -211 -55q-125 0 -217 55t-149 151.5t-86 239.5t-29 309zM305 733 q0 -160 14 -272q16 -121 46 -201q31 -84 84 -127q51 -43 124.5 -43t124.5 43q53 43 84 127q35 92 45 201q12 121 13 272q0 151 -13 271q-10 109 -45 200q-29 78 -82 125q-49 43 -124.5 43t-126.5 -43q-53 -45 -84 -125q-29 -80 -46 -200q-14 -113 -14 -271z" />
<glyph unicode="1" d="M135 1206q6 2 19.5 5t23.5 6.5t19 7.5q31 12 67 30q35 18 78 45q25 16 92 64l144 106h131v-1237q0 -45 14 -77q12 -29 35 -45q18 -14 53 -21q20 -4 66 -4h100v-86h-780v86h137q45 0 65 4q35 6 54 21q25 18 36 45q12 29 13 77v1076l-42 -48t-32 -38q-25 -29 -68 -68 q-31 -28 -61 -43q-33 -16 -61 -16q-46 0 -74 30q-29 33 -29 80z" />
<glyph unicode="2" d="M104 0v150l342 395q70 80 138 170q59 78 90 141q35 68 49 131q14 59 14 133q0 59 -12 107q-12 45 -39 82q-25 35 -65 53q-39 18 -93 18q-72 0 -114.5 -24.5t-67.5 -67.5q-27 -47 -35 -96t-8 -117q-39 0 -70 6q-33 6 -55 21q-25 14 -37 41q-14 29 -14 65q0 59 25 109 q25 47 77 88q45 35 125 57q70 20 174 21q98 0 174 -25q70 -23 132 -69q55 -43 81 -107q29 -68 29 -141q0 -68 -22 -140q-18 -59 -68 -139q-51 -82 -106 -149l-146 -166l-346 -383h473q45 0 76 12q29 12 49 34.5t29 49.5q18 51 18 57l8 37h86l-10 -354h-881z" />
<glyph unicode="3" d="M119 207q0 61 34.5 96t94.5 35q0 -55 18 -100q18 -47 49 -78q33 -33 82 -51.5t111 -18.5q68 0 117 16q53 18 96 58q45 43 67 100q25 63 25 156q0 65 -25 117q-25 53 -73 90q-47 35 -117 57q-63 20 -156 21h-65v104h65q66 0 127 22q53 20 101 64q45 41 69 100 q25 57 25 131q0 61 -12 107q-12 47 -39 80q-29 35 -68 51t-100 16q-72 0 -115 -24.5t-68 -67.5q-27 -47 -35 -96t-8 -117q-39 0 -69 6q-33 6 -55 21q-27 16 -39.5 40.5t-12.5 65.5q0 59 25 109q25 51 78 88q51 35 125 57q70 20 174 21q92 0 176 -23q82 -23 135 -63 q61 -49 88 -101q31 -61 31 -139q0 -70 -25 -131q-23 -57 -67 -108q-49 -55 -105 -87q-59 -33 -131 -51q20 -2 80 -14q47 -10 86 -26.5t80 -45.5q37 -25 68 -65q27 -35 47 -92q18 -53 18 -119q0 -80 -22.5 -147.5t-59.5 -112.5q-41 -49 -90 -82q-55 -35 -109 -56 q-59 -23 -118 -30q-68 -10 -121 -10q-100 0 -174 18q-76 18 -121 49q-49 33 -70 74q-22 45 -22 86z" />
<glyph unicode="4" d="M35 401v84l633 977h194v-946h254v-115h-254v-168q0 -49 12 -77q12 -27 37 -45q18 -14 54 -21q20 -4 65 -4h27v-86h-617v86h58q45 0 65 4q35 6 53 21q25 18 37 45q12 29 13 77v168h-631zM182 516h484v379q0 14 1 47t1 51.5t1 55t1 55.5q0 39 4 113q2 37 6 102 q-2 -6 -9 -17.5l-12 -19.5q-4 -6 -11 -21.5t-17 -31.5l-35 -62l-37 -61l-35 -57q-6 -12 -28 -45z" />
<glyph unicode="5" d="M113 186q0 55 32.5 88t96.5 33q0 -43 16 -82q16 -41 45 -65q31 -27 78 -43q49 -16 108 -17q70 0 117 17q51 18 92 59t62 107q23 72 22 163q0 78 -22 142q-18 53 -63.5 98t-98.5 62q-57 18 -127 18q-39 0 -92 -4q-27 -2 -68 -10q-33 -6 -51 -15l-20.5 -7t-20.5 -9l-49 14 l66 725h684l10 -309h-86l-8 61q-4 25 -9 37q-8 20 -16 27q-10 8 -33 14q-20 6 -53 6h-397l-39 -450q18 8 90 22q49 10 149 11q102 0 185 -27q84 -27 147 -82q66 -55 101 -135q35 -78 34 -189q0 -102 -34 -190q-35 -90 -97 -147q-63 -59 -155 -95q-94 -35 -209 -34 q-106 0 -189 20q-78 18 -118 49q-45 33 -62 66q-18 36 -18 71z" />
<glyph unicode="6" d="M125 737q0 104 14 191q16 94 43 176q23 68 74 151q41 68 104 121q59 51 134 78q76 29 165 29q86 0 149.5 -18.5t104.5 -47.5q43 -31 63.5 -69.5t20.5 -79.5q0 -59 -41 -90q-43 -33 -116 -33q0 55 -9 94q-8 37 -32 76q-20 33 -55 51t-85 18q-154 0 -233 -151 q-78 -145 -90 -451q29 25 55 41q25 14 68 33q39 16 77.5 24.5t92.5 8.5q90 0 170 -29q76 -27 129 -84q59 -63 84 -131q29 -80 28 -176q0 -109 -30 -199q-31 -89 -86 -153q-55 -63 -137 -100t-187 -37q-102 0 -188 43q-90 45 -152 133q-59 86 -98 235q-37 145 -37 346z M334 666q2 -147 22 -263q18 -109 54 -178q35 -68 86 -100q53 -33 110 -33q111 0 168 86q57 84 57 271q0 174 -63 256q-61 80 -180 79q-35 0 -76 -10q-25 -6 -70 -26q-23 -10 -59 -39q-27 -21 -49 -43z" />
<glyph unicode="7" d="M121 1090l10 370h916v-59l-504 -1401h-154l483 1296h-538q-109 0 -119 -104l-8 -102h-86z" />
<glyph unicode="8" d="M94 367q0 78 23 129q29 63 65 100q47 47 101 78q94 55 123 67q-63 37 -107 72q-55 45 -84 84q-41 55 -55 100q-18 55 -19 119q0 72 25 137q25 63 78 117q51 51 137 82t203 31q100 0 171.5 -26.5t125.5 -74.5q52 -46 80 -110q27 -61 26 -142q0 -70 -20 -118 q-25 -57 -56 -92q-33 -37 -88 -72q-49 -31 -112 -64q74 -37 139 -77q61 -39 106 -89q45 -47 70 -104q25 -55 25 -123q0 -94 -35 -174q-34 -77 -98 -129q-66 -53 -156 -80q-96 -29 -203 -28q-117 0 -203 30q-90 33 -145 82q-57 51 -88 123q-29 66 -29 152zM293 358 q0 -65 18 -116q20 -55 51 -90q33 -35 87 -58q49 -20 120 -20q68 0 121 20q55 23 94 58q37 33 60 86q20 47 20 108q0 53 -18 96q-16 39 -64 86q-41 41 -110 82q-55 33 -168 82q-94 -49 -154 -135q-57 -82 -57 -199zM334 1141q0 -55 18 -99q18 -45 51 -79q34 -37 86 -68 q63 -37 121 -64q53 25 95 60q43 35 61 67q22 37 31 80q8 39 8 97q0 46 -12 92q-10 39 -41 80q-27 35 -72 57t-109 22q-59 0 -102 -18q-45 -18 -74 -51q-31 -33 -45 -78q-16 -49 -16 -98z" />
<glyph unicode="9" d="M104 979q0 117 29 203q29 88 88 159q55 68 137 105q84 37 185 37q106 0 190 -39q86 -39 152 -125q61 -80 100 -213q35 -123 35 -311q0 -90 -14 -209q-12 -98 -41 -195q-23 -74 -74 -166q-41 -74 -105 -131q-59 -53 -143 -86q-80 -31 -178 -31q-90 0 -146 15 q-53 14 -90 41q-29 20 -47 57q-14 29 -14 64q0 39 18.5 63.5t42.5 34.5q20 -41 35 -62q23 -33 49 -51q39 -27 68 -37q37 -12 86 -12q172 0 252 151.5t90 460.5q-25 -33 -51 -53q-31 -25 -68 -43q-39 -18 -82 -31q-47 -12 -100 -12q-84 0 -164 27q-74 25 -127 78t-84 129 q-29 71 -29 182zM315 999q0 -88 15 -145q14 -59 45 -96t74 -55.5t104 -18.5q41 0 92 14q35 10 74 37q33 23 55 51q18 23 37 64v4q-4 145 -23 233q-20 92 -55 160q-33 61 -82 92t-108 31q-111 0 -168 -94q-60 -97 -60 -277z" />
<glyph unicode=":" horiz-adv-x="587" d="M166 125q0 37 10 68q8 27 27 40q20 18 41 23q33 8 51 8q16 0 49 -8q20 -4 41 -23q20 -16 29 -40q10 -31 10 -68q0 -35 -10 -66q-8 -27 -29 -43q-20 -18 -41 -22q-33 -8 -49 -8q-18 0 -51 8q-20 4 -41 22q-16 14 -27 43q-10 31 -10 66zM166 969q0 37 10 67q8 27 27 41 q25 20 41 25q25 6 51 6q25 0 49 -6q16 -4 41 -25q20 -16 29 -41q10 -31 10 -67q0 -35 -10 -66q-8 -27 -29 -43q-25 -20 -41 -24q-25 -6 -49 -7q-27 0 -51 7q-16 4 -41 24q-16 14 -27 43q-10 31 -10 66z" />
<glyph unicode=";" horiz-adv-x="512" d="M61 -229q100 31 147.5 78t47.5 106q0 23 -10 33q-20 20 -29 24q-6 4 -18.5 10.5t-18.5 10.5q-12 6 -35 24q-16 14 -28 35q-10 18 -11 51q0 59 39 90t95 31q31 0 59 -12q33 -14 51 -33q23 -23 35 -57.5t12 -75.5q0 -66 -18 -127q-16 -57 -60 -113q-37 -49 -102 -92 q-63 -41 -156 -69v86zM129 969q0 37 10 67q8 27 27 41q25 20 41 25q25 6 51 6q25 0 49 -6q16 -4 41 -25q20 -16 29 -41q10 -31 10 -67q0 -35 -10 -66q-8 -27 -29 -43q-25 -20 -41 -24q-25 -6 -49 -7q-27 0 -51 7q-16 4 -41 24q-16 14 -27 43q-10 31 -10 66z" />
<glyph unicode="&#x3c;" d="M133 696v72l879 473v-137l-688 -373l688 -369v-137z" />
<glyph unicode="=" d="M133 469v121h879v-121h-879zM133 872v121h879v-121h-879z" />
<glyph unicode="&#x3e;" d="M133 225v137l688 369l-688 373v137l879 -473v-72z" />
<glyph unicode="?" horiz-adv-x="1024" d="M88 1253q0 45 23 90q20 41 69 74q45 31 119 49q63 16 172 17q94 0 178 -25q80 -23 144 -72q57 -43 94 -116q33 -66 33 -158q0 -88 -27 -154q-29 -70 -78 -124q-53 -59 -125 -105q-76 -47 -168 -86v-231h-125v311q84 35 150 84q55 41 96 102q39 57 53 117q14 57 15 121 q0 53 -13 96q-12 41 -41 74q-29 31 -69 49q-39 16 -101 16q-68 0 -108 -20q-43 -20 -70 -57q-27 -35 -39 -84q-12 -45 -12 -101q-41 0 -68 8q-33 10 -53 25q-25 18 -37 41q-12 24 -12 59zM328 125q0 37 10 68q8 27 27 40q20 18 41 23q33 8 51 8q16 0 49 -8q20 -4 41 -23 q20 -16 28 -40q10 -31 11 -68q0 -35 -11 -66q-8 -27 -28 -43q-20 -18 -41 -22q-33 -8 -49 -8q-18 0 -51 8q-20 4 -41 22q-16 14 -27 43q-10 31 -10 66z" />
<glyph unicode="@" horiz-adv-x="1884" d="M133 446q0 144 31 277q27 117 92 244q59 115 143 204q88 94 191 156q115 70 231 100q129 35 264 35q174 0 301 -51q135 -55 218 -139q90 -92 131 -209q43 -121 43 -260q0 -156 -35 -268q-37 -123 -94.5 -203t-130.5 -129q-70 -45 -142 -45q-90 0 -151 49q-63 51 -90 137 h-11q-25 -47 -47 -74q-31 -37 -61 -59q-35 -25 -74 -39q-41 -14 -94 -14q-66 0 -119 20.5t-98 65.5q-43 43 -68 108q-27 70 -26 156q0 53 12 118.5t39 127.5q29 68 69 123q51 70 99 106q55 43 133 72q80 29 170 28q68 0 115 -18t77 -43l82 43h49l-104 -522l-6 -47 q-4 -29 -6 -45.5t-2 -44.5q0 -31 10 -62q8 -25 29 -45q14 -14 38 -25q18 -8 48 -8q49 0 92 35q53 41 86 107q37 72 61 170q25 102 25 231q0 133 -43 235.5t-119 172t-184 106.5q-102 35 -234 35q-98 0 -196 -29q-100 -29 -183 -82q-90 -57 -159 -133q-80 -86 -127 -178 q-51 -98 -82 -223q-31 -123 -31 -262q0 -172 49 -291t133 -197q86 -80 193 -113q115 -35 235 -34q90 0 160 14q82 16 139 39q68 27 121 55q63 35 100 62l48 -74q-70 -49 -113 -74q-72 -41 -137 -65q-82 -31 -158 -47.5t-180 -16.5q-168 0 -303 45q-141 47 -238 137 q-100 94 -156 232q-55 139 -55 323zM727 479q0 -108 43 -160q43 -53 113 -53q51 0 90 23q41 25 63 57q31 47 43 82q14 43 25 94l78 416q-14 31 -45 45q-37 16 -70 16q-63 0 -111 -26q-51 -29 -86 -70q-39 -45 -65 -98q-25 -47 -45 -115q-12 -39 -25 -112q-8 -50 -8 -99z" />
<glyph unicode="A" horiz-adv-x="1443" d="M0 0v86h39q31 0 51 6q16 4 37 25q16 16 33 49q20 39 35 80l454 1216h160l463 -1267q14 -35 24 -54q12 -23 29 -32q18 -12 41 -19q14 -4 51 -4h27v-86h-563v86h47q123 0 123 98q0 10 -4 35q-4 20 -13 41l-82 229h-538l-78 -215q-8 -20 -14 -47q-4 -16 -5 -41q0 -51 33 -75 q35 -25 103 -25h47v-86h-500zM453 592h462l-127 358l-59 170q-16 47 -43 154q-4 -31 -16 -72q-12 -45 -21 -69q-2 -6 -10 -33t-14 -43l-33 -88z" />
<glyph unicode="B" horiz-adv-x="1337" d="M78 0v86h26q45 0 66 4q35 6 53 21q23 16 35 45q14 33 14 77v1004q0 39 -14 72q-10 25 -37 43q-25 18 -53 20q-41 4 -64 4h-26v86h549q270 0 397 -88q129 -88 129 -278q0 -63 -20 -121q-16 -47 -54 -90q-31 -35 -80 -66q-43 -27 -100 -45v-8q63 -10 127 -41 q53 -25 100 -76q45 -47 66 -110q23 -68 22 -144q0 -197 -131 -297q-129 -98 -395 -98h-610zM479 102h199q82 0 147 17q63 16 99 51q39 39 55 92q16 51 16 139q0 84 -14 140q-14 57 -53 98q-37 39 -97 57q-61 18 -149 19h-203v-613zM479 817h142q84 0 149 17q59 14 96 49 q35 33 52 86q16 55 16 127q0 82 -16 125q-20 51 -56 82q-41 33 -98 45q-61 12 -148 12h-137v-543z" />
<glyph unicode="C" horiz-adv-x="1255" d="M117 733q0 164 43 303q45 145 123 238q82 98 206 153q123 55 285 56q115 0 182 -17q77 -18 129 -49q53 -31 78 -74t25 -90q0 -27 -14 -59q-12 -27 -37 -45q-29 -20 -56 -29q-37 -10 -71 -10q0 49 -13 94q-12 49 -41 86q-25 33 -73 60q-47 25 -113 24q-117 0 -197 -43 q-84 -45 -133 -123q-52 -83 -73 -202q-23 -125 -23 -273q0 -138 25 -252q25 -113 75 -194q51 -80 131 -127q78 -45 195 -45q78 0 133 14q59 16 101 39q45 27 77 55q35 31 60 66q14 -10 28 -31q10 -16 11 -49q0 -41 -27 -80q-31 -43 -80 -74q-51 -31 -137 -53t-197 -22 q-154 0 -270 55q-113 53 -193 151q-78 94 -118 240q-41 141 -41 307z" />
<glyph unicode="D" horiz-adv-x="1488" d="M78 0v86h26q45 0 66 4q35 6 53 21q23 16 35 45q14 33 14 77v1004q0 39 -14 72q-10 25 -37 43q-25 18 -53 20q-41 4 -64 4h-26v86h627q160 0 282.5 -49t208.5 -141q84 -90 131 -230q45 -133 45 -309q0 -168 -43 -303q-45 -139 -125 -231q-84 -96 -207 -147.5t-292 -51.5 h-627zM479 104h178q125 0 213 41q94 45 154 121q57 76 90 199q31 117 31 268q0 307 -121 465q-125 162 -365 162h-180v-1256z" />
<glyph unicode="E" horiz-adv-x="1275" d="M78 0v86h26q23 0 64 4q33 4 53 19q27 20 37 41q14 33 14 73v1006q0 45 -14 78q-12 27 -35 43q-18 14 -53 20q-31 6 -66 6h-26v86h1032l10 -358h-106l-10 88q-4 39 -15 65q-14 35 -33 54q-23 23 -55 35q-39 14 -78 14h-344v-545h494v-100h-494v-613h395q51 0 84 12.5 t58 37.5q23 23 35 53.5t18 64.5l14 88h107l-14 -358h-1098z" />
<glyph unicode="F" horiz-adv-x="1206" d="M78 0v86h26q23 0 64 4q33 4 53 19q27 20 37 41q14 33 14 73v1014q0 39 -14 72q-10 25 -37 43q-25 18 -53 20q-41 4 -64 4h-26v86h1032l10 -358h-106l-10 88q-2 33 -17 65q-14 35 -33 54q-23 23 -57 35q-39 14 -82 14h-336v-592h494v-100h-494v-435q0 -49 13 -77 q12 -27 36 -45q18 -14 54 -21q20 -4 65 -4h68v-86h-637z" />
<glyph unicode="G" horiz-adv-x="1460" d="M117 733q0 168 45 303q45 137 137 238q90 98 223 153q135 55 312 56q123 0 198 -17q86 -18 142 -49q57 -31 83 -74q29 -45 29 -90q0 -33 -14 -59q-14 -25 -41 -45.5t-60 -28.5q-37 -10 -75 -10q0 51 -15 94q-18 53 -44.5 86t-84.5 60q-51 25 -127 24q-129 0 -221 -43 q-94 -43 -149 -123q-59 -86 -84 -202q-27 -129 -27 -273q0 -158 27 -272q29 -123 88 -201q63 -82 157.5 -123t237.5 -41q59 0 114.5 6.5t98.5 18.5v330q0 41 -14 73q-10 25 -35 41q-18 12 -55 21q-20 4 -64 4h-8v86h532v-86h-8q-39 0 -55 -4q-29 -8 -45 -21q-18 -16 -31 -45 q-10 -25 -10 -78v-368q-109 -51 -211 -72q-113 -23 -242 -22q-178 0 -311 55q-137 57 -219 151q-88 100 -131 240q-43 138 -43 307z" />
<glyph unicode="H" horiz-adv-x="1622" d="M78 0v86h26q45 0 66 4q35 6 53 21q23 16 35 45q14 33 14 77v1004q0 39 -14 72q-10 25 -37 43q-25 18 -53 20q-41 4 -64 4h-26v86h596v-86h-27q-35 0 -65 -6q-35 -6 -54 -20q-27 -18 -36 -43q-12 -29 -13 -78v-414h666v414q0 45 -15 78q-12 27 -34 43q-18 14 -54 20 q-31 6 -65 6h-27v86h596v-86h-26q-35 0 -66 -6q-35 -6 -53 -20q-23 -16 -35 -43q-14 -33 -14 -78v-1006q0 -41 14 -73q10 -20 37 -41q20 -14 53 -19q41 -4 64 -4h26v-86h-596v86h27q45 0 65 4q35 6 54 21q23 16 34 45q14 33 15 77v480h-666v-480q0 -49 13 -77q12 -27 36 -45 q18 -14 54 -21q20 -4 65 -4h27v-86h-596z" />
<glyph unicode="I" horiz-adv-x="751" d="M78 0v86h26q45 0 66 4q35 6 53 21q23 16 35 45q14 33 14 77v996q0 45 -14 78q-12 27 -35 43q-18 14 -53 20q-31 6 -66 6h-26v86h596v-86h-27q-35 0 -65 -6q-35 -6 -54 -20q-27 -18 -36 -43q-12 -29 -13 -78v-996q0 -49 13 -77q12 -27 36 -45q18 -14 54 -21q20 -4 65 -4 h27v-86h-596z" />
<glyph unicode="J" horiz-adv-x="729" d="M-23 -395h19q65 0 117 18q55 18 88 62q35 45 53 116q18 74 18 181v1255q0 39 -14 72q-10 25 -37 43q-25 18 -53 20q-41 4 -64 4h-26v86h596v-86h-27q-35 0 -65 -6q-35 -6 -54 -20q-27 -18 -36 -43q-12 -29 -13 -78v-1245q0 -137 -36.5 -229.5t-98.5 -145.5 q-68 -57 -149 -78q-90 -23 -183 -23h-35v97z" />
<glyph unicode="K" horiz-adv-x="1433" d="M78 0v86h26q23 0 64 4q33 4 53 19q27 20 37 41q14 33 14 73v1014q0 39 -14 72q-10 25 -37 43q-25 18 -53 20q-41 4 -64 4h-26v86h596v-86h-27q-35 0 -65 -6q-35 -6 -54 -20q-27 -18 -36 -43q-12 -29 -13 -78v-578l424 486q34 37 55 67q29 41 35 53.5t17 42.5q6 18 6 33 q0 27 -25 35q-27 10 -76 10v84h453v-84q-29 0 -68 -14q-31 -10 -65 -37q-27 -20 -66 -61q-35 -35 -75 -80l-297 -334l432 -602q57 -78 114 -123q53 -41 111 -41h4v-86h-22q-111 0 -168 8q-74 10 -113 29q-45 20 -78 57q-43 47 -71 90l-353 506l-174 -141v-316q0 -49 13 -77 q12 -27 36 -45q18 -14 54 -21q20 -4 65 -4h27v-86h-596z" />
<glyph unicode="L" horiz-adv-x="1275" d="M78 0v86h26q45 0 66 4q35 6 53 21q23 16 35 45q14 33 14 77v996q0 45 -14 78q-12 27 -35 43q-18 14 -53 20q-31 6 -66 6h-26v86h596v-86h-27q-25 0 -65 -4q-29 -2 -54 -20q-27 -18 -36 -43q-12 -27 -13 -72v-1135h404q41 0 78 17q34 15 55 43q16 23 31 59q14 39 16 66 l20 153h107l-14 -440h-1098z" />
<glyph unicode="M" horiz-adv-x="1918" d="M78 0v86h26q23 0 64 4q33 4 53 19q27 20 37 41q14 33 14 73v1014q0 39 -14 72q-10 25 -37 43q-25 18 -53 20q-41 4 -64 4h-26v86h467l424 -1171l420 1171h454v-86h-26q-35 0 -66 -6q-35 -6 -53 -20q-23 -16 -35 -43q-14 -33 -14 -78v-996q0 -45 14 -77q12 -29 35 -45 q18 -14 53 -21q20 -4 66 -4h26v-86h-545v86h7q23 0 59 4q20 2 45 19q16 10 31 38q8 16 12 68v1094l-469 -1309h-111l-475 1305v-1072q0 -47 11 -77q10 -29 28 -45q16 -14 47 -21q18 -4 62 -4h6v-86h-473z" />
<glyph unicode="N" horiz-adv-x="1562" d="M78 0v86h26q45 0 66 4q35 6 53 21q23 16 35 45q14 33 14 77v1004q0 39 -14 72q-10 25 -37 43q-25 18 -53 20q-41 4 -64 4h-26v86h375l733 -1132v907q0 45 -12 72q-10 25 -37 43q-25 18 -54 20q-41 4 -65 4h-27v86h514v-86h-26q-35 0 -66 -6q-35 -6 -53 -20 q-27 -18 -37 -43q-12 -29 -12 -78v-1229h-146l-768 1180v-947q0 -49 13 -77q12 -27 36 -45q18 -14 54 -21q20 -4 65 -4h27v-86h-514z" />
<glyph unicode="O" horiz-adv-x="1519" d="M115 735q0 168 41 309q41 139 118 236q82 100 203 152q125 53 285 53q152 0 274 -53q115 -51 201 -152q80 -96 125 -238q41 -131 41 -309q0 -176 -41 -307q-45 -145 -125 -239.5t-203 -151.5q-121 -55 -274 -55q-166 0 -285 55q-125 57 -201 151q-78 94 -118 240 q-41 141 -41 309zM342 733q0 -147 23 -272q20 -115 71 -201q49 -82 131 -127q80 -43 193 -43q115 0 194.5 43t128.5 127q49 82 70 201q23 125 23 272q0 145 -23 271q-23 123 -70 202q-49 82 -129 125t-192 43q-115 0 -195 -43t-129 -125q-53 -90 -73 -202q-23 -126 -23 -271 z" />
<glyph unicode="P" horiz-adv-x="1236" d="M78 0v86h26q45 0 66 4q35 6 53 21q23 16 35 45q14 33 14 77v1004q0 39 -14 72q-10 25 -37 43q-25 18 -53 20q-41 4 -64 4h-26v86h575q129 0 224 -30q100 -33 157 -84q61 -55 92 -135t31 -179q0 -90 -29 -176q-27 -80 -94 -147q-61 -61 -170 -103q-102 -39 -256 -39h-129 v-346q0 -46 13 -73q10 -20 36 -41q20 -14 54 -19q41 -4 65 -4h68v-86h-637zM479 666h109q88 0 160 20q63 18 106 62q45 45 63.5 112.5t18.5 165.5q0 92 -16 150q-16 59 -56 104q-35 41 -98 63q-59 20 -148 21h-139v-698z" />
<glyph unicode="Q" horiz-adv-x="1519" d="M115 735q0 168 41 309q41 139 118 236q82 100 203 152q125 53 285 53q152 0 274 -53q115 -51 201 -152q80 -96 125 -238q41 -131 41 -309q0 -154 -33 -276q-34 -126 -98 -221q-70 -102 -158 -160q-98 -63 -217 -84q8 -102 35 -176q25 -72 63.5 -113t89.5 -59 q53 -18 115 -19h33v-96h-88q-78 0 -162 22q-82 23 -145 74q-70 55 -111 139q-47 92 -55 220q-137 14 -246 75q-106 59 -172 156q-74 106 -104 229q-35 135 -35 291zM342 733q0 -147 23 -272q20 -115 71 -201q49 -82 131 -127q80 -43 193 -43q115 0 194.5 43t128.5 127 q49 82 70 201q23 125 23 272q0 145 -23 271q-23 123 -70 202q-49 82 -129 125t-192 43q-115 0 -195 -43t-129 -125q-53 -90 -73 -202q-23 -126 -23 -271z" />
<glyph unicode="R" horiz-adv-x="1341" d="M78 0v86h26q23 0 64 4q33 4 53 19q27 20 37 41q14 33 14 73v1014q0 39 -14 72q-10 25 -37 43q-25 18 -53 20q-41 4 -64 4h-26v86h551q266 0 395 -98q131 -100 131 -297q0 -84 -27 -143q-29 -61 -69 -107q-43 -47 -96 -76q-49 -27 -109 -47l281 -444q51 -82 102 -123 t113 -41h6v-86h-29q-96 0 -158 6q-59 6 -104 29q-47 25 -74 55q-37 43 -65 94l-277 461h-170v-422q0 -46 13 -73q10 -20 36 -41q20 -14 54 -19q41 -4 65 -4h27v-86h-596zM479 741h144q90 0 149 21q61 20 96 59t52 101q16 66 16 139q0 88 -16 139q-18 57 -56 94 q-39 39 -98 54q-66 16 -148 16h-139v-623z" />
<glyph unicode="S" horiz-adv-x="1112" d="M98 268q0 63 39 100.5t109 37.5q2 -55 20 -123q15 -58 49 -105q33 -45 84.5 -71.5t122.5 -26.5q138 0 215 67q78 68 78 191q0 53 -16 98q-14 41 -54 80q-37 37 -96 70q-66 37 -151 71q-90 37 -166 84q-76 45 -119 99q-51 61 -70 121q-23 72 -22 151q0 92 33 158 q37 74 94 116q66 49 141 72q82 25 180 25q90 0 162 -19q68 -18 121 -51q49 -31 74 -74q27 -47 26 -86q0 -66 -43 -100q-41 -33 -118 -33q0 55 -11 94q-12 49 -39 84q-29 37 -71 60q-45 23 -109 22q-57 0 -106 -16q-45 -16 -78 -47q-31 -31 -49 -74q-16 -39 -16.5 -96 t16.5 -107q16 -45 53 -84q39 -39 98 -71q57 -31 150 -70q82 -35 159 -78q66 -37 121 -92q47 -47 74 -112.5t27 -141.5q0 -102 -35 -174q-37 -76 -103 -129q-63 -51 -157 -80q-96 -29 -209 -28q-102 0 -176 20t-129 59q-49 35 -76 91q-27 57 -27 118z" />
<glyph unicode="T" horiz-adv-x="1253" d="M41 1104l10 358h1153l10 -358h-106l-10 88q-2 25 -15 65q-8 31 -28.5 53.5t-48.5 35.5q-35 14 -78 14h-199v-1127q0 -45 14 -77q12 -29 35 -45q18 -14 53 -21q20 -4 66 -4h47v-86h-637v86h47q23 0 64 4q33 4 53 19q27 20 37 41q14 33 14 73v1137h-196q-39 0 -76 -14 q-29 -12 -49.5 -35t-28.5 -54q-12 -41 -14 -65l-11 -88h-106z" />
<glyph unicode="U" horiz-adv-x="1466" d="M31 1376v86h596v-86h-27q-35 0 -65 -6q-35 -6 -54 -20q-23 -16 -35 -43q-14 -33 -14 -78v-799q0 -90 24.5 -151.5t71.5 -102.5q41 -35 109 -55q61 -18 137 -19q89 0 154 25q66 25 106 66q43 41 64 100q20 55 20 129v815q0 39 -14 72q-10 25 -37 43q-25 18 -53 20 q-41 4 -64 4h-26v86h514v-86h-27q-35 0 -65 -6q-35 -6 -54 -20q-23 -16 -35 -43q-14 -33 -14 -78v-811q0 -102 -33 -182q-35 -88 -96 -140q-66 -57 -158 -86q-96 -31 -215 -30q-115 0 -217 26q-94 25 -161.5 80t-102.5 143t-35 213v795q0 39 -14 72q-10 25 -37 43 q-25 18 -53 20q-41 4 -64 4h-26z" />
<glyph unicode="V" horiz-adv-x="1380" d="M0 1376v86h563v-86h-47q-61 0 -92 -24.5t-31 -73.5q0 -10 4 -35q4 -20 13 -41l225 -665q37 -111 53 -177l39 -159q8 39 39 157q22 83 55 179l226 651q2 4 14 49q4 14 4 39q0 51 -33 75.5t-102 24.5h-47v86h499v-86h-39q-29 0 -51 -6q-20 -6 -38.5 -24.5t-32.5 -47.5 q-8 -16 -33 -81l-424 -1217h-150l-442 1268q-14 35 -25 53q-12 23 -28 33q-14 10 -39 16q-23 6 -53 6h-27z" />
<glyph unicode="W" horiz-adv-x="2142" d="M18 1376v86h564v-86h-47q-61 0 -92 -24.5t-31 -73.5q0 -16 6 -35q4 -18 10 -41l188 -655q27 -92 50 -182l39 -164q14 74 36 174q31 137 47 194l244 879h148l256 -887q37 -135 51 -196l37 -164q6 29 19 86t16 69q14 61 47 181l180 632q2 12 6 27q2 4 4 14.5t4 16.5 q2 8 4 14t2 12q2 8 2 23q0 51 -34 76q-33 25 -101 24h-47v86h500v-86h-39q-31 0 -53.5 -6t-39 -22.5t-32.5 -49t-31 -81.5l-346 -1217h-184l-334 1147l-313 -1147h-189l-375 1268q-8 29 -22 53q-12 20 -31 33q-14 10 -39 16q-20 6 -53 6h-27z" />
<glyph unicode="X" horiz-adv-x="1351" d="M16 0v86h13q29 0 65 8q27 6 51 25q29 20 45 43q41 51 52 67l342 490l-338 549q-37 59 -84 84q-46 25 -92 24h-27v86h555v-86h-6q-29 0 -57 -4q-25 -4 -37 -12q-12 -10 -19 -21q-4 -8 -4 -22q0 -4 1 -11.5t1 -9.5q0 -12 6 -24q2 -4 6.5 -14.5t8.5 -16.5q10 -20 26 -45 l185 -299l194 295l37 65q14 29 14 60q0 18 -8 29q-9 12 -24 18q-23 8 -33 10q-14 2 -45 2h-6v86h448v-86h-18q-20 0 -54 -8q-29 -8 -49 -25q-29 -25 -47 -45q-31 -35 -53 -69l-297 -428l377 -606q43 -57 86 -84q39 -25 78 -25h26v-86h-553v86h11q123 0 122 68q0 14 -2 22 q0 2 -10 27q-2 4 -20 37q-31 47 -35 55l-203 326l-227 -336q-6 -8 -19 -29q-4 -6 -9 -18.5t-7 -16.5l-12 -37q-6 -18 -6 -34q0 -35 32 -50q31 -14 101 -14h6v-86h-488z" />
<glyph unicode="Y" horiz-adv-x="1280" d="M-10 1376v86h563v-86h-76q-27 0 -45 -6q-25 -8 -29 -12q-8 -8 -12 -23q-4 -16 -4 -24q0 -29 12 -58q16 -37 25 -51l151 -274q39 -68 62 -125q4 -10 41 -109q4 8 11 24.5t11 24.5l31 58l35 63l35 64l131 235q16 27 29 66q8 27 8 57q0 46 -31 68q-33 23 -92 22h-60v86h500 v-86h-24q-16 0 -41 -8q-16 -6 -39 -25q-22 -18 -43 -49q-23 -33 -47 -77l-344 -607v-377q0 -45 14 -77q12 -29 35 -45q18 -14 53 -21q20 -4 65 -4h48v-86h-637v86h47q25 0 65 4q33 4 54 19q27 20 36 41q12 28 13 73v387l-379 658q-4 6 -11.5 16t-12.5 18.5t-9 14.5 q-16 25 -31 35q-15 12 -37 18q-20 6 -45 6h-26z" />
<glyph unicode="Z" horiz-adv-x="1210" d="M74 0v82l768 1278h-445q-41 0 -75 -14q-29 -12 -49.5 -35t-28.5 -54q-12 -41 -15 -65l-10 -88h-106l10 358h971v-84l-770 -1276h516q47 0 78 13q27 10 49 37q20 23 28 53q12 41 15 65l10 88h106l-10 -358h-1042z" />
<glyph unicode="[" horiz-adv-x="733" d="M205 -262v1818h457v-86h-89q-35 0 -65 -6q-35 -6 -53 -20q-23 -16 -35 -43q-14 -33 -14 -78v-1352q0 -45 14 -77q12 -27 35 -44q18 -14 53 -20q31 -6 65 -6h89v-86h-457z" />
<glyph unicode="\" horiz-adv-x="589" d="M0 1556h119l471 -1804h-121z" />
<glyph unicode="]" horiz-adv-x="735" d="M76 -176h88q35 0 65 6q35 6 54 20q27 18 36 44q12 29 13 77v1352q0 49 -13 78q-10 25 -36 43q-18 14 -54 20q-31 6 -65 6h-88v86h456v-1818h-456v86z" />
<glyph unicode="^" d="M104 545l431 917h71l432 -917h-137l-332 729l-327 -729h-138z" />
<glyph unicode="_" horiz-adv-x="937" d="M-10 -170h960v-121h-960v121z" />
<glyph unicode="`" horiz-adv-x="1181" d="M393 1548v21h219q15 -34 37 -74q37 -70 45 -82l49 -78q33 -49 48 -67v-27h-78q-41 29 -88 70l-95 86q-33 31 -81 84q-38 39 -56 67z" />
<glyph unicode="a" horiz-adv-x="1150" d="M102 307q0 164 115 242q117 80 352 86l170 6v123q0 55 -6 102t-26.5 80t-57.5 51.5t-100 18.5q-57 0 -96 -17q-31 -12 -56 -47q-23 -33 -28 -69q-6 -39 -7 -90q-84 0 -129 28.5t-45 100.5q0 51 29 90q27 35 80 61q43 20 117 35q57 10 143 10q94 0 164 -18q71 -18 117 -62 q49 -45 71 -108q23 -61 23 -166v-531q0 -45 6 -71q6 -25 23 -45q14 -18 40 -25q25 -6 58 -6h6v-86h-277l-32 176h-17q-31 -43 -61.5 -80t-67.5 -61q-43 -29 -80 -41q-43 -14 -110 -14q-61 0 -127 20q-55 18 -100 59q-39 37 -66 103q-25 61 -25 145zM301 297q0 -96 41 -143.5 t125 -47.5q66 0 113 21q55 25 86 55q37 37 55 90q18 51 18 119v166l-131 -6q-90 -4 -145 -21q-57 -18 -94 -49q-35 -29 -51.5 -78t-16.5 -106z" />
<glyph unicode="b" horiz-adv-x="1255" d="M37 0v86h16q45 0 66 4q35 6 53 21q23 16 35 45q14 33 14 77v1098q0 39 -14 72q-10 25 -37 43q-25 18 -53 20q-41 4 -64 4h-16v86h377v-376v-80q0 -31 -4 -88l-4 -99h8q16 35 53 84q29 37 65 66q33 25 86 41q45 14 109 14q104 0 178 -33q80 -35 131 -104q55 -76 82 -176 q27 -104 27 -254q0 -152 -27 -256q-27 -102 -82 -178q-49 -66 -131 -103q-80 -35 -178 -34q-49 0 -106 14q-47 12 -89 37q-39 25 -67.5 55.5t-50.5 73.5h-13l-36 -160h-328zM414 551q0 -92 14 -189q12 -86 45 -139q35 -57 86 -84q53 -29 135 -28q68 0 115 28.5t78 83.5 q29 51 45 139q14 78 14 191t-14 190q-14 82 -45 136q-31 55 -78 81.5t-117 26.5q-82 0 -133 -26q-59 -31 -86 -80q-33 -61 -45 -138q-14 -96 -14 -192z" />
<glyph unicode="c" horiz-adv-x="1007" d="M113 543q0 160 34 274q33 109 97 178q59 66 145 94.5t180 28.5q61 0 127 -12q53 -10 115 -39q53 -25 84 -66q31 -40 31 -92q0 -74 -45 -100q-47 -29 -138 -29q0 51 -8 90t-28 76q-18 33 -52 51t-86 19q-57 0 -106 -22.5t-82 -76t-51.5 -145.5t-18.5 -227q0 -221 72 -326 q74 -106 238 -106q94 0 165 41q76 43 107 102q16 -12 25 -33q10 -25 10 -47q0 -35 -23 -70q-23 -37 -65 -63q-39 -25 -109 -45q-63 -18 -151 -18q-96 0 -189 32q-86 31 -147 99q-63 70 -97 174q-34 111 -34 258z" />
<glyph unicode="d" horiz-adv-x="1255" d="M113 547q0 152 26 256q28 108 80 178q51 70 131 104q74 33 180 33q57 0 107 -12q39 -10 86 -39q43 -27 70 -55q29 -31 51 -74h12q-4 66 -6 94l-4 76q-2 25 -2 55v168q0 45 -13 72q-10 25 -36 43q-25 18 -54 20q-41 4 -65 4h-17v86h377v-1331q0 -46 13 -73q10 -20 36 -41 q25 -18 54 -21q41 -4 65 -4h17v-86h-347l-22 184h-8q-20 -45 -53 -84q-37 -43 -66 -65q-33 -25 -86 -41q-45 -14 -109 -14q-100 0 -180 34q-82 37 -131 103q-53 72 -79.5 176t-26.5 254zM311 545q0 -217 59.5 -325.5t194.5 -108.5q82 0 133 26q55 29 86 80q35 57 47 137 q12 84 13 193q0 104 -13 188q-12 82 -47 139q-37 59 -86 84q-57 29 -135 29q-63 0 -114 -29q-47 -27 -80 -86q-27 -47 -43 -137q-15 -77 -15 -190z" />
<glyph unicode="e" horiz-adv-x="1095" d="M113 541q0 285 118 432q117 145 336 145q98 0 178 -31q76 -29 134 -92q51 -57 84 -153q31 -92 30 -213v-94h-682q4 -121 23 -193q23 -82 59 -131q41 -55 94 -78q55 -25 129 -24q52 0 99 12t82 33q43 25 65 45q29 25 47 53q14 -6 26.5 -24.5t12.5 -45.5q0 -29 -22 -67 q-20 -33 -68 -66q-41 -27 -110 -49q-63 -20 -160 -20q-104 0 -199 38q-86 35 -149 109q-59 68 -95 176q-32 101 -32 238zM315 645h471q0 80 -12 148q-10 57 -39 114q-25 49 -67 74q-47 27 -105 27q-115 0 -176 -93q-60 -88 -72 -270z" />
<glyph unicode="f" horiz-adv-x="755" d="M55 0v86h27q45 0 65 4q35 6 54 21q23 16 35 45q14 33 14 77v768h-187v97h187v102q0 90 24 162q23 68 72 119q43 45 115 71q68 25 151 25q74 0 136 -10q45 -8 88 -31q34 -18 49 -43q14 -23 14 -59q0 -28 -12 -50q-12 -20 -35 -36q-18 -14 -53 -21q-41 -8 -68 -8 q0 31 -6 61q-6 27 -23 52q-14 20 -40 36q-23 14 -66 15q-47 0 -74 -17q-29 -16 -47 -51q-20 -39 -26 -82q-6 -49 -7 -114v-121h289v-97h-289v-768q0 -49 13 -77q12 -27 37 -45q18 -14 53 -21q20 -4 65 -4h78v-86h-633z" />
<glyph unicode="g" horiz-adv-x="1101" d="M47 -193q0 61 21 105q23 49 57.5 77.5t81.5 51.5q41 18 96 29q-16 6 -40.5 24.5t-37.5 34.5q-15 22 -24 49q-10 31 -11 60q0 63 31 106q31 41 103 86q-45 18 -78 49q-31 27 -58 72q-25 41 -36 88q-12 49 -13 100q0 88 25 158q27 76 72 121q49 49 118 74q76 27 170 26 q37 0 74 -6q41 -6 65.5 -14t55.5 -23q23 -10 39 -24q2 2 14 16t21 20q29 25 45 35q29 18 55 29q25 10 63 10q35 0 54 -8q25 -10 37 -23q16 -16 22 -34q8 -25 8 -41q0 -23 -6 -41q-6 -16 -20 -35q-10 -12 -33 -23q-18 -8 -49 -8q0 16 -2 25q-2 12 -11 22q-6 8 -20 17 q-12 6 -35 6q-25 0 -47 -6q-18 -4 -41 -19q37 -47 57 -102q23 -61 23 -146q0 -74 -23 -141q-20 -61 -69 -110q-47 -47 -115 -74t-162 -27h-26q-6 0 -14.5 1t-16.5 1q-6 0 -15.5 1t-13.5 1t-11 1t-9 1q-8 -4 -37 -22q-25 -16 -33 -26.5t-20 -35.5q-8 -16 -9 -41q0 -27 9 -41 q8 -12 26.5 -22t40.5 -12q16 -2 51 -2h232q88 0 156 -23q61 -20 104 -63q41 -41 59.5 -96.5t18.5 -123.5q0 -92 -33 -159q-37 -76 -98 -121q-66 -47 -170 -76q-98 -27 -242 -27q-215 0 -319 78q-107 80 -107 221zM213 -180q0 -45 12 -84q12 -43 41 -68q31 -29 82 -43 q55 -16 129 -16q113 0 182 18q72 18 113 51q41 31 59 80q16 41 17 99q0 41 -14 77q-12 29 -39 48q-29 18 -66 24q-53 8 -90 8h-201q-31 0 -84 -8q-39 -6 -71.5 -28.5t-51 -59.5t-18.5 -98zM332 745q0 -131 43 -192t143 -61q47 0 84 16t57 45q22 31 31 80q10 55 10 115 q0 141 -43 204q-43 66 -141 66t-141 -68t-43 -205z" />
<glyph unicode="h" horiz-adv-x="1298" d="M37 0v86h16q45 0 66 4q35 6 53 21q23 16 35 45q14 33 14 77v1098q0 39 -14 72q-10 25 -37 43q-25 18 -53 20q-41 4 -64 4h-16v86h377v-450v-59q0 -23 -4 -56l-4 -59h10q92 186 301 186q88 0 155 -24q70 -25 113 -72q45 -47 69.5 -125t24.5 -180v-484q0 -49 13 -77 q14 -31 32.5 -45.5t49.5 -20.5q18 -4 63 -4h6v-86h-356v707q0 68 -13 118q-12 53 -38 88q-29 39 -68 56q-43 18 -106 18q-65 0 -111 -24q-47 -25 -76 -66q-31 -45 -47 -106q-14 -57 -14 -136v-432q0 -41 14 -73q10 -20 37 -41q20 -14 53 -19q41 -4 64 -4h6v-86h-551z" />
<glyph unicode="i" horiz-adv-x="653" d="M47 0v86h27q25 0 65 4q33 4 54 19q27 20 36 41q12 28 13 73v649q0 45 -13 72q-10 25 -36 43q-18 14 -54 21q-20 4 -65 4h-6v86h366v-865q0 -45 15 -77q12 -29 34 -45q18 -14 54 -21q20 -4 65 -4h27v-86h-582zM213 1430q0 39 8 61q8 20 27 39q14 14 36.5 20t45 6t45 -6 t37.5 -20q16 -16 24 -39q10 -27 10 -61q0 -33 -10 -60q-8 -23 -24.5 -39t-36.5 -22q-23 -6 -45.5 -6t-44.5 6q-20 6 -37 22q-18 18 -27 39q-8 23 -8 60z" />
<glyph unicode="j" horiz-adv-x="612" d="M-25 -395h15q55 0 98 18q41 16 72 62q29 41 45 116q16 78 16 181v890q0 39 -14 72q-10 25 -37 43q-18 14 -53 21q-20 4 -64 4h-6v86h367v-1114q0 -143 -29 -230q-29 -90 -86 -145q-57 -57 -127 -78q-78 -23 -164 -23h-33v97zM193 1430q0 35 10 61q8 23 24 39q14 14 37 20 t45.5 6t45 -6t36.5 -20q16 -16 25 -39q10 -27 10 -61q0 -33 -10 -60q-8 -23 -24.5 -39t-37.5 -22q-23 -6 -45 -6t-45 6q-20 6 -36.5 22.5t-24.5 38.5q-10 27 -10 60z" />
<glyph unicode="k" horiz-adv-x="1196" d="M37 0v86h16q45 0 66 4q35 6 53 21q23 16 35 45q14 33 14 77v1098q0 39 -14 72q-10 25 -37 43q-25 18 -53 20q-41 4 -64 4h-16v86h377v-790v-72q0 -29 -4 -86q-2 -47 -4 -100l256 280q29 31 55 66q31 39 35 47q2 4 16 39q6 15 6 31q0 27 -24 33q-33 8 -76 8v86h452v-86 q-72 0 -139 -49q-74 -53 -149 -142l-144 -162l273 -405q49 -78 106 -125q53 -43 121 -43h6v-86h-29q-89 0 -147 6q-61 6 -98 25q-45 23 -78 61q-41 47 -78 107l-205 321l-151 -112v-185q0 -41 14 -73q10 -20 37 -41q20 -14 53 -19q41 -4 64 -4h6v-86h-551z" />
<glyph unicode="l" horiz-adv-x="634" d="M27 0v86h26q45 0 66 4q35 6 53 21q23 16 35 45q14 33 14 77v1098q0 39 -14 72q-10 25 -37 43q-25 18 -53 20q-41 4 -64 4h-26v86h387v-1323q0 -49 12 -77q12 -27 37 -45q18 -14 53 -21q20 -4 66 -4h26v-86h-581z" />
<glyph unicode="m" horiz-adv-x="1933" d="M57 0v86h27q45 0 63 4q33 8 52 21q18 14 32 45q10 23 11 77v639q0 45 -13 72q-12 29 -32 43q-18 14 -50 21q-18 4 -63 4h-6v86h321l27 -166h10q29 53 66 94q35 37 71.5 57.5t81.5 26.5q57 8 90 8q43 0 95 -10q37 -8 84 -33q39 -20 69 -57q33 -39 49 -86h17q29 55 67 94 q37 35 76 57q37 20 86 27q57 8 92 8q78 0 140 -24q63 -27 104 -72q47 -55 68 -125q23 -80 22 -180v-484q0 -49 12 -77q14 -31 33 -45.5t49 -20.5q18 -4 64 -4h6v-86h-356v707q0 76 -11 118q-10 45 -38 88q-25 37 -66 56q-39 18 -100 18q-63 0 -107 -24q-47 -27 -72 -66 q-27 -41 -38 -98q-10 -45 -11 -117v-449q0 -49 13 -77q14 -31 32.5 -45.5t49.5 -20.5q18 -4 63 -4h6v-86h-356v707q0 68 -12.5 119t-37 87.5t-65.5 55.5q-39 18 -100 18q-68 0 -113 -26q-46 -28 -74 -74q-27 -43 -39 -107q-12 -61 -12 -125v-432q0 -41 15 -73q10 -25 34 -41 q20 -14 54 -19q41 -4 65 -4h6v-86h-551z" />
<glyph unicode="n" horiz-adv-x="1320" d="M57 0v86h17q45 0 65 4q35 6 54 21q25 18 36 45q12 29 13 77v639q0 45 -13 72q-10 25 -36 43q-18 14 -54 21q-20 4 -65 4h-6v86h331l27 -166h10q29 55 68 94t74 57q37 20 84 27q57 8 94 8q80 0 145.5 -24.5t106.5 -71.5q47 -53 69 -125q23 -70 23 -180v-484q0 -49 12 -77 q14 -31 32.5 -45.5t49.5 -20.5q18 -4 63 -4h7v-86h-357v707q0 68 -12 118q-12 53 -39 88q-29 37 -70 56q-43 18 -104 18q-72 0 -117 -26q-53 -31 -78 -74q-29 -49 -41 -107q-12 -61 -12 -125v-432q0 -41 15 -73q10 -25 34 -41q20 -14 54 -19q41 -4 65 -4h6v-86h-551z" />
<glyph unicode="o" horiz-adv-x="1181" d="M113 551q0 287 123 428q121 139 358 139q106 0 199 -35q88 -33 149 -104q59 -70 94 -178q33 -104 33 -250q0 -289 -123 -430t-358 -141q-106 0 -199 34q-84 33 -149 107q-59 70 -95 178q-32 105 -32 252zM311 551q0 -121 15 -201q16 -88 49 -145.5t86 -87.5 q51 -31 131 -31t131 31q53 31 86 88q31 53 47 145q14 80 14 201q0 109 -16 201q-16 90 -47 143q-34 58 -86 86q-53 29 -131 29q-76 0 -129 -29q-52 -28 -86 -86q-35 -59 -49 -143q-15 -80 -15 -201z" />
<glyph unicode="p" horiz-adv-x="1255" d="M27 1012v86h358l21 -185h8q16 35 53 84q29 37 65 66q33 25 86 41q45 14 109 14q104 0 178 -33q80 -35 131 -104q55 -76 82 -176q27 -104 27 -254q0 -152 -27 -256q-27 -102 -82 -178q-49 -66 -131 -103q-80 -35 -178 -34q-49 0 -106 14q-47 12 -89 37q-39 25 -67.5 55.5 t-50.5 73.5h-8q0 -16 1 -49t3 -50q0 -6 1 -19t1 -22v-36q0 -6 1 -17.5t1 -15.5v-23v-196q0 -39 14 -72q10 -25 37 -43q20 -14 53 -18q41 -4 64 -5h6v-86h-551v86h16q45 0 66 5q35 6 53 20q23 16 35 45q14 37 14 78v1130q0 39 -14 72q-10 25 -37 43q-18 14 -53 21 q-20 4 -64 4h-26zM414 551q0 -92 14 -189q12 -86 45 -139q35 -57 86 -84q53 -29 135 -28q68 0 115 28.5t78 83.5q29 51 45 139q14 78 14 191t-14 190q-14 82 -45 136q-31 55 -78 81.5t-117 26.5q-82 0 -133 -26q-59 -31 -86 -80q-33 -61 -45 -138q-14 -96 -14 -192z" />
<glyph unicode="q" horiz-adv-x="1255" d="M113 547q0 152 26 256q28 108 80 178q51 70 131 104q74 33 180 33q57 0 107 -12q39 -10 86 -39q43 -27 70 -55q29 -31 51 -74h12l37 160h328v-86h-17q-45 0 -65 -4q-35 -6 -54 -21q-27 -18 -36 -45q-12 -31 -13 -78v-1130q0 -45 13 -72q10 -25 36 -43q18 -14 54 -20 q20 -4 65 -5h17v-86h-613v86h68q45 0 65 5q35 6 54 20q27 18 36 45q12 31 13 78v176q0 10 1 37t1 43q0 59 2 88l4 98h-8q-20 -45 -53 -84q-37 -43 -66 -65q-33 -25 -86 -41q-45 -14 -109 -14q-100 0 -180 34q-82 37 -131 103q-53 72 -79.5 176t-26.5 254zM311 545 q0 -217 59.5 -325.5t194.5 -108.5q82 0 133 26q55 29 86 80q35 57 47 137q12 84 13 193q0 104 -13 188q-12 82 -47 139q-37 59 -86 84q-57 29 -135 29q-63 0 -114 -29q-47 -27 -80 -86q-27 -47 -43 -137q-15 -77 -15 -190z" />
<glyph unicode="r" horiz-adv-x="964" d="M68 0v86h6q45 0 65 4q35 6 54 21q25 18 36 45q12 29 13 77v639q0 45 -13 72q-10 25 -36 43q-18 14 -54 21q-20 4 -65 4h-6v86h315l39 -203h10l41 86q25 45 51 72q29 29 76 47t113 18q113 0 166 -39q55 -40 55 -110q0 -29 -10 -60q-8 -25 -33 -45q-27 -23 -60 -30 q-41 -10 -88 -11q0 86 -24.5 123t-83.5 37q-35 0 -68 -22q-35 -25 -53 -56q-23 -39 -37 -82q-20 -61 -26 -94q-10 -49 -13 -96q-4 -66 -4 -88v-322q0 -41 15 -73q10 -25 34 -41q20 -14 54 -19q41 -4 65 -4h57v-86h-591z" />
<glyph unicode="s" horiz-adv-x="923" d="M92 197q0 37 14 69q10 25 33 43q20 16 41 22.5t41 6.5q0 -61 10 -100q12 -47 37 -84q20 -31 70 -56q41 -20 104 -20q45 0 97 14q45 12 71.5 37t42.5 59q14 31 15 76q0 43 -11 66q-10 25 -41 51q-27 23 -77 49q-74 37 -123 57q-76 33 -137 68q-63 37 -97 70q-41 41 -57 86 q-18 49 -19 116q0 70 27 123q28 55 80 92q53 37 121 56q72 18 158 18q78 0 129 -14q55 -16 94 -41q39 -27 57 -60q18 -35 19 -73q0 -57 -39 -90t-109 -33q0 100 -43 160q-43 57 -133 57q-51 0 -88 -12q-39 -12 -62 -33q-20 -18 -34 -53q-10 -27 -11 -66q0 -41 15 -67 q18 -35 43 -54q29 -23 80 -45q10 -4 32.5 -14l43 -19.5t40.5 -17.5q84 -35 140 -68q59 -35 94 -71q37 -41 55 -88q18 -49 19 -113q0 -76 -29 -139q-27 -57 -82 -101q-51 -39 -127 -61q-70 -20 -166 -20q-68 0 -139 14q-61 12 -107 41q-43 28 -67 67q-25 42 -25 95z" />
<glyph unicode="t" horiz-adv-x="720" d="M39 981v82q41 0 82 14.5t78 50.5q37 41 57 91q23 53 37 131h94v-252h268v-117h-268v-690q0 -104 43 -153.5t113 -49.5q27 0 67 4q25 2 64 10v-90q-10 -6 -35 -12q-29 -8 -45 -10q-8 0 -24.5 -3t-26.5 -5q-18 -2 -51 -2q-74 0 -134 16q-53 14 -92 53q-35 35 -53 98 q-18 61 -18 150v684h-156z" />
<glyph unicode="u" horiz-adv-x="1298" d="M47 1012v86h367v-707q0 -61 10 -119q8 -49 35 -88q25 -37 67.5 -55t102.5 -18q68 0 117 24.5t79 67.5q33 45 47 104q14 57 15 135v422q0 47 -13 78q-10 27 -36 45q-18 14 -54 21q-20 4 -65 4h-6v86h366v-875q0 -46 13 -73q10 -20 36 -41q20 -14 54 -19q41 -4 65 -4h6v-86 h-325l-27 166h-10q-29 -55 -68 -94q-31 -31 -80 -56q-47 -23 -88 -28q-61 -8 -96 -8q-76 0 -143 22q-59 20 -107 74q-45 51 -65 125q-23 80 -23 180v491q0 39 -14 72q-10 25 -37 43q-18 14 -53 21q-20 4 -64 4h-6z" />
<glyph unicode="v" horiz-adv-x="1185" d="M8 1012v86h512v-86h-26q-61 0 -92 -24.5t-31 -74.5q0 -10 4 -34q4 -20 12 -41l139 -387l27 -80l27 -84q20 -72 22 -80q12 -51 14 -64h7q10 39 16 54l27 71q4 12 30 78q8 23 15.5 42.5l13.5 35.5l147 399q12 33 15 47q4 29 4 41q0 51 -33 76q-35 25 -102 25h-15v86h439 v-86h-25q-29 0 -51 -6q-16 -4 -37 -25q-16 -16 -33 -49q-18 -39 -35 -80l-323 -852h-187l-329 903q-14 35 -25 53q-12 20 -30.5 32.5t-38.5 19.5q-14 4 -52 4h-6z" />
<glyph unicode="w" horiz-adv-x="1763" d="M2 1012v86h506v-86h-27q-61 0 -92 -18.5t-31 -67.5q0 -25 4 -41q8 -33 13 -47l96 -344l21 -80q6 -23 20 -88q10 -43 18 -82q4 -14 7.5 -35t5.5 -29h6q0 4 5 25.5t9 34.5l8.5 34.5t10.5 40.5l24 80q4 14 14.5 42t12.5 36l213 619h129l205 -607l26 -79q8 -25 14.5 -47.5 l10.5 -36.5l22 -78q4 -14 8.5 -35t6.5 -29h6q12 68 29 125l51 174l102 330q6 18 14 55q4 20 5 47q0 51 -33 76t-103 25h-14v86h438v-86h-26q-29 0 -51 -6q-27 -8 -41 -23q-12 -12 -31 -49q-16 -33 -31 -82l-264 -852h-164l-244 721l-37 135l-290 -856h-162l-268 903 q-14 35 -25 53q-12 20 -30.5 32.5t-39.5 19.5q-14 4 -51 4h-6z" />
<glyph unicode="x" horiz-adv-x="1183" d="M10 0v86h19q37 0 65 6q33 6 53 21q23 14 50 41q14 14 55 63l258 334l-258 352q-47 53 -88 80q-45 29 -88 29h-27v86h520v-86h-6q-29 0 -57 -4q-25 -4 -37 -13q-12 -10 -18 -20q-4 -8 -5 -23q0 -18 13 -41q10 -18 35 -53l135 -184l106 153l37 66q14 29 14 59q0 37 -32 49 q-25 10 -78 11h-6v86h448v-86h-18q-39 0 -56 -4q-25 -6 -47 -21q-27 -16 -49 -39q-14 -14 -55 -67l-211 -281l301 -405q43 -57 86 -84q41 -25 78 -25h27v-86h-529v86h10q123 0 123 68q0 6 -4 22.5t-10 26.5q-16 29 -25 39q-31 43 -39 53l-137 184l-143 -200 q-12 -16 -18.5 -26.5t-18.5 -35.5q-4 -8 -12 -33q-6 -18 -6 -34q0 -33 28 -50q27 -14 99 -14h6v-86h-488z" />
<glyph unicode="y" horiz-adv-x="1155" d="M8 1012v86h492v-86h-6q-61 0 -92 -24.5t-31 -74.5q0 -10 4 -34q4 -20 12 -41l150 -365l30 -76q25 -70 29 -82q14 -41 25 -77q10 -33 14 -62h6q4 16 31 109q8 29 45 139l137 399q12 33 14 47q4 29 4 41q0 51 -34.5 76t-100.5 25h-6v86h426v-86h-6q-29 0 -51 -6 q-20 -6 -39 -25q-16 -16 -33 -49q-12 -23 -33 -80l-311 -860q-45 -119 -68 -174q-29 -70 -67 -129q-37 -57 -76 -88q-45 -35 -94 -56q-43 -18 -123 -28q-59 -8 -160 -9h-18v97q104 0 178 30q78 33 131 86.5t90 127t62 159.5l-379 895l-27 53q-10 18 -29 33q-14 12 -38 19 q-14 4 -52 4h-6z" />
<glyph unicode="z" horiz-adv-x="1046" d="M86 0v82l594 899h-320q-39 0 -65.5 -10t-42.5 -33q-18 -27 -27 -51l-22 -72l-2 -8h-86l20 291h785v-84l-596 -897h372q37 0 59.5 14t39.5 37q14 20 24 53q12 41 17 64l10 47h86l-10 -332h-836z" />
<glyph unicode="{" horiz-adv-x="876" d="M102 606v86q51 2 95 13q43 8 77 34q31 23 52 66q18 39 18 102v357q0 141 74 216.5t221 75.5h135v-88h-61q-90 0 -129 -55q-39 -53 -39 -160v-350q0 -98 -55.5 -165.5t-172.5 -86.5v-2q117 -22 172 -86q55 -63 56 -168v-354q0 -106 39 -160q39 -55 129 -55h61v-88h-135 q-74 0 -127 20.5t-92 59.5t-58 92q-18 55 -18 123v356q0 65 -18 105q-20 43 -52 65q-35 27 -77 35q-44 10 -95 12z" />
<glyph unicode="|" d="M510 -492v2048h123v-2048h-123z" />
<glyph unicode="}" horiz-adv-x="876" d="M102 -174h62q90 0 129 55q39 53 39 160v354q0 104 55 168q55 65 172 86v2q-115 18 -170 86q-57 70 -57 166v350q0 106 -39 160q-39 55 -129 55h-62v88h136q145 0 219 -75q76 -80 75 -217v-357q0 -63 19 -102q20 -43 51 -66q35 -27 78 -34q43 -10 94 -13v-86 q-51 -2 -94 -12q-43 -8 -78 -35q-31 -23 -51 -65q-18 -40 -19 -105v-356q0 -61 -20 -123q-18 -55 -55 -92q-39 -39 -92.5 -59.5t-126.5 -20.5h-136v88z" />
<glyph unicode="~" horiz-adv-x="1148" d="M113 551q6 65 18 129q10 57 41 115q27 49 76 81.5t123 32.5q34 0 67 -12q37 -14 68 -35l59 -43l53 -45l44 -39q25 -20 40 -33q18 -12 41 -22q18 -8 43 -8q57 0 84 61q25 55 41 176h123q-6 -72 -20 -129q-14 -61 -43 -114q-27 -49 -76 -82t-119 -33q-31 0 -61 12 q-27 10 -64 33q-39 23 -61 41q-37 29 -51 43l-45 41q-29 25 -43.5 35t-42.5 22q-25 10 -46 10q-61 0 -90 -59q-27 -55 -39 -178h-120z" />
<glyph unicode="&#xa1;" horiz-adv-x="681" d="M211 971q0 35 10 65q8 27 29 43q25 20 41 25q25 6 49 6q27 0 51 -6q16 -4 41 -25q16 -14 27 -43q10 -31 10 -65q0 -37 -10 -68q-10 -29 -27 -43q-20 -18 -41 -22q-25 -6 -51 -7q-25 0 -49 7q-20 4 -41 22q-20 16 -29 43q-10 31 -10 68zM221 -367l72 1051h94l72 -1051 h-238z" />
<glyph unicode="&#xa2;" d="M162 739q0 154 33 258q35 111 90 174q57 66 135 101q72 31 164 41v149h102v-149q82 -8 119 -19q55 -14 104 -41q47 -25 78 -61q29 -35 29 -86q0 -74 -45 -100q-47 -29 -137 -29q0 45 -9 80q-10 41 -26 69q-16 27 -47 52q-29 23 -66 28v-909q41 0 84 6q29 4 82 16 q47 10 74 21q45 16 57 22v-112q-52 -28 -129 -49q-78 -23 -168 -25v-176h-102v180q-96 10 -170 45q-82 39 -133 103q-59 72 -88 168q-31 102 -31 243zM360 741q0 -188 54 -292q55 -109 170 -140v897q-51 -10 -90 -37q-37 -27 -70 -84q-33 -59 -47 -139q-17 -92 -17 -205z " />
<glyph unicode="&#xa3;" d="M100 690v96h189q-8 16 -29 70q-4 12 -24 82q-12 41 -19 88q-6 43 -6 86q0 88 29 158q29 72 84 116q57 49 131 72q78 25 174 25q109 0 168 -17q72 -18 112 -49q43 -31 62 -74q20 -47 20 -90q0 -66 -43 -100q-41 -33 -119 -33q0 53 -8 94q-8 43 -33 84q-23 39 -61 60 q-41 23 -106 22q-119 0 -174.5 -67.5t-55.5 -196.5q0 -53 8 -94q10 -55 21 -88q18 -66 24 -80l27 -68h348v-96h-319q20 -70 28 -104q12 -53 13 -115q0 -88 -49 -156q-49 -70 -132 -122l5 -9q35 16 79 29q33 8 70 8q41 0 90 -12q66 -16 98 -27q10 -4 93 -26q43 -12 75 -13 q31 0 66 11q31 10 57 26q37 25 51 39q16 16 41 45v-133q-14 -18 -43 -51q-23 -27 -59 -49q-37 -25 -74 -37q-41 -14 -92 -14q-55 0 -100 14q-66 20 -99 33q-8 2 -102 30q-49 14 -106 15q-70 0 -127 -19q-51 -16 -125 -51l-27 -12v108l37 23q43 25 76 55q39 35 67 76 q31 43 49.5 94t18.5 112.5t-14 116.5q-16 61 -37 115h-228z" />
<glyph unicode="&#xa4;" d="M131 379l133 135q-31 45 -49 102q-18 55 -18 117q0 61 18 117q20 59 51 102l-135 135l86 87l133 -136q47 35 102.5 53.5t118.5 18.5q59 0 114.5 -18.5t102.5 -53.5l138 138l86 -89l-135 -135q35 -47 53 -102t18 -117q0 -61 -18.5 -116.5t-52.5 -102.5l135 -135l-84 -86 l-137 135q-51 -35 -103 -51q-55 -18 -117 -19q-61 0 -116 19q-59 20 -103 51l-135 -135zM311 733q0 -59 21 -102q23 -49 55 -82q35 -37 82 -57q43 -20 102 -21q57 0 105 21q49 20 82 57q35 39 55.5 82t20.5 102q0 57 -21 105q-18 41 -55 82q-33 37 -82 57q-47 20 -105 20 q-59 0 -102 -20q-47 -23 -82 -57.5t-55.5 -82t-20.5 -104.5z" />
<glyph unicode="&#xa5;" d="M10 1376v86h498v-86h-14q-59 0 -88 -18.5t-29 -61.5q0 -29 8 -55q14 -45 25 -65l98 -218q4 -8 9 -20t10 -26.5t10 -22.5q14 -37 26 -74l23 -65q10 -31 16 -52q2 10 12 33q12 31 21 47l24 51l23 48l117 249q27 59 37 99q12 45 12 69q0 39 -29 62q-27 20 -96 20h-6v86h418 v-86h-19q-20 0 -45 -8q-20 -6 -35 -25q-18 -23 -35 -49q-20 -35 -40 -77l-250 -519h254v-96h-287v-143h287v-97h-287v-129q0 -45 14 -77q12 -29 35 -45q18 -14 53 -21q20 -4 66 -4h47v-86h-629v86h47q23 0 64 4q33 4 53 19q25 16 35 41q14 31 16 73v139h-286v97h286v143 h-286v96h247l-278 570q-4 8 -29 51q-10 18 -29 33q-15 12 -36 18q-23 6 -52 6h-6z" />
<glyph unicode="&#xa6;" d="M510 328h123v-820h-123v820zM510 737v819h123v-819h-123z" />
<glyph unicode="&#xa7;" horiz-adv-x="1112" d="M160 772q0 76 35 135q33 57 86 94q-41 51 -58 101q-18 55 -18 129q0 76 28 139q25 57 78 103q43 37 121 61q74 23 150 22q86 0 147 -18q63 -18 102 -47q41 -29 64 -74q20 -41 20 -90q0 -66 -41 -96q-37 -29 -104 -29q0 41 -10 92q-10 47 -33 82q-20 33 -61 56 q-39 23 -93 22q-106 0 -159 -51q-55 -51 -56 -148q0 -55 21 -90q22 -37 61 -67q37 -29 99 -58l137 -65q94 -47 149 -84q68 -45 105 -88q47 -53 61 -96q18 -51 19 -111q0 -33 -11 -74q-10 -39 -26 -69q-20 -35 -39 -64q-14 -20 -47 -53q29 -41 47 -90q16 -43 16 -113 q0 -76 -22 -147q-20 -63 -70 -117q-43 -45 -123 -76q-72 -27 -178 -26q-74 0 -143 16q-68 16 -111 45q-47 33 -72 74q-25 43 -24 102q0 37 14 70q10 25 33 43q23 20 41 24q20 6 41 6q0 -47 14 -104q12 -49 41 -90q23 -33 74 -62q43 -25 106 -24q127 0 188.5 55t61.5 150 q0 49 -10 78q-12 34 -49 67q-35 33 -109 74q-84 47 -192 100q-88 43 -139 82q-57 41 -93 86q-37 47 -53 100q-16 56 -16 113zM291 823q0 -43 14 -73q16 -35 47 -64q37 -33 92 -65q57 -33 146 -76l123 -62q51 -25 108 -75q12 16 29 53q10 23 10 63q0 31 -10 66 q-8 31 -39 63.5t-80 65.5q-70 45 -133 76q-51 23 -139 69q-68 35 -117 76q-25 -25 -37 -47q-14 -27 -14 -70z" />
<glyph unicode="&#xa8;" horiz-adv-x="1181" d="M291 1409q0 35 8 53q12 29 23 37q16 12 32 19q18 6 41 6t41 -6q16 -6 33 -19q10 -8 23 -37q8 -18 8 -53t-8 -53q-8 -20 -22.5 -34.5t-33 -21t-41.5 -6.5q-43 0 -76 27q-28 22 -28 88zM680 1409q0 35 8 53q12 29 23 37q16 12 32 19q18 6 41 6t41 -6q16 -6 33 -19 q10 -8 23 -37q8 -18 8 -53t-8 -53q-8 -20 -22.5 -34.5t-33 -21t-41.5 -6.5q-43 0 -75 27q-29 22 -29 88z" />
<glyph unicode="&#xa9;" horiz-adv-x="1730" d="M113 731q0 109 26 201q31 102 76 180q51 86 117 152q68 68 153 118q80 47 179 76q92 27 200.5 27t200.5 -27q102 -31 180 -76q80 -47 151.5 -118.5t119.5 -151.5q45 -78 75 -180q27 -92 27 -200.5t-27 -201.5q-29 -98 -75 -178q-51 -86 -119 -153q-66 -66 -152 -117 q-78 -45 -180 -76q-92 -27 -200.5 -26.5t-200.5 26.5q-98 29 -179 76q-90 53 -153.5 116.5t-116.5 153.5q-47 80 -76 178q-26 92 -26 201zM225 731q0 -84 23 -170q20 -76 65 -151q51 -84 98.5 -131.5t131.5 -98.5q76 -45 151 -65q86 -23 170 -23t170 23q80 20 154 65 q78 47 129 99q53 53 100 131q45 76 66 151q23 86 22.5 170t-22.5 170q-20 80 -65.5 153.5t-100.5 129t-129 100.5t-154 66q-86 23 -170 22.5t-170 -22.5q-76 -20 -151 -66q-78 -47 -131 -100q-51 -51 -99 -129q-45 -74 -65 -154q-23 -86 -23 -170zM465 733q0 96 29 182 q29 84 81 144q55 61 138 94q80 33 190 33q71 0 123 -12q55 -12 88 -31q37 -20 53.5 -45t16.5 -58q0 -25 -10 -41q-12 -18 -31 -30q-16 -12 -45 -19q-25 -6 -54 -6q0 20 -8 57q-6 28 -24 50q-23 27 -45 36q-28 12 -68 13q-74 0 -123 -25q-53 -27 -82 -69q-33 -47 -47 -115 q-14 -63 -14 -158q0 -174 69 -272q68 -96 199 -96q46 0 86 12q47 14 74 33q35 25 55 45q16 16 37 49q10 -8 21 -25q8 -14 8 -39q0 -31 -19 -57q-18 -29 -59 -53q-39 -25 -96 -39q-55 -14 -134 -15q-104 0 -178 33q-82 35 -129 92q-51 59 -75 146q-27 90 -27 186z" />
<glyph unicode="&#xaa;" horiz-adv-x="780" d="M72 987q0 98 82 150q78 47 247 57l88 4v59q0 23 -4 56q-2 23 -14 45q-10 20 -31 28q-25 10 -53 11q-35 0 -49 -11q-23 -14 -31 -30q-12 -23 -14 -45q-4 -33 -4 -54q-78 0 -119 21q-43 20 -43 68q0 37 20 59q20 25 58 39q41 16 84 22q49 6 102 7q70 0 119 -13 q53 -12 82 -37q37 -31 51 -69q16 -45 16 -103v-311q0 -45 19 -63q16 -16 70 -17v-69h-199l-37 94h-10q-18 -20 -39 -39q-25 -20 -49 -35q-29 -16 -58 -25q-27 -8 -71 -8q-96 0 -156 53q-57 52 -57 156zM250 985q0 -63 26 -88q28 -25 68 -25q34 0 62 13q27 12 45 33 q20 23 28 53q10 35 10 65v97l-63 -3q-39 0 -84 -12q-29 -8 -53 -28q-20 -18 -31 -46q-8 -22 -8 -59z" />
<glyph unicode="&#xab;" horiz-adv-x="1052" d="M133 520v66l313 356h103l-207 -389l207 -389h-103zM504 520v66l313 356h103l-207 -389l207 -389h-103z" />
<glyph unicode="&#xac;" d="M133 672v121h879v-541h-123v420h-756z" />
<glyph unicode="&#xad;" horiz-adv-x="634" d="M51 481v154h533v-154h-533z" />
<glyph unicode="&#xae;" horiz-adv-x="1730" d="M113 731q0 109 26 201q31 102 76 180q51 86 117 152q68 68 153 118q80 47 179 76q92 27 200.5 27t200.5 -27q102 -31 180 -76q80 -47 151.5 -118.5t119.5 -151.5q45 -78 75 -180q27 -92 27 -200.5t-27 -201.5q-29 -98 -75 -178q-51 -86 -119 -153q-66 -66 -152 -117 q-78 -45 -180 -76q-92 -27 -200.5 -26.5t-200.5 26.5q-98 29 -179 76q-90 53 -153.5 116.5t-116.5 153.5q-47 80 -76 178q-26 92 -26 201zM225 731q0 -84 23 -170q20 -76 65 -151q51 -84 98.5 -131.5t131.5 -98.5q76 -45 151 -65q86 -23 170 -23t170 23q80 20 154 65 q78 47 129 99q53 53 100 131q45 76 66 151q23 86 22.5 170t-22.5 170q-20 80 -65.5 153.5t-100.5 129t-129 100.5t-154 66q-86 23 -170 22.5t-170 -22.5q-76 -20 -151 -66q-78 -47 -131 -100q-51 -51 -99 -129q-45 -74 -65 -154q-23 -86 -23 -170zM477 289v69h27q27 0 39 2 q14 2 30 11q14 8 23 20q8 14 8 39v600q0 25 -8 39q-8 12 -23 21q-16 8 -30 10q-12 2 -39 2h-27v72h369q352 0 352 -244q0 -47 -16 -86q-14 -33 -41 -64q-23 -25 -60 -45q-29 -16 -69 -30l182 -293q6 -12 20 -27q10 -10 23 -16q10 -4 29 -9q12 -2 43 -2v-69h-217l-226 381 h-108v-240q4 -27 10 -39q8 -14 20 -20q14 -6 33 -11q12 -2 37 -2h29v-69h-410zM758 748h86q55 0 92 12q39 14 59 33q22 22 31 55q10 37 10 80q0 47 -12 78q-14 39 -33 51q-27 20 -61 28q-33 8 -92 9h-80v-346z" />
<glyph unicode="&#xaf;" horiz-adv-x="937" d="M-10 1556v121h960v-121h-960z" />
<glyph unicode="&#xb0;" horiz-adv-x="817" d="M98 1151q0 66 25 121q27 59 65 98q43 43 98.5 67.5t121.5 24.5q68 0 123 -24.5t98 -67.5q39 -39 65 -98q25 -55 25 -121t-25 -121q-27 -59 -65.5 -98t-98.5 -66q-55 -25 -122 -24q-66 0 -121 24q-59 27 -98 66t-66 98q-25 55 -25 121zM221 1151q0 -41 15 -72 q16 -37 40 -61q23 -23 60 -39t72 -16q37 0 73.5 16t59.5 39q25 25 41 61q14 31 14 72q0 43 -14 74q-16 37 -41 61q-23 23 -60 39t-73 16q-35 0 -72 -16t-60 -39q-25 -25 -40 -61q-15 -31 -15 -74z" />
<glyph unicode="&#xb1;" d="M133 0v121h879v-121h-879zM133 672v121h377v378h123v-378h379v-121h-379v-379h-123v379h-377z" />
<glyph unicode="&#xb2;" horiz-adv-x="817" d="M86 586v92l260 233q45 39 76 82t49 86q16 41 27 84q8 39 8 82q0 34 -6 62q-8 33 -21 51q-10 14 -39 31q-22 12 -55 12q-41 0 -63 -15q-27 -16 -41 -38q-20 -33 -25 -58q-6 -34 -6 -67q-74 0 -109 16q-39 18 -39 72q0 39 19 69q20 35 53 54q47 27 88 36q52 12 123 13 q143 0 223 -56q82 -57 82 -165q0 -53 -10 -91q-8 -33 -39 -84q-20 -35 -68 -86q-43 -45 -106 -100l-217 -186h297q47 0 65.5 24.5t24.5 59.5l8 43h70l-6 -256h-623z" />
<glyph unicode="&#xb3;" horiz-adv-x="817" d="M82 741q0 45 24 72q25 29 70 29q0 -29 10 -64q8 -27 33 -55.5t53 -40.5q37 -16 78 -16q86 0 133 41q49 43 49 137q0 72 -53 114.5t-164 42.5h-67v84h67q37 0 72 13q31 10 57 35q23 20 39 55q14 31 15 74q0 70 -27 104.5t-90 34.5q-43 0 -66 -15q-27 -16 -41 -38 q-16 -27 -22 -58q-6 -34 -6 -67q-27 0 -64 4q-29 4 -47 12q-23 10 -31 29q-10 20 -10 43q0 39 19 69q18 33 55 54q45 27 90 36q52 12 123 13q74 0 125 -15q57 -16 94 -38q39 -23 62 -64q23 -39 22.5 -86t-17 -80t-46.5 -63q-29 -29 -66 -47.5t-80 -30.5v-10q43 -6 84 -19 q29 -8 78 -37q37 -23 59 -59q23 -39 23 -92q0 -76 -33 -127q-31 -49 -88 -82q-49 -29 -117 -45q-59 -14 -125 -15q-135 0 -204.5 45t-69.5 123z" />
<glyph unicode="&#xb4;" horiz-adv-x="1181" d="M391 1241v27q14 18 47 67l49 78l16.5 28.5l14.5 25t14 28.5q22 40 37 74h219v-21q-12 -20 -57 -67q-49 -53 -82 -84l-92 -86q-37 -33 -88 -70h-78z" />
<glyph unicode="&#xb5;" horiz-adv-x="1259" d="M176 -248q0 37 4 131q2 37 3 76t3 80l9 190q6 209 6 232v637h192v-688q0 -59 10 -121q10 -59 33 -96t64 -59.5t98 -22.5t102 24q47 25 78 68q35 47 51 104q16 55 17 135v656h192v-834q0 -43 13 -78q14 -37 30 -57q16 -18 41 -33q18 -10 45 -10h7v-86h-111q-84 0 -131 41 q-49 43 -68 123h-8q-33 -53 -51 -76q-25 -31 -62 -57q-33 -25 -77 -37q-51 -14 -97 -14q-82 0 -147 32q-63 33 -103 88q6 -147 7 -157q6 -63 22 -125q14 -51 47 -88q31 -33 90 -43q0 -41 -8 -72t-26 -55q-20 -29 -45 -39q-29 -12 -64 -13q-31 0 -61 13q-33 14 -54 39 q-20 27 -37 75q-14 43 -14 117z" />
<glyph unicode="&#xb6;" horiz-adv-x="1263" d="M82 1192q0 90 16 149q18 63 56 115q37 49 98 74q68 27 147 26h781v-86h-27q-35 0 -66 -6q-35 -6 -53 -20q-23 -16 -35 -43q-14 -33 -14 -78v-1317q0 -45 14 -78q12 -27 35 -43q18 -14 53 -20q31 -6 66 -6h27v-86h-320v1679h-194v-1679h-320v86h27q35 0 65 6q35 6 54 20 q27 18 36 43q12 27 13 78v785h-146q-90 0 -149.5 32.5t-95.5 87.5q-35 53 -52 129q-16 78 -16 152z" />
<glyph unicode="&#xb7;" horiz-adv-x="585" d="M166 729q0 37 10 68q10 29 27 43q20 18 41 22q25 6 51 6q25 0 49 -6q20 -4 41 -22q20 -16 29 -43q10 -31 10 -68q0 -35 -10 -65q-8 -27 -29 -43q-20 -18 -41 -23q-33 -8 -49 -8q-18 0 -51 8q-20 4 -41 23q-16 14 -27 43q-10 30 -10 65z" />
<glyph unicode="&#xb8;" horiz-adv-x="681" d="M123 -365q37 -9 74 -12q49 -4 65 -4q58 0 92 31q33 31 33 84q0 59 -43 90q-39 29 -111 35l43 159h97l-21 -88q102 -8 150 -57q49 -49 49 -131q0 -111 -70 -172q-72 -61 -200 -62h-35q-8 0 -23.5 3.5t-17.5 3.5l-43 6q-14 2 -39 10v104z" />
<glyph unicode="&#xb9;" horiz-adv-x="817" d="M133 1325v70h103q16 0 49 4q35 4 51 10q25 9 43 25q18 14 27 39h102v-738q0 -27 6 -41q6 -15 18 -24q8 -6 29 -11q10 -2 33 -2h94v-69h-543v69h95q23 0 32 2q18 4 27 11q12 9 18 24q6 14 7 41v590h-191z" />
<glyph unicode="&#xba;" horiz-adv-x="811" d="M72 1126q0 174 86 260.5t252 86.5q80 0 139 -21q57 -20 102 -66q49 -47 68 -106q23 -68 22 -154q0 -176 -86 -262t-249 -86q-157 0 -246 86q-88 86 -88 262zM250 1126q0 -131 35 -200q33 -66 123 -66q88 0 122 66q35 63 35 200q0 131 -37 195q-37 66 -123 65.5 t-120.5 -66t-34.5 -194.5z" />
<glyph unicode="&#xbb;" horiz-adv-x="1052" d="M133 164l207 389l-207 389h103l313 -356v-66l-313 -356h-103zM504 164l207 389l-207 389h102l314 -356v-66l-314 -356h-102z" />
<glyph unicode="&#xbc;" horiz-adv-x="1718" d="M47 1325v70h103q16 0 49 4q35 4 51 10q25 9 43 25q18 14 27 39h102v-738q0 -27 6 -41q6 -15 18 -24q8 -6 29 -11q10 -2 33 -2h94v-69h-543v69h95q23 0 32 2q18 4 27 11q12 9 18 24q6 14 7 41v590h-191zM430 0l731 1462h134l-729 -1462h-136zM930 260v61l383 564h164v-537 h196v-88h-196v-113q0 -20 8 -41q6 -15 18 -24q8 -6 27 -11q10 -2 33 -2h41v-69h-451v69h57q20 0 31 2q18 4 27 11q12 9 18 24q8 20 8 41v113h-364zM1051 348h243v231q0 45 2 72q4 57 9 80q-2 -6 -8.5 -17.5t-8.5 -17.5q-6 -12 -14 -24z" />
<glyph unicode="&#xbd;" horiz-adv-x="1718" d="M47 1325v70h103q16 0 49 4q35 4 51 10q25 9 43 25q18 14 27 39h102v-738q0 -27 6 -41q6 -15 18 -24q8 -6 29 -11q10 -2 33 -2h94v-69h-543v69h95q23 0 32 2q18 4 27 11q12 9 18 24q6 14 7 41v590h-191zM389 0l731 1462h134l-729 -1462h-136zM1016 0v92l260 233 q45 39 76 82t49 86q16 41 27 84q8 39 8 82q0 34 -6 62q-8 33 -21 51q-10 14 -39 31q-22 12 -55 12q-41 0 -63 -15q-27 -16 -41 -38q-20 -33 -25 -58q-6 -34 -6 -67q-74 0 -109 16q-39 18 -39 72q0 39 19 69q20 35 53 54q47 27 88 36q52 12 123 13q143 0 223 -56 q82 -57 82 -165q0 -53 -10 -91q-8 -33 -39 -84q-20 -35 -68 -86q-43 -45 -106 -100l-217 -186h297q47 0 65.5 24.5t24.5 59.5l8 43h70l-6 -256h-623z" />
<glyph unicode="&#xbe;" horiz-adv-x="1718" d="M82 741q0 45 24 72q25 29 70 29q0 -29 10 -64q8 -27 33 -55.5t53 -40.5q37 -16 78 -16q86 0 133 41q49 43 49 137q0 72 -53 114.5t-164 42.5h-67v84h67q37 0 72 13q31 10 57 35q23 20 39 55q14 31 15 74q0 70 -27 104.5t-90 34.5q-43 0 -66 -15q-27 -16 -41 -38 q-16 -27 -22 -58q-6 -34 -6 -67q-27 0 -64 4q-29 4 -47 12q-23 10 -31 29q-10 20 -10 43q0 39 19 69q18 33 55 54q45 27 90 36q52 12 123 13q74 0 125 -15q57 -16 94 -38q39 -23 62 -64q23 -39 22.5 -86t-17 -80t-46.5 -63q-29 -29 -66 -47.5t-80 -30.5v-10q43 -6 84 -19 q29 -8 78 -37q37 -23 59 -59q23 -39 23 -92q0 -76 -33 -127q-31 -49 -88 -82q-49 -29 -117 -45q-59 -14 -125 -15q-135 0 -204.5 45t-69.5 123zM471 0l731 1462h134l-729 -1462h-136zM930 260v61l383 564h164v-537h196v-88h-196v-113q0 -20 8 -41q6 -15 18 -24q8 -6 27 -11 q10 -2 33 -2h41v-69h-451v69h57q20 0 31 2q18 4 27 11q12 9 18 24q8 20 8 41v113h-364zM1051 348h243v231q0 45 2 72q4 57 9 80q-2 -6 -8.5 -17.5t-8.5 -17.5q-6 -12 -14 -24z" />
<glyph unicode="&#xbf;" horiz-adv-x="1024" d="M104 -18q0 86 27 153q29 72 78 127t125 102.5t168 86.5v231h125v-311q-92 -39 -150 -84q-59 -47 -96 -103q-39 -59 -53 -114q-14 -57 -15 -123q0 -53 13 -97q12 -41 41 -73q29 -31 69 -49q39 -16 101 -17q68 0 108 21q43 20 70 57q27 35 39 84q12 45 12 100q41 0 67.5 -8 t53.5 -26q25 -18 37 -41q12 -25 12 -58q0 -47 -23 -92q-18 -39 -69 -72q-39 -27 -119 -47q-70 -18 -172 -18q-94 0 -178 24q-74 23 -144 74q-57 43 -94 117q-33 66 -33 156zM438 969q0 35 11 65q8 27 28 43q25 20 41 25q25 6 49 6q27 0 51 -6q16 -4 41 -25q16 -14 27 -43 q10 -31 10 -65q0 -37 -10 -68q-10 -29 -27 -43q-20 -18 -41 -22q-25 -6 -51 -7q-25 0 -49 7q-20 4 -41 22q-20 16 -28 43q-11 31 -11 68z" />
<glyph unicode="&#xc0;" horiz-adv-x="1443" d="M0 0v86h39q31 0 51 6q16 4 37 25q16 16 33 49q20 39 35 80l454 1216h160l463 -1267q14 -35 24 -54q12 -23 29 -32q18 -12 41 -19q14 -4 51 -4h27v-86h-563v86h47q123 0 123 98q0 10 -4 35q-4 20 -13 41l-82 229h-538l-78 -215q-8 -20 -14 -47q-4 -16 -5 -41q0 -51 33 -75 q35 -25 103 -25h47v-86h-500zM453 592h462l-127 358l-59 170q-16 47 -43 154q-4 -31 -16 -72q-12 -45 -21 -69q-2 -6 -10 -33t-14 -43l-33 -88zM407 1886v21h219q15 -34 37 -74q37 -70 45 -82l49 -78q33 -49 48 -67v-27h-78q-41 29 -88 70l-95 86q-33 31 -81 84 q-38 39 -56 67z" />
<glyph unicode="&#xc1;" horiz-adv-x="1443" d="M0 0v86h39q31 0 51 6q16 4 37 25q16 16 33 49q20 39 35 80l454 1216h160l463 -1267q14 -35 24 -54q12 -23 29 -32q18 -12 41 -19q14 -4 51 -4h27v-86h-563v86h47q123 0 123 98q0 10 -4 35q-4 20 -13 41l-82 229h-538l-78 -215q-8 -20 -14 -47q-4 -16 -5 -41q0 -51 33 -75 q35 -25 103 -25h47v-86h-500zM453 592h462l-127 358l-59 170q-16 47 -43 154q-4 -31 -16 -72q-12 -45 -21 -69q-2 -6 -10 -33t-14 -43l-33 -88zM637 1579v27q14 18 47 67l49 78l16.5 28.5l14.5 25t14 28.5q22 40 37 74h219v-21q-12 -20 -57 -67q-49 -53 -82 -84l-92 -86 q-37 -33 -88 -70h-78z" />
<glyph unicode="&#xc2;" horiz-adv-x="1443" d="M0 0v86h39q31 0 51 6q16 4 37 25q16 16 33 49q20 39 35 80l454 1216h160l463 -1267q14 -35 24 -54q12 -23 29 -32q18 -12 41 -19q14 -4 51 -4h27v-86h-563v86h47q123 0 123 98q0 10 -4 35q-4 20 -13 41l-82 229h-538l-78 -215q-8 -20 -14 -47q-4 -16 -5 -41q0 -51 33 -75 q35 -25 103 -25h47v-86h-500zM453 592h462l-127 358l-59 170q-16 47 -43 154q-4 -31 -16 -72q-12 -45 -21 -69q-2 -6 -10 -33t-14 -43l-33 -88zM422 1579v27q25 29 53 67l57 78l54 82q29 47 41 74h194q12 -27 41 -74l53 -82l58 -78q29 -39 53 -67v-27h-80q-61 35 -119 84 q-49 41 -104 100q-55 -59 -105 -100q-61 -53 -116 -84h-80z" />
<glyph unicode="&#xc3;" horiz-adv-x="1443" d="M0 0v86h39q31 0 51 6q16 4 37 25q16 16 33 49q20 39 35 80l454 1216h160l463 -1267q14 -35 24 -54q12 -23 29 -32q18 -12 41 -19q14 -4 51 -4h27v-86h-563v86h47q123 0 123 98q0 10 -4 35q-4 20 -13 41l-82 229h-538l-78 -215q-8 -20 -14 -47q-4 -16 -5 -41q0 -51 33 -75 q35 -25 103 -25h47v-86h-500zM453 592h462l-127 358l-59 170q-16 47 -43 154q-4 -31 -16 -72q-12 -45 -21 -69q-2 -6 -10 -33t-14 -43l-33 -88zM358 1600q2 43 17 90q12 47 39 78q25 31 67 53q39 20 94 20q57 0 99 -20q57 -29 84 -45l38.5 -22.5t32.5 -20.5q33 -20 66 -20.5 t49 7.5q20 10 29 25q12 20 14 35q0 4 3 18.5t5 22.5h92q-2 -43 -16 -90q-10 -35 -41 -78q-23 -31 -63 -53q-39 -20 -95 -21q-59 0 -100 21l-82 43l-72 45q-33 20 -67 20q-33 0 -49 -8q-20 -10 -29 -25q-6 -10 -14 -34q-4 -12 -9 -41h-92z" />
<glyph unicode="&#xc4;" horiz-adv-x="1443" d="M0 0v86h39q31 0 51 6q16 4 37 25q16 16 33 49q20 39 35 80l454 1216h160l463 -1267q14 -35 24 -54q12 -23 29 -32q18 -12 41 -19q14 -4 51 -4h27v-86h-563v86h47q123 0 123 98q0 10 -4 35q-4 20 -13 41l-82 229h-538l-78 -215q-8 -20 -14 -47q-4 -16 -5 -41q0 -51 33 -75 q35 -25 103 -25h47v-86h-500zM453 592h462l-127 358l-59 170q-16 47 -43 154q-4 -31 -16 -72q-12 -45 -21 -69q-2 -6 -10 -33t-14 -43l-33 -88zM424 1747q0 35 8 53q12 29 23 37q16 12 32 19q18 6 41 6t41 -6q16 -6 33 -19q10 -8 23 -37q8 -18 8 -53t-8 -53 q-8 -20 -22.5 -34.5t-33 -21t-41.5 -6.5q-43 0 -76 27q-28 22 -28 88zM813 1747q0 35 8 53q12 29 23 37q16 12 32 19q18 6 41 6t41 -6q16 -6 33 -19q10 -8 23 -37q8 -18 8 -53t-8 -53q-8 -20 -22.5 -34.5t-33 -21t-41.5 -6.5q-43 0 -75 27q-29 22 -29 88z" />
<glyph unicode="&#xc5;" horiz-adv-x="1443" d="M0 0v86h39q31 0 51 6q16 4 37 25q16 16 33 49q20 39 35 80l454 1216h160l463 -1267q14 -35 24 -54q12 -23 29 -32q18 -12 41 -19q14 -4 51 -4h27v-86h-563v86h47q123 0 123 98q0 10 -4 35q-4 20 -13 41l-82 229h-538l-78 -215q-8 -20 -14 -47q-4 -16 -5 -41q0 -51 33 -75 q35 -25 103 -25h47v-86h-500zM453 592h462l-127 358l-59 170q-16 47 -43 154q-4 -31 -16 -72q-12 -45 -21 -69q-2 -6 -10 -33t-14 -43l-33 -88zM479 1585q0 53 19 96q16 41 53 70q35 29 78 43t96 14t96 -14.5t78 -42.5q37 -29 53 -70q18 -43 18.5 -96t-18.5 -96 q-16 -41 -53 -70q-35 -29 -78 -43t-96 -14t-96 14t-78 43q-37 29 -53 70q-19 43 -19 96zM590 1585q0 -31 10 -58q6 -18 29 -36q20 -16 43 -23q25 -6 53.5 -6t52.5 6q23 6 43 23q23 18 29 36q10 27 10 58t-10 57q-6 18 -29 37q-20 16 -43 23q-25 6 -53.5 6t-52.5 -6 q-23 -6 -43 -23q-23 -18 -29 -37q-10 -26 -10 -57z" />
<glyph unicode="&#xc6;" horiz-adv-x="1947" d="M0 0v86h33q51 0 96 39q43 37 86 121l592 1120l-160 10v86h1135l10 -358h-106l-11 88q-4 35 -14 63q-14 35 -33 54q-22 22 -55 37q-31 14 -78 14h-344v-545h494v-100h-494v-613h395q47 0 82 13q33 12 58 37q27 27 36 53q12 31 19 65l14 88h107l-15 -358h-1097v86h26 q23 0 64 4q33 4 53 19q23 16 37 41q14 27 14 73v266h-471l-113 -215q-16 -29 -24 -61q-8 -37 -8 -47q0 -41 32 -62q31 -18 91 -18h47v-86h-498zM526 592h418v768h-29q-18 -41 -65 -139l-47.5 -92.5l-46.5 -90.5l-111 -215z" />
<glyph unicode="&#xc7;" horiz-adv-x="1255" d="M117 733q0 164 43 303q45 145 123 238q82 98 206 153q123 55 285 56q115 0 182 -17q77 -18 129 -49q53 -31 78 -74t25 -90q0 -27 -14 -59q-12 -27 -37 -45q-29 -20 -56 -29q-37 -10 -71 -10q0 49 -13 94q-12 49 -41 86q-25 33 -73 60q-47 25 -113 24q-117 0 -197 -43 q-84 -45 -133 -123q-52 -83 -73 -202q-23 -125 -23 -273q0 -138 25 -252q25 -113 75 -194q51 -80 131 -127q78 -45 195 -45q78 0 133 14q59 16 101 39q45 27 77 55q35 31 60 66q14 -10 28 -31q10 -16 11 -49q0 -41 -27 -80q-31 -43 -80 -74q-51 -31 -137 -53t-197 -22 q-154 0 -270 55q-113 53 -193 151q-78 94 -118 240q-41 141 -41 307zM514 -365q37 -9 74 -12q49 -4 65 -4q58 0 92 31q33 31 33 84q0 59 -43 90q-39 29 -111 35l43 159h97l-21 -88q102 -8 150 -57q49 -49 49 -131q0 -111 -70 -172q-72 -61 -200 -62h-35q-8 0 -23.5 3.5 t-17.5 3.5l-43 6q-14 2 -39 10v104z" />
<glyph unicode="&#xc8;" horiz-adv-x="1275" d="M78 0v86h26q23 0 64 4q33 4 53 19q27 20 37 41q14 33 14 73v1006q0 45 -14 78q-12 27 -35 43q-18 14 -53 20q-31 6 -66 6h-26v86h1032l10 -358h-106l-10 88q-4 39 -15 65q-14 35 -33 54q-23 23 -55 35q-39 14 -78 14h-344v-545h494v-100h-494v-613h395q51 0 84 12.5 t58 37.5q23 23 35 53.5t18 64.5l14 88h107l-14 -358h-1098zM346 1886v21h219q15 -34 37 -74q37 -70 45 -82l49 -78q33 -49 48 -67v-27h-78q-41 29 -88 70l-95 86q-33 31 -81 84q-38 39 -56 67z" />
<glyph unicode="&#xc9;" horiz-adv-x="1275" d="M78 0v86h26q23 0 64 4q33 4 53 19q27 20 37 41q14 33 14 73v1006q0 45 -14 78q-12 27 -35 43q-18 14 -53 20q-31 6 -66 6h-26v86h1032l10 -358h-106l-10 88q-4 39 -15 65q-14 35 -33 54q-23 23 -55 35q-39 14 -78 14h-344v-545h494v-100h-494v-613h395q51 0 84 12.5 t58 37.5q23 23 35 53.5t18 64.5l14 88h107l-14 -358h-1098zM545 1579v27q14 18 47 67l49 78l16.5 28.5l14.5 25t14 28.5q22 40 37 74h219v-21q-12 -20 -57 -67q-49 -53 -82 -84l-92 -86q-37 -33 -88 -70h-78z" />
<glyph unicode="&#xca;" horiz-adv-x="1275" d="M78 0v86h26q23 0 64 4q33 4 53 19q27 20 37 41q14 33 14 73v1006q0 45 -14 78q-12 27 -35 43q-18 14 -53 20q-31 6 -66 6h-26v86h1032l10 -358h-106l-10 88q-4 39 -15 65q-14 35 -33 54q-23 23 -55 35q-39 14 -78 14h-344v-545h494v-100h-494v-613h395q51 0 84 12.5 t58 37.5q23 23 35 53.5t18 64.5l14 88h107l-14 -358h-1098zM350 1579v27q25 29 53 67l57 78l54 82q29 47 41 74h194q12 -27 41 -74l53 -82l58 -78q29 -39 53 -67v-27h-80q-61 35 -119 84q-49 41 -104 100q-55 -59 -105 -100q-61 -53 -116 -84h-80z" />
<glyph unicode="&#xcb;" horiz-adv-x="1275" d="M78 0v86h26q23 0 64 4q33 4 53 19q27 20 37 41q14 33 14 73v1006q0 45 -14 78q-12 27 -35 43q-18 14 -53 20q-31 6 -66 6h-26v86h1032l10 -358h-106l-10 88q-4 39 -15 65q-14 35 -33 54q-23 23 -55 35q-39 14 -78 14h-344v-545h494v-100h-494v-613h395q51 0 84 12.5 t58 37.5q23 23 35 53.5t18 64.5l14 88h107l-14 -358h-1098zM342 1747q0 35 8 53q12 29 23 37q16 12 32 19q18 6 41 6t41 -6q16 -6 33 -19q10 -8 23 -37q8 -18 8 -53t-8 -53q-8 -20 -22.5 -34.5t-33 -21t-41.5 -6.5q-43 0 -76 27q-28 22 -28 88zM731 1747q0 35 8 53 q12 29 23 37q16 12 32 19q18 6 41 6t41 -6q16 -6 33 -19q10 -8 23 -37q8 -18 8 -53t-8 -53q-8 -20 -22.5 -34.5t-33 -21t-41.5 -6.5q-43 0 -75 27q-29 22 -29 88z" />
<glyph unicode="&#xcc;" horiz-adv-x="751" d="M78 0v86h26q45 0 66 4q35 6 53 21q23 16 35 45q14 33 14 77v996q0 45 -14 78q-12 27 -35 43q-18 14 -53 20q-31 6 -66 6h-26v86h596v-86h-27q-35 0 -65 -6q-35 -6 -54 -20q-27 -18 -36 -43q-12 -29 -13 -78v-996q0 -49 13 -77q12 -27 36 -45q18 -14 54 -21q20 -4 65 -4 h27v-86h-596zM76 1886v21h219q15 -34 37 -74q37 -70 45 -82l49 -78q33 -49 48 -67v-27h-78q-41 29 -88 70l-95 86q-33 31 -81 84q-38 39 -56 67z" />
<glyph unicode="&#xcd;" horiz-adv-x="751" d="M78 0v86h26q45 0 66 4q35 6 53 21q23 16 35 45q14 33 14 77v996q0 45 -14 78q-12 27 -35 43q-18 14 -53 20q-31 6 -66 6h-26v86h596v-86h-27q-35 0 -65 -6q-35 -6 -54 -20q-27 -18 -36 -43q-12 -29 -13 -78v-996q0 -49 13 -77q12 -27 36 -45q18 -14 54 -21q20 -4 65 -4 h27v-86h-596zM270 1579v27q14 18 47 67l49 78l16.5 28.5l14.5 25t14 28.5q22 40 37 74h219v-21q-12 -20 -57 -67q-49 -53 -82 -84l-92 -86q-37 -33 -88 -70h-78z" />
<glyph unicode="&#xce;" horiz-adv-x="751" d="M78 0v86h26q45 0 66 4q35 6 53 21q23 16 35 45q14 33 14 77v996q0 45 -14 78q-12 27 -35 43q-18 14 -53 20q-31 6 -66 6h-26v86h596v-86h-27q-35 0 -65 -6q-35 -6 -54 -20q-27 -18 -36 -43q-12 -29 -13 -78v-996q0 -49 13 -77q12 -27 36 -45q18 -14 54 -21q20 -4 65 -4 h27v-86h-596zM74 1579v27q25 29 53 67l57 78l54 82q29 47 41 74h194q12 -27 41 -74l53 -82l58 -78q29 -39 53 -67v-27h-80q-61 35 -119 84q-49 41 -104 100q-55 -59 -105 -100q-61 -53 -116 -84h-80z" />
<glyph unicode="&#xcf;" horiz-adv-x="751" d="M78 0v86h26q45 0 66 4q35 6 53 21q23 16 35 45q14 33 14 77v996q0 45 -14 78q-12 27 -35 43q-18 14 -53 20q-31 6 -66 6h-26v86h596v-86h-27q-35 0 -65 -6q-35 -6 -54 -20q-27 -18 -36 -43q-12 -29 -13 -78v-996q0 -49 13 -77q12 -27 36 -45q18 -14 54 -21q20 -4 65 -4 h27v-86h-596zM74 1747q0 35 8 53q12 29 23 37q16 12 32 19q18 6 41 6t41 -6q16 -6 33 -19q10 -8 23 -37q8 -18 8 -53t-8 -53q-8 -20 -22.5 -34.5t-33 -21t-41.5 -6.5q-43 0 -76 27q-28 22 -28 88zM463 1747q0 35 8 53q12 29 23 37q16 12 32 19q18 6 41 6t41 -6q16 -6 33 -19 q10 -8 23 -37q8 -18 8 -53t-8 -53q-8 -20 -22.5 -34.5t-33 -21t-41.5 -6.5q-43 0 -75 27q-29 22 -29 88z" />
<glyph unicode="&#xd0;" horiz-adv-x="1488" d="M78 0v86h26q45 0 66 4q35 6 53 21q23 16 35 45q14 33 14 77v482h-194v100h194v422q0 39 -14 72q-10 25 -37 43q-25 18 -53 20q-41 4 -64 4h-26v86h627q160 0 282.5 -49t208.5 -141q84 -90 131 -230q45 -133 45 -309q0 -168 -43 -303q-45 -139 -125 -231 q-84 -96 -207 -147.5t-292 -51.5h-627zM479 104h178q125 0 213 41q94 45 154 121q57 76 90 199q31 117 31 268.5t-31 267.5q-33 121 -90 197q-63 82 -152 121q-94 41 -213 41h-180v-545h348v-100h-348v-611z" />
<glyph unicode="&#xd1;" horiz-adv-x="1562" d="M78 0v86h26q45 0 66 4q35 6 53 21q23 16 35 45q14 33 14 77v1004q0 39 -14 72q-10 25 -37 43q-25 18 -53 20q-41 4 -64 4h-26v86h375l733 -1132v907q0 45 -12 72q-10 25 -37 43q-25 18 -54 20q-41 4 -65 4h-27v86h514v-86h-26q-35 0 -66 -6q-35 -6 -53 -20 q-27 -18 -37 -43q-12 -29 -12 -78v-1229h-146l-768 1180v-947q0 -49 13 -77q12 -27 36 -45q18 -14 54 -21q20 -4 65 -4h27v-86h-514zM442 1600q2 43 17 90q12 47 39 78q25 31 67 53q39 20 94 20q57 0 99 -20q57 -29 84 -45l38.5 -22.5t32.5 -20.5q33 -20 66 -20.5t49 7.5 q20 10 29 25q12 20 14 35q0 4 3 18.5t5 22.5h92q-2 -43 -16 -90q-10 -35 -41 -78q-23 -31 -63 -53q-39 -20 -95 -21q-59 0 -100 21l-82 43l-72 45q-33 20 -67 20q-33 0 -49 -8q-20 -10 -29 -25q-6 -10 -14 -34q-4 -12 -9 -41h-92z" />
<glyph unicode="&#xd2;" horiz-adv-x="1519" d="M115 735q0 168 41 309q41 139 118 236q82 100 203 152q125 53 285 53q152 0 274 -53q115 -51 201 -152q80 -96 125 -238q41 -131 41 -309q0 -176 -41 -307q-45 -145 -125 -239.5t-203 -151.5q-121 -55 -274 -55q-166 0 -285 55q-125 57 -201 151q-78 94 -118 240 q-41 141 -41 309zM342 733q0 -147 23 -272q20 -115 71 -201q49 -82 131 -127q80 -43 193 -43q115 0 194.5 43t128.5 127q49 82 70 201q23 125 23 272q0 145 -23 271q-23 123 -70 202q-49 82 -129 125t-192 43q-115 0 -195 -43t-129 -125q-53 -90 -73 -202q-23 -126 -23 -271 zM463 1886v21h219q15 -34 37 -74q37 -70 45 -82l49 -78q33 -49 48 -67v-27h-78q-41 29 -88 70l-95 86q-33 31 -81 84q-38 39 -56 67z" />
<glyph unicode="&#xd3;" horiz-adv-x="1519" d="M115 735q0 168 41 309q41 139 118 236q82 100 203 152q125 53 285 53q152 0 274 -53q115 -51 201 -152q80 -96 125 -238q41 -131 41 -309q0 -176 -41 -307q-45 -145 -125 -239.5t-203 -151.5q-121 -55 -274 -55q-166 0 -285 55q-125 57 -201 151q-78 94 -118 240 q-41 141 -41 309zM342 733q0 -147 23 -272q20 -115 71 -201q49 -82 131 -127q80 -43 193 -43q115 0 194.5 43t128.5 127q49 82 70 201q23 125 23 272q0 145 -23 271q-23 123 -70 202q-49 82 -129 125t-192 43q-115 0 -195 -43t-129 -125q-53 -90 -73 -202q-23 -126 -23 -271 zM649 1579v27q14 18 47 67l49 78l16.5 28.5l14.5 25t14 28.5q22 40 37 74h219v-21q-12 -20 -57 -67q-49 -53 -82 -84l-92 -86q-37 -33 -88 -70h-78z" />
<glyph unicode="&#xd4;" horiz-adv-x="1519" d="M115 735q0 168 41 309q41 139 118 236q82 100 203 152q125 53 285 53q152 0 274 -53q115 -51 201 -152q80 -96 125 -238q41 -131 41 -309q0 -176 -41 -307q-45 -145 -125 -239.5t-203 -151.5q-121 -55 -274 -55q-166 0 -285 55q-125 57 -201 151q-78 94 -118 240 q-41 141 -41 309zM342 733q0 -147 23 -272q20 -115 71 -201q49 -82 131 -127q80 -43 193 -43q115 0 194.5 43t128.5 127q49 82 70 201q23 125 23 272q0 145 -23 271q-23 123 -70 202q-49 82 -129 125t-192 43q-115 0 -195 -43t-129 -125q-53 -90 -73 -202q-23 -126 -23 -271 zM459 1579v27q25 29 53 67l57 78l54 82q29 47 41 74h194q12 -27 41 -74l53 -82l58 -78q29 -39 53 -67v-27h-80q-61 35 -119 84q-49 41 -104 100q-55 -59 -105 -100q-61 -53 -116 -84h-80z" />
<glyph unicode="&#xd5;" horiz-adv-x="1519" d="M115 735q0 168 41 309q41 139 118 236q82 100 203 152q125 53 285 53q152 0 274 -53q115 -51 201 -152q80 -96 125 -238q41 -131 41 -309q0 -176 -41 -307q-45 -145 -125 -239.5t-203 -151.5q-121 -55 -274 -55q-166 0 -285 55q-125 57 -201 151q-78 94 -118 240 q-41 141 -41 309zM342 733q0 -147 23 -272q20 -115 71 -201q49 -82 131 -127q80 -43 193 -43q115 0 194.5 43t128.5 127q49 82 70 201q23 125 23 272q0 145 -23 271q-23 123 -70 202q-49 82 -129 125t-192 43q-115 0 -195 -43t-129 -125q-53 -90 -73 -202q-23 -126 -23 -271 zM381 1600q2 43 17 90q12 47 39 78q25 31 67 53q39 20 94 20q57 0 99 -20q57 -29 84 -45l38.5 -22.5t32.5 -20.5q33 -20 66 -20.5t49 7.5q20 10 29 25q12 20 14 35q0 4 3 18.5t5 22.5h92q-2 -43 -16 -90q-10 -35 -41 -78q-23 -31 -63 -53q-39 -20 -95 -21q-59 0 -100 21 l-82 43l-72 45q-33 20 -67 20q-33 0 -49 -8q-20 -10 -29 -25q-6 -10 -14 -34q-4 -12 -9 -41h-92z" />
<glyph unicode="&#xd6;" horiz-adv-x="1519" d="M115 735q0 168 41 309q41 139 118 236q82 100 203 152q125 53 285 53q152 0 274 -53q115 -51 201 -152q80 -96 125 -238q41 -131 41 -309q0 -176 -41 -307q-45 -145 -125 -239.5t-203 -151.5q-121 -55 -274 -55q-166 0 -285 55q-125 57 -201 151q-78 94 -118 240 q-41 141 -41 309zM342 733q0 -147 23 -272q20 -115 71 -201q49 -82 131 -127q80 -43 193 -43q115 0 194.5 43t128.5 127q49 82 70 201q23 125 23 272q0 145 -23 271q-23 123 -70 202q-49 82 -129 125t-192 43q-115 0 -195 -43t-129 -125q-53 -90 -73 -202q-23 -126 -23 -271 zM455 1747q0 35 8 53q12 29 23 37q16 12 32 19q18 6 41 6t41 -6q16 -6 33 -19q10 -8 23 -37q8 -18 8 -53t-8 -53q-8 -20 -22.5 -34.5t-33 -21t-41.5 -6.5q-43 0 -76 27q-28 22 -28 88zM844 1747q0 35 8 53q12 29 23 37q16 12 32 19q18 6 41 6t41 -6q16 -6 33 -19 q10 -8 23 -37q8 -18 8 -53t-8 -53q-8 -20 -22.5 -34.5t-33 -21t-41.5 -6.5q-43 0 -75 27q-29 22 -29 88z" />
<glyph unicode="&#xd7;" d="M145 395l340 340l-340 338l86 86l340 -340l340 342l86 -88l-340 -340l340 -340l-86 -86l-340 340l-340 -340z" />
<glyph unicode="&#xd8;" horiz-adv-x="1519" d="M115 735q0 168 41 309q41 139 118 236q82 100 203 152q125 53 285 53q94 0 170 -19q70 -16 143 -55l76 135h119l-107 -192q117 -98 178 -254q61 -158 62 -367q0 -176 -41 -307q-45 -145 -125 -239.5t-203 -151.5q-121 -55 -274 -55q-92 0 -172 18q-86 20 -146 51 l-71 -131h-121l104 188q-123 100 -180 259q-59 161 -59 370zM342 733q0 -150 23 -272q23 -121 73 -203l572 1034q-94 82 -248 82q-115 0 -195 -43t-129 -125q-53 -90 -73 -202q-23 -126 -23 -271zM510 170q96 -80 250 -80q115 0 194.5 43t128.5 127q49 82 70 201 q23 125 23 272q0 145 -23 271q-20 117 -72 202z" />
<glyph unicode="&#xd9;" horiz-adv-x="1466" d="M31 1376v86h596v-86h-27q-35 0 -65 -6q-35 -6 -54 -20q-23 -16 -35 -43q-14 -33 -14 -78v-799q0 -90 24.5 -151.5t71.5 -102.5q41 -35 109 -55q61 -18 137 -19q89 0 154 25q66 25 106 66q43 41 64 100q20 55 20 129v815q0 39 -14 72q-10 25 -37 43q-25 18 -53 20 q-41 4 -64 4h-26v86h514v-86h-27q-35 0 -65 -6q-35 -6 -54 -20q-23 -16 -35 -43q-14 -33 -14 -78v-811q0 -102 -33 -182q-35 -88 -96 -140q-66 -57 -158 -86q-96 -31 -215 -30q-115 0 -217 26q-94 25 -161.5 80t-102.5 143t-35 213v795q0 39 -14 72q-10 25 -37 43 q-25 18 -53 20q-41 4 -64 4h-26zM454 1886v21h219q15 -34 37 -74q37 -70 45 -82l49 -78q33 -49 48 -67v-27h-78q-41 29 -88 70l-95 86q-33 31 -81 84q-38 39 -56 67z" />
<glyph unicode="&#xda;" horiz-adv-x="1466" d="M31 1376v86h596v-86h-27q-35 0 -65 -6q-35 -6 -54 -20q-23 -16 -35 -43q-14 -33 -14 -78v-799q0 -90 24.5 -151.5t71.5 -102.5q41 -35 109 -55q61 -18 137 -19q89 0 154 25q66 25 106 66q43 41 64 100q20 55 20 129v815q0 39 -14 72q-10 25 -37 43q-25 18 -53 20 q-41 4 -64 4h-26v86h514v-86h-27q-35 0 -65 -6q-35 -6 -54 -20q-23 -16 -35 -43q-14 -33 -14 -78v-811q0 -102 -33 -182q-35 -88 -96 -140q-66 -57 -158 -86q-96 -31 -215 -30q-115 0 -217 26q-94 25 -161.5 80t-102.5 143t-35 213v795q0 39 -14 72q-10 25 -37 43 q-25 18 -53 20q-41 4 -64 4h-26zM649 1579v27q14 18 47 67l49 78l16.5 28.5l14.5 25t14 28.5q22 40 37 74h219v-21q-12 -20 -57 -67q-49 -53 -82 -84l-92 -86q-37 -33 -88 -70h-78z" />
<glyph unicode="&#xdb;" horiz-adv-x="1466" d="M31 1376v86h596v-86h-27q-35 0 -65 -6q-35 -6 -54 -20q-23 -16 -35 -43q-14 -33 -14 -78v-799q0 -90 24.5 -151.5t71.5 -102.5q41 -35 109 -55q61 -18 137 -19q89 0 154 25q66 25 106 66q43 41 64 100q20 55 20 129v815q0 39 -14 72q-10 25 -37 43q-25 18 -53 20 q-41 4 -64 4h-26v86h514v-86h-27q-35 0 -65 -6q-35 -6 -54 -20q-23 -16 -35 -43q-14 -33 -14 -78v-811q0 -102 -33 -182q-35 -88 -96 -140q-66 -57 -158 -86q-96 -31 -215 -30q-115 0 -217 26q-94 25 -161.5 80t-102.5 143t-35 213v795q0 39 -14 72q-10 25 -37 43 q-25 18 -53 20q-41 4 -64 4h-26zM471 1579v27q25 29 53 67l57 78l54 82q29 47 41 74h194q12 -27 41 -74l53 -82l58 -78q29 -39 53 -67v-27h-80q-61 35 -119 84q-49 41 -104 100q-55 -59 -105 -100q-61 -53 -116 -84h-80z" />
<glyph unicode="&#xdc;" horiz-adv-x="1466" d="M31 1376v86h596v-86h-27q-35 0 -65 -6q-35 -6 -54 -20q-23 -16 -35 -43q-14 -33 -14 -78v-799q0 -90 24.5 -151.5t71.5 -102.5q41 -35 109 -55q61 -18 137 -19q89 0 154 25q66 25 106 66q43 41 64 100q20 55 20 129v815q0 39 -14 72q-10 25 -37 43q-25 18 -53 20 q-41 4 -64 4h-26v86h514v-86h-27q-35 0 -65 -6q-35 -6 -54 -20q-23 -16 -35 -43q-14 -33 -14 -78v-811q0 -102 -33 -182q-35 -88 -96 -140q-66 -57 -158 -86q-96 -31 -215 -30q-115 0 -217 26q-94 25 -161.5 80t-102.5 143t-35 213v795q0 39 -14 72q-10 25 -37 43 q-25 18 -53 20q-41 4 -64 4h-26zM477 1747q0 35 8 53q12 29 23 37q16 12 32 19q18 6 41 6t41 -6q16 -6 33 -19q10 -8 23 -37q8 -18 8 -53t-8 -53q-8 -20 -22.5 -34.5t-33 -21t-41.5 -6.5q-43 0 -76 27q-28 22 -28 88zM866 1747q0 35 8 53q12 29 23 37q16 12 32 19q18 6 41 6 t41 -6q16 -6 33 -19q10 -8 23 -37q8 -18 8 -53t-8 -53q-8 -20 -22.5 -34.5t-33 -21t-41.5 -6.5q-43 0 -75 27q-29 22 -29 88z" />
<glyph unicode="&#xdd;" horiz-adv-x="1280" d="M-10 1376v86h563v-86h-76q-27 0 -45 -6q-25 -8 -29 -12q-8 -8 -12 -23q-4 -16 -4 -24q0 -29 12 -58q16 -37 25 -51l151 -274q39 -68 62 -125q4 -10 41 -109q4 8 11 24.5t11 24.5l31 58l35 63l35 64l131 235q16 27 29 66q8 27 8 57q0 46 -31 68q-33 23 -92 22h-60v86h500 v-86h-24q-16 0 -41 -8q-16 -6 -39 -25q-22 -18 -43 -49q-23 -33 -47 -77l-344 -607v-377q0 -45 14 -77q12 -29 35 -45q18 -14 53 -21q20 -4 65 -4h48v-86h-637v86h47q25 0 65 4q33 4 54 19q27 20 36 41q12 28 13 73v387l-379 658q-4 6 -11.5 16t-12.5 18.5t-9 14.5 q-16 25 -31 35q-15 12 -37 18q-20 6 -45 6h-26zM567 1579v27q14 18 47 67l49 78l16.5 28.5l14.5 25t14 28.5q22 40 37 74h219v-21q-12 -20 -57 -67q-49 -53 -82 -84l-92 -86q-37 -33 -88 -70h-78z" />
<glyph unicode="&#xde;" horiz-adv-x="1236" d="M78 0v86h26q45 0 66 4q35 6 53 21q23 16 35 45q14 33 14 77v996q0 45 -14 78q-12 27 -35 43q-18 14 -53 20q-31 6 -66 6h-26v86h616v-86h-47q-35 0 -65 -6q-35 -6 -54 -20q-27 -18 -36 -43q-12 -29 -13 -78v-62h174q258 0 381 -104.5t123 -302.5q0 -90 -29 -172 q-27 -78 -94 -142q-66 -63 -170 -96q-109 -35 -256 -35h-129v-82q0 -49 13 -77q12 -27 36 -45q18 -14 54 -21q20 -4 65 -4h47v-86h-616zM479 412h109q90 0 160 16q59 14 106 57q45 43 64 105q18 66 18 162q0 90 -16 145q-18 61 -55.5 98t-98.5 55.5t-148 18.5h-139v-657z " />
<glyph unicode="&#xdf;" horiz-adv-x="1323" d="M47 0v86h27q45 0 65 4q35 6 54 21q25 18 36 45q12 29 13 77v768h-166v97h166v61q0 111 34 191q34 77 93 123q61 47 141 69q76 20 174 21q127 0 213 -37t137 -107q53 -72 74 -174q23 -109 22 -239h-149q-111 0 -160 -41q-51 -43 -51 -125q0 -29 10 -56q8 -23 35 -49 q18 -18 66 -47q43 -27 102 -53q80 -35 127 -74q45 -37 76 -84t39 -88q10 -51 10 -90q0 -76 -25 -137q-25 -59 -67 -101q-43 -39 -109 -61q-61 -20 -145 -20q-63 0 -131 14q-55 12 -100.5 40.5t-65.5 67.5q-23 41 -23 95q0 41 13 69q14 31 28 43q20 16 39 23q22 6 37 6 q0 -49 10 -100q8 -45 35 -84q23 -35 61.5 -55.5t94.5 -20.5q72 0 123 47q49 47 49 139q0 27 -8 64q-6 27 -29 55q-18 23 -61 53q-37 27 -101 58q-47 23 -112 63q-43 27 -82 70q-34 37 -50 86q-16 53 -16 112q0 63 21 113q23 55 61 88q37 33 106 55q61 20 150 21 q0 100 -14 166q-14 70 -45 114q-31 46 -80 68q-47 20 -117 20q-66 0 -109 -20q-49 -23 -77 -57q-33 -39 -47.5 -88.5t-14.5 -116.5v-1188h-387z" />
<glyph unicode="&#xe0;" horiz-adv-x="1150" d="M102 307q0 164 115 242q117 80 352 86l170 6v123q0 55 -6 102t-26.5 80t-57.5 51.5t-100 18.5q-57 0 -96 -17q-31 -12 -56 -47q-23 -33 -28 -69q-6 -39 -7 -90q-84 0 -129 28.5t-45 100.5q0 51 29 90q27 35 80 61q43 20 117 35q57 10 143 10q94 0 164 -18q71 -18 117 -62 q49 -45 71 -108q23 -61 23 -166v-531q0 -45 6 -71q6 -25 23 -45q14 -18 40 -25q25 -6 58 -6h6v-86h-277l-32 176h-17q-31 -43 -61.5 -80t-67.5 -61q-43 -29 -80 -41q-43 -14 -110 -14q-61 0 -127 20q-55 18 -100 59q-39 37 -66 103q-25 61 -25 145zM301 297q0 -96 41 -143.5 t125 -47.5q66 0 113 21q55 25 86 55q37 37 55 90q18 51 18 119v166l-131 -6q-90 -4 -145 -21q-57 -18 -94 -49q-35 -29 -51.5 -78t-16.5 -106zM268 1548v21h219q15 -34 37 -74q37 -70 45 -82l49 -78q33 -49 48 -67v-27h-78q-41 29 -88 70l-95 86q-33 31 -81 84 q-38 39 -56 67z" />
<glyph unicode="&#xe1;" horiz-adv-x="1150" d="M102 307q0 164 115 242q117 80 352 86l170 6v123q0 55 -6 102t-26.5 80t-57.5 51.5t-100 18.5q-57 0 -96 -17q-31 -12 -56 -47q-23 -33 -28 -69q-6 -39 -7 -90q-84 0 -129 28.5t-45 100.5q0 51 29 90q27 35 80 61q43 20 117 35q57 10 143 10q94 0 164 -18q71 -18 117 -62 q49 -45 71 -108q23 -61 23 -166v-531q0 -45 6 -71q6 -25 23 -45q14 -18 40 -25q25 -6 58 -6h6v-86h-277l-32 176h-17q-31 -43 -61.5 -80t-67.5 -61q-43 -29 -80 -41q-43 -14 -110 -14q-61 0 -127 20q-55 18 -100 59q-39 37 -66 103q-25 61 -25 145zM301 297q0 -96 41 -143.5 t125 -47.5q66 0 113 21q55 25 86 55q37 37 55 90q18 51 18 119v166l-131 -6q-90 -4 -145 -21q-57 -18 -94 -49q-35 -29 -51.5 -78t-16.5 -106zM471 1241v27q14 18 47 67l49 78l16.5 28.5l14.5 25t14 28.5q22 40 37 74h219v-21q-12 -20 -57 -67q-49 -53 -82 -84l-92 -86 q-37 -33 -88 -70h-78z" />
<glyph unicode="&#xe2;" horiz-adv-x="1150" d="M102 307q0 164 115 242q117 80 352 86l170 6v123q0 55 -6 102t-26.5 80t-57.5 51.5t-100 18.5q-57 0 -96 -17q-31 -12 -56 -47q-23 -33 -28 -69q-6 -39 -7 -90q-84 0 -129 28.5t-45 100.5q0 51 29 90q27 35 80 61q43 20 117 35q57 10 143 10q94 0 164 -18q71 -18 117 -62 q49 -45 71 -108q23 -61 23 -166v-531q0 -45 6 -71q6 -25 23 -45q14 -18 40 -25q25 -6 58 -6h6v-86h-277l-32 176h-17q-31 -43 -61.5 -80t-67.5 -61q-43 -29 -80 -41q-43 -14 -110 -14q-61 0 -127 20q-55 18 -100 59q-39 37 -66 103q-25 61 -25 145zM301 297q0 -96 41 -143.5 t125 -47.5q66 0 113 21q55 25 86 55q37 37 55 90q18 51 18 119v166l-131 -6q-90 -4 -145 -21q-57 -18 -94 -49q-35 -29 -51.5 -78t-16.5 -106zM260 1241v27q25 29 53 67l57 78l54 82q29 47 41 74h194q12 -27 41 -74l53 -82l58 -78q29 -39 53 -67v-27h-80q-61 35 -119 84 q-49 41 -104 100q-55 -59 -105 -100q-61 -53 -116 -84h-80z" />
<glyph unicode="&#xe3;" horiz-adv-x="1150" d="M102 307q0 164 115 242q117 80 352 86l170 6v123q0 55 -6 102t-26.5 80t-57.5 51.5t-100 18.5q-57 0 -96 -17q-31 -12 -56 -47q-23 -33 -28 -69q-6 -39 -7 -90q-84 0 -129 28.5t-45 100.5q0 51 29 90q27 35 80 61q43 20 117 35q57 10 143 10q94 0 164 -18q71 -18 117 -62 q49 -45 71 -108q23 -61 23 -166v-531q0 -45 6 -71q6 -25 23 -45q14 -18 40 -25q25 -6 58 -6h6v-86h-277l-32 176h-17q-31 -43 -61.5 -80t-67.5 -61q-43 -29 -80 -41q-43 -14 -110 -14q-61 0 -127 20q-55 18 -100 59q-39 37 -66 103q-25 61 -25 145zM301 297q0 -96 41 -143.5 t125 -47.5q66 0 113 21q55 25 86 55q37 37 55 90q18 51 18 119v166l-131 -6q-90 -4 -145 -21q-57 -18 -94 -49q-35 -29 -51.5 -78t-16.5 -106zM207 1262q2 43 17 90q12 47 39 78q25 31 67 53q39 20 94 20q57 0 99 -20q57 -29 84 -45l38.5 -22.5t32.5 -20.5q33 -20 66 -20.5 t49 7.5q20 10 29 25q12 20 14 35q0 4 3 18.5t5 22.5h92q-2 -43 -16 -90q-10 -35 -41 -78q-23 -31 -63 -53q-39 -20 -95 -21q-59 0 -100 21l-82 43l-72 45q-33 20 -67 20q-33 0 -49 -8q-20 -10 -29 -25q-6 -10 -14 -34q-4 -12 -9 -41h-92z" />
<glyph unicode="&#xe4;" horiz-adv-x="1150" d="M102 307q0 164 115 242q117 80 352 86l170 6v123q0 55 -6 102t-26.5 80t-57.5 51.5t-100 18.5q-57 0 -96 -17q-31 -12 -56 -47q-23 -33 -28 -69q-6 -39 -7 -90q-84 0 -129 28.5t-45 100.5q0 51 29 90q27 35 80 61q43 20 117 35q57 10 143 10q94 0 164 -18q71 -18 117 -62 q49 -45 71 -108q23 -61 23 -166v-531q0 -45 6 -71q6 -25 23 -45q14 -18 40 -25q25 -6 58 -6h6v-86h-277l-32 176h-17q-31 -43 -61.5 -80t-67.5 -61q-43 -29 -80 -41q-43 -14 -110 -14q-61 0 -127 20q-55 18 -100 59q-39 37 -66 103q-25 61 -25 145zM301 297q0 -96 41 -143.5 t125 -47.5q66 0 113 21q55 25 86 55q37 37 55 90q18 51 18 119v166l-131 -6q-90 -4 -145 -21q-57 -18 -94 -49q-35 -29 -51.5 -78t-16.5 -106zM256 1409q0 35 8 53q12 29 23 37q16 12 32 19q18 6 41 6t41 -6q16 -6 33 -19q10 -8 23 -37q8 -18 8 -53t-8 -53 q-8 -20 -22.5 -34.5t-33 -21t-41.5 -6.5q-43 0 -76 27q-28 22 -28 88zM645 1409q0 35 8 53q12 29 23 37q16 12 32 19q18 6 41 6t41 -6q16 -6 33 -19q10 -8 23 -37q8 -18 8 -53t-8 -53q-8 -20 -22.5 -34.5t-33 -21t-41.5 -6.5q-43 0 -75 27q-29 22 -29 88z" />
<glyph unicode="&#xe5;" horiz-adv-x="1150" d="M102 307q0 164 115 242q117 80 352 86l170 6v123q0 55 -6 102t-26.5 80t-57.5 51.5t-100 18.5q-57 0 -96 -17q-31 -12 -56 -47q-23 -33 -28 -69q-6 -39 -7 -90q-84 0 -129 28.5t-45 100.5q0 51 29 90q27 35 80 61q43 20 117 35q57 10 143 10q94 0 164 -18q71 -18 117 -62 q49 -45 71 -108q23 -61 23 -166v-531q0 -45 6 -71q6 -25 23 -45q14 -18 40 -25q25 -6 58 -6h6v-86h-277l-32 176h-17q-31 -43 -61.5 -80t-67.5 -61q-43 -29 -80 -41q-43 -14 -110 -14q-61 0 -127 20q-55 18 -100 59q-39 37 -66 103q-25 61 -25 145zM301 297q0 -96 41 -143.5 t125 -47.5q66 0 113 21q55 25 86 55q37 37 55 90q18 51 18 119v166l-131 -6q-90 -4 -145 -21q-57 -18 -94 -49q-35 -29 -51.5 -78t-16.5 -106zM327 1444q0 53 19 96q16 41 53 70q35 29 78 43t96 14t96 -14.5t78 -42.5q37 -29 53 -70q18 -43 18.5 -96t-18.5 -96 q-16 -41 -53 -70q-35 -29 -78 -43t-96 -14t-96 14t-78 43q-37 29 -53 70q-19 43 -19 96zM438 1444q0 -31 10 -58q6 -18 29 -36q20 -16 43 -23q25 -6 53.5 -6t52.5 6q23 6 43 23q23 18 29 36q10 27 10 58t-10 57q-6 18 -29 37q-20 16 -43 23q-25 6 -53.5 6t-52.5 -6 q-23 -6 -43 -23q-23 -18 -29 -37q-10 -26 -10 -57z" />
<glyph unicode="&#xe6;" horiz-adv-x="1720" d="M102 307q0 164 115 242q117 80 352 86l170 6v123q0 55 -6 102t-26.5 80t-57.5 51.5t-100 18.5q-57 0 -96 -17q-31 -12 -56 -47q-23 -33 -28 -69q-6 -39 -7 -90q-84 0 -129 28.5t-45 100.5q0 51 29 90q27 35 80 61q43 20 117 35q57 10 143 10q115 0 194.5 -30.5 t125.5 -94.5q113 125 317 125q98 0 178 -31q76 -29 133 -92q55 -61 86 -153q29 -86 29 -213v-94h-682q2 -109 23 -193q18 -80 57 -131q43 -55 96 -78q57 -25 141 -24q43 0 86 12q53 14 80 29q18 8 66 47q25 18 49 55q14 -6 26.5 -24.5t12.5 -45.5q0 -29 -23 -67 q-18 -33 -65 -66q-35 -25 -111 -49q-63 -20 -155 -20q-147 0 -254 59q-102 57 -162 174q-16 -41 -53 -88q-31 -37 -82 -74q-47 -33 -111 -51q-68 -20 -139 -20q-61 0 -127 20q-55 18 -100 59q-39 37 -66 103q-25 61 -25 145zM301 297q0 -96 41 -143.5t125 -47.5q66 0 113 21 q55 25 86 55q37 37 55 90q18 51 18 119v123v27v16l-131 -6q-90 -4 -145 -21q-57 -18 -94 -49q-35 -29 -51.5 -78t-16.5 -106zM942 645h471q0 80 -12 148q-12 63 -37 114q-25 47 -70 74q-47 27 -104 27q-115 0 -176 -93q-60 -88 -72 -270z" />
<glyph unicode="&#xe7;" horiz-adv-x="1007" d="M113 543q0 160 34 274q33 109 97 178q59 66 145 94.5t180 28.5q61 0 127 -12q53 -10 115 -39q53 -25 84 -66q31 -40 31 -92q0 -74 -45 -100q-47 -29 -138 -29q0 51 -8 90t-28 76q-18 33 -52 51t-86 19q-57 0 -106 -22.5t-82 -76t-51.5 -145.5t-18.5 -227q0 -221 72 -326 q74 -106 238 -106q94 0 165 41q76 43 107 102q16 -12 25 -33q10 -25 10 -47q0 -35 -23 -70q-23 -37 -65 -63q-39 -25 -109 -45q-63 -18 -151 -18q-96 0 -189 32q-86 31 -147 99q-63 70 -97 174q-34 111 -34 258zM356 -365q37 -9 74 -12q49 -4 65 -4q58 0 92 31q33 31 33 84 q0 59 -43 90q-39 29 -111 35l43 159h97l-21 -88q102 -8 150 -57q49 -49 49 -131q0 -111 -70 -172q-72 -61 -200 -62h-35q-8 0 -23.5 3.5t-17.5 3.5l-43 6q-14 2 -39 10v104z" />
<glyph unicode="&#xe8;" horiz-adv-x="1095" d="M113 541q0 285 118 432q117 145 336 145q98 0 178 -31q76 -29 134 -92q51 -57 84 -153q31 -92 30 -213v-94h-682q4 -121 23 -193q23 -82 59 -131q41 -55 94 -78q55 -25 129 -24q52 0 99 12t82 33q43 25 65 45q29 25 47 53q14 -6 26.5 -24.5t12.5 -45.5q0 -29 -22 -67 q-20 -33 -68 -66q-41 -27 -110 -49q-63 -20 -160 -20q-104 0 -199 38q-86 35 -149 109q-59 68 -95 176q-32 101 -32 238zM315 645h471q0 80 -12 148q-10 57 -39 114q-25 49 -67 74q-47 27 -105 27q-115 0 -176 -93q-60 -88 -72 -270zM284 1548v21h219q15 -34 37 -74 q37 -70 45 -82l49 -78q33 -49 48 -67v-27h-78q-41 29 -88 70l-95 86q-33 31 -81 84q-38 39 -56 67z" />
<glyph unicode="&#xe9;" horiz-adv-x="1095" d="M113 541q0 285 118 432q117 145 336 145q98 0 178 -31q76 -29 134 -92q51 -57 84 -153q31 -92 30 -213v-94h-682q4 -121 23 -193q23 -82 59 -131q41 -55 94 -78q55 -25 129 -24q52 0 99 12t82 33q43 25 65 45q29 25 47 53q14 -6 26.5 -24.5t12.5 -45.5q0 -29 -22 -67 q-20 -33 -68 -66q-41 -27 -110 -49q-63 -20 -160 -20q-104 0 -199 38q-86 35 -149 109q-59 68 -95 176q-32 101 -32 238zM315 645h471q0 80 -12 148q-10 57 -39 114q-25 49 -67 74q-47 27 -105 27q-115 0 -176 -93q-60 -88 -72 -270zM473 1241v27q14 18 47 67l49 78 l16.5 28.5l14.5 25t14 28.5q22 40 37 74h219v-21q-12 -20 -57 -67q-49 -53 -82 -84l-92 -86q-37 -33 -88 -70h-78z" />
<glyph unicode="&#xea;" horiz-adv-x="1095" d="M113 541q0 285 118 432q117 145 336 145q98 0 178 -31q76 -29 134 -92q51 -57 84 -153q31 -92 30 -213v-94h-682q4 -121 23 -193q23 -82 59 -131q41 -55 94 -78q55 -25 129 -24q52 0 99 12t82 33q43 25 65 45q29 25 47 53q14 -6 26.5 -24.5t12.5 -45.5q0 -29 -22 -67 q-20 -33 -68 -66q-41 -27 -110 -49q-63 -20 -160 -20q-104 0 -199 38q-86 35 -149 109q-59 68 -95 176q-32 101 -32 238zM315 645h471q0 80 -12 148q-10 57 -39 114q-25 49 -67 74q-47 27 -105 27q-115 0 -176 -93q-60 -88 -72 -270zM254 1241v27q25 29 53 67l57 78l54 82 q29 47 41 74h194q12 -27 41 -74l53 -82l58 -78q29 -39 53 -67v-27h-80q-61 35 -119 84q-49 41 -104 100q-55 -59 -105 -100q-61 -53 -116 -84h-80z" />
<glyph unicode="&#xeb;" horiz-adv-x="1095" d="M113 541q0 285 118 432q117 145 336 145q98 0 178 -31q76 -29 134 -92q51 -57 84 -153q31 -92 30 -213v-94h-682q4 -121 23 -193q23 -82 59 -131q41 -55 94 -78q55 -25 129 -24q52 0 99 12t82 33q43 25 65 45q29 25 47 53q14 -6 26.5 -24.5t12.5 -45.5q0 -29 -22 -67 q-20 -33 -68 -66q-41 -27 -110 -49q-63 -20 -160 -20q-104 0 -199 38q-86 35 -149 109q-59 68 -95 176q-32 101 -32 238zM315 645h471q0 80 -12 148q-10 57 -39 114q-25 49 -67 74q-47 27 -105 27q-115 0 -176 -93q-60 -88 -72 -270zM252 1409q0 35 8 53q12 29 23 37 q16 12 32 19q18 6 41 6t41 -6q16 -6 33 -19q10 -8 23 -37q8 -18 8 -53t-8 -53q-8 -20 -22.5 -34.5t-33 -21t-41.5 -6.5q-43 0 -76 27q-28 22 -28 88zM641 1409q0 35 8 53q12 29 23 37q16 12 32 19q18 6 41 6t41 -6q16 -6 33 -19q10 -8 23 -37q8 -18 8 -53t-8 -53 q-8 -20 -22.5 -34.5t-33 -21t-41.5 -6.5q-43 0 -75 27q-29 22 -29 88z" />
<glyph unicode="&#xec;" horiz-adv-x="653" d="M47 0v86h27q25 0 65 4q33 4 54 19q27 20 36 41q12 28 13 73v649q0 45 -13 72q-10 25 -36 43q-18 14 -54 21q-20 4 -65 4h-6v86h366v-865q0 -45 15 -77q12 -29 34 -45q18 -14 54 -21q20 -4 65 -4h27v-86h-582zM39 1548v21h219q15 -34 37 -74q37 -70 45 -82l49 -78 q33 -49 48 -67v-27h-78q-41 29 -88 70l-95 86q-33 31 -81 84q-38 39 -56 67z" />
<glyph unicode="&#xed;" horiz-adv-x="653" d="M47 0v86h27q25 0 65 4q33 4 54 19q27 20 36 41q12 28 13 73v649q0 45 -13 72q-10 25 -36 43q-18 14 -54 21q-20 4 -65 4h-6v86h366v-865q0 -45 15 -77q12 -29 34 -45q18 -14 54 -21q20 -4 65 -4h27v-86h-582zM239 1241v27q14 18 47 67l49 78l16.5 28.5l14.5 25t14 28.5 q22 40 37 74h219v-21q-12 -20 -57 -67q-49 -53 -82 -84l-92 -86q-37 -33 -88 -70h-78z" />
<glyph unicode="&#xee;" horiz-adv-x="653" d="M47 0v86h27q25 0 65 4q33 4 54 19q27 20 36 41q12 28 13 73v649q0 45 -13 72q-10 25 -36 43q-18 14 -54 21q-20 4 -65 4h-6v86h366v-865q0 -45 15 -77q12 -29 34 -45q18 -14 54 -21q20 -4 65 -4h27v-86h-582zM23 1241v27q25 29 53 67l57 78l54 82q29 47 41 74h194 q12 -27 41 -74l53 -82l58 -78q29 -39 53 -67v-27h-80q-61 35 -119 84q-49 41 -104 100q-55 -59 -105 -100q-61 -53 -116 -84h-80z" />
<glyph unicode="&#xef;" horiz-adv-x="653" d="M47 0v86h27q25 0 65 4q33 4 54 19q27 20 36 41q12 28 13 73v649q0 45 -13 72q-10 25 -36 43q-18 14 -54 21q-20 4 -65 4h-6v86h366v-865q0 -45 15 -77q12 -29 34 -45q18 -14 54 -21q20 -4 65 -4h27v-86h-582zM19 1409q0 35 8 53q12 29 23 37q16 12 32 19q18 6 41 6t41 -6 q16 -6 33 -19q10 -8 23 -37q8 -18 8 -53t-8 -53q-8 -20 -22.5 -34.5t-33 -21t-41.5 -6.5q-43 0 -76 27q-28 22 -28 88zM408 1409q0 35 8 53q12 29 23 37q16 12 32 19q18 6 41 6t41 -6q16 -6 33 -19q10 -8 23 -37q8 -18 8 -53t-8 -53q-8 -20 -22.5 -34.5t-33 -21t-41.5 -6.5 q-43 0 -75 27q-29 22 -29 88z" />
<glyph unicode="&#xf0;" horiz-adv-x="1181" d="M113 510q0 266 123 395q125 131 358 131q72 0 127 -14q59 -16 108 -39q-18 59 -75 143q-47 70 -131 144l-256 -146v115l172 98q-57 37 -109 62q-58 28 -123 49v111q90 -20 185 -60q92 -39 170 -92l264 154v-117l-181 -103q70 -61 132 -137q57 -72 102 -172 q41 -90 65 -203q25 -111 25 -233q0 -313 -123 -464.5t-358 -151.5q-113 0 -199 32q-88 33 -149 99q-57 61 -95 165q-32 97 -32 234zM311 510q0 -111 15 -184q16 -82 49 -133q34 -52 86 -80q51 -27 131 -27t131 27q52 28 86 80q31 47 47 133q14 74 14 184q0 96 -16 182 q-16 82 -47 131q-35 53 -86 78q-57 27 -131 27q-72 0 -129 -27q-51 -25 -86 -78t-49 -131q-15 -73 -15 -182z" />
<glyph unicode="&#xf1;" horiz-adv-x="1320" d="M57 0v86h17q45 0 65 4q35 6 54 21q25 18 36 45q12 29 13 77v639q0 45 -13 72q-10 25 -36 43q-18 14 -54 21q-20 4 -65 4h-6v86h331l27 -166h10q29 55 68 94t74 57q37 20 84 27q57 8 94 8q80 0 145.5 -24.5t106.5 -71.5q47 -53 69 -125q23 -70 23 -180v-484q0 -49 12 -77 q14 -31 32.5 -45.5t49.5 -20.5q18 -4 63 -4h7v-86h-357v707q0 68 -12 118q-12 53 -39 88q-29 37 -70 56q-43 18 -104 18q-72 0 -117 -26q-53 -31 -78 -74q-29 -49 -41 -107q-12 -61 -12 -125v-432q0 -41 15 -73q10 -25 34 -41q20 -14 54 -19q41 -4 65 -4h6v-86h-551z M305 1262q2 43 17 90q12 47 39 78q25 31 67 53q39 20 94 20q57 0 99 -20q57 -29 84 -45l38.5 -22.5t32.5 -20.5q33 -20 66 -20.5t49 7.5q20 10 29 25q12 20 14 35q0 4 3 18.5t5 22.5h92q-2 -43 -16 -90q-10 -35 -41 -78q-23 -31 -63 -53q-39 -20 -95 -21q-59 0 -100 21 l-82 43l-72 45q-33 20 -67 20q-33 0 -49 -8q-20 -10 -29 -25q-6 -10 -14 -34q-4 -12 -9 -41h-92z" />
<glyph unicode="&#xf2;" horiz-adv-x="1181" d="M113 551q0 287 123 428q121 139 358 139q106 0 199 -35q88 -33 149 -104q59 -70 94 -178q33 -104 33 -250q0 -289 -123 -430t-358 -141q-106 0 -199 34q-84 33 -149 107q-59 70 -95 178q-32 105 -32 252zM311 551q0 -121 15 -201q16 -88 49 -145.5t86 -87.5 q51 -31 131 -31t131 31q53 31 86 88q31 53 47 145q14 80 14 201q0 109 -16 201q-16 90 -47 143q-34 58 -86 86q-53 29 -131 29q-76 0 -129 -29q-52 -28 -86 -86q-35 -59 -49 -143q-15 -80 -15 -201zM299 1548v21h219q15 -34 37 -74q37 -70 45 -82l49 -78q33 -49 48 -67v-27 h-78q-41 29 -88 70l-95 86q-33 31 -81 84q-38 39 -56 67z" />
<glyph unicode="&#xf3;" horiz-adv-x="1181" d="M113 551q0 287 123 428q121 139 358 139q106 0 199 -35q88 -33 149 -104q59 -70 94 -178q33 -104 33 -250q0 -289 -123 -430t-358 -141q-106 0 -199 34q-84 33 -149 107q-59 70 -95 178q-32 105 -32 252zM311 551q0 -121 15 -201q16 -88 49 -145.5t86 -87.5 q51 -31 131 -31t131 31q53 31 86 88q31 53 47 145q14 80 14 201q0 109 -16 201q-16 90 -47 143q-34 58 -86 86q-53 29 -131 29q-76 0 -129 -29q-52 -28 -86 -86q-35 -59 -49 -143q-15 -80 -15 -201zM512 1241v27q14 18 47 67l49 78l16.5 28.5l14.5 25t14 28.5q22 40 37 74 h219v-21q-12 -20 -57 -67q-49 -53 -82 -84l-92 -86q-37 -33 -88 -70h-78z" />
<glyph unicode="&#xf4;" horiz-adv-x="1181" d="M113 551q0 287 123 428q121 139 358 139q106 0 199 -35q88 -33 149 -104q59 -70 94 -178q33 -104 33 -250q0 -289 -123 -430t-358 -141q-106 0 -199 34q-84 33 -149 107q-59 70 -95 178q-32 105 -32 252zM311 551q0 -121 15 -201q16 -88 49 -145.5t86 -87.5 q51 -31 131 -31t131 31q53 31 86 88q31 53 47 145q14 80 14 201q0 109 -16 201q-16 90 -47 143q-34 58 -86 86q-53 29 -131 29q-76 0 -129 -29q-52 -28 -86 -86q-35 -59 -49 -143q-15 -80 -15 -201zM285 1241v27q25 29 53 67l57 78l54 82q29 47 41 74h194q12 -27 41 -74 l53 -82l58 -78q29 -39 53 -67v-27h-80q-61 35 -119 84q-49 41 -104 100q-55 -59 -105 -100q-61 -53 -116 -84h-80z" />
<glyph unicode="&#xf5;" horiz-adv-x="1181" d="M113 551q0 287 123 428q121 139 358 139q106 0 199 -35q88 -33 149 -104q59 -70 94 -178q33 -104 33 -250q0 -289 -123 -430t-358 -141q-106 0 -199 34q-84 33 -149 107q-59 70 -95 178q-32 105 -32 252zM311 551q0 -121 15 -201q16 -88 49 -145.5t86 -87.5 q51 -31 131 -31t131 31q53 31 86 88q31 53 47 145q14 80 14 201q0 109 -16 201q-16 90 -47 143q-34 58 -86 86q-53 29 -131 29q-76 0 -129 -29q-52 -28 -86 -86q-35 -59 -49 -143q-15 -80 -15 -201zM221 1262q2 43 17 90q12 47 39 78q25 31 67 53q39 20 94 20q57 0 99 -20 q57 -29 84 -45l38.5 -22.5t32.5 -20.5q33 -20 66 -20.5t49 7.5q20 10 29 25q12 20 14 35q0 4 3 18.5t5 22.5h92q-2 -43 -16 -90q-10 -35 -41 -78q-23 -31 -63 -53q-39 -20 -95 -21q-59 0 -100 21l-82 43l-72 45q-33 20 -67 20q-33 0 -49 -8q-20 -10 -29 -25q-6 -10 -14 -34 q-4 -12 -9 -41h-92z" />
<glyph unicode="&#xf6;" horiz-adv-x="1181" d="M113 551q0 287 123 428q121 139 358 139q106 0 199 -35q88 -33 149 -104q59 -70 94 -178q33 -104 33 -250q0 -289 -123 -430t-358 -141q-106 0 -199 34q-84 33 -149 107q-59 70 -95 178q-32 105 -32 252zM311 551q0 -121 15 -201q16 -88 49 -145.5t86 -87.5 q51 -31 131 -31t131 31q53 31 86 88q31 53 47 145q14 80 14 201q0 109 -16 201q-16 90 -47 143q-34 58 -86 86q-53 29 -131 29q-76 0 -129 -29q-52 -28 -86 -86q-35 -59 -49 -143q-15 -80 -15 -201zM285 1409q0 35 8 53q12 29 23 37q16 12 32 19q18 6 41 6t41 -6 q16 -6 33 -19q10 -8 23 -37q8 -18 8 -53t-8 -53q-8 -20 -22.5 -34.5t-33 -21t-41.5 -6.5q-43 0 -76 27q-28 22 -28 88zM674 1409q0 35 8 53q12 29 23 37q16 12 32 19q18 6 41 6t41 -6q16 -6 33 -19q10 -8 23 -37q8 -18 8 -53t-8 -53q-8 -20 -22.5 -34.5t-33 -21t-41.5 -6.5 q-43 0 -75 27q-29 22 -29 88z" />
<glyph unicode="&#xf7;" d="M133 672v121h879v-121h-879zM469 344q0 35 8 53q10 25 23 35q16 12 32 19q18 6 41 6t41 -6q16 -6 33 -19q12 -10 23 -35q8 -18 8 -53t-8 -53q-10 -25 -23 -35q-16 -12 -33 -18q-18 -6 -41 -7q-45 0 -75 25q-29 22 -29 88zM469 1120q0 35 8 54q10 25 23 34q16 12 32 19 q18 6 41 6t41 -6q16 -6 33 -19q12 -10 23 -34q8 -18 8 -53.5t-8 -53.5q-10 -25 -23 -35q-16 -12 -33 -18q-18 -6 -40.5 -6t-41.5 6q-16 6 -32 18q-12 10 -23 35q-8 18 -8 53z" />
<glyph unicode="&#xf8;" horiz-adv-x="1181" d="M113 551q0 287 123 428q121 139 358 139q68 0 137 -16q61 -14 117 -47l78 125h118l-114 -189q68 -68 104 -178q35 -104 35 -262q0 -289 -123 -430t-358 -141q-76 0 -133 14q-59 14 -113 43l-74 -119h-121l111 180q-72 72 -108.5 182.5t-36.5 270.5zM311 551 q0 -86 11 -168q10 -76 30 -133l424 686q-68 74 -186 74q-76 0 -129 -29q-52 -28 -86 -86q-35 -59 -49 -143q-15 -80 -15 -201zM412 152q27 -29 77 -50q39 -16 103 -16q80 0 131 31q53 31 86 88q31 53 47 145q14 80 14 201q0 178 -36 285z" />
<glyph unicode="&#xf9;" horiz-adv-x="1298" d="M47 1012v86h367v-707q0 -61 10 -119q8 -49 35 -88q25 -37 67.5 -55t102.5 -18q68 0 117 24.5t79 67.5q33 45 47 104q14 57 15 135v422q0 47 -13 78q-10 27 -36 45q-18 14 -54 21q-20 4 -65 4h-6v86h366v-875q0 -46 13 -73q10 -20 36 -41q20 -14 54 -19q41 -4 65 -4h6v-86 h-325l-27 166h-10q-29 -55 -68 -94q-31 -31 -80 -56q-47 -23 -88 -28q-61 -8 -96 -8q-76 0 -143 22q-59 20 -107 74q-45 51 -65 125q-23 80 -23 180v491q0 39 -14 72q-10 25 -37 43q-18 14 -53 21q-20 4 -64 4h-6zM313 1548v21h219q15 -34 37 -74q37 -70 45 -82l49 -78 q33 -49 48 -67v-27h-78q-41 29 -88 70l-95 86q-33 31 -81 84q-38 39 -56 67z" />
<glyph unicode="&#xfa;" horiz-adv-x="1298" d="M47 1012v86h367v-707q0 -61 10 -119q8 -49 35 -88q25 -37 67.5 -55t102.5 -18q68 0 117 24.5t79 67.5q33 45 47 104q14 57 15 135v422q0 47 -13 78q-10 27 -36 45q-18 14 -54 21q-20 4 -65 4h-6v86h366v-875q0 -46 13 -73q10 -20 36 -41q20 -14 54 -19q41 -4 65 -4h6v-86 h-325l-27 166h-10q-29 -55 -68 -94q-31 -31 -80 -56q-47 -23 -88 -28q-61 -8 -96 -8q-76 0 -143 22q-59 20 -107 74q-45 51 -65 125q-23 80 -23 180v491q0 39 -14 72q-10 25 -37 43q-18 14 -53 21q-20 4 -64 4h-6zM541 1241v27q14 18 47 67l49 78l16.5 28.5l14.5 25t14 28.5 q22 40 37 74h219v-21q-12 -20 -57 -67q-49 -53 -82 -84l-92 -86q-37 -33 -88 -70h-78z" />
<glyph unicode="&#xfb;" horiz-adv-x="1298" d="M47 1012v86h367v-707q0 -61 10 -119q8 -49 35 -88q25 -37 67.5 -55t102.5 -18q68 0 117 24.5t79 67.5q33 45 47 104q14 57 15 135v422q0 47 -13 78q-10 27 -36 45q-18 14 -54 21q-20 4 -65 4h-6v86h366v-875q0 -46 13 -73q10 -20 36 -41q20 -14 54 -19q41 -4 65 -4h6v-86 h-325l-27 166h-10q-29 -55 -68 -94q-31 -31 -80 -56q-47 -23 -88 -28q-61 -8 -96 -8q-76 0 -143 22q-59 20 -107 74q-45 51 -65 125q-23 80 -23 180v491q0 39 -14 72q-10 25 -37 43q-18 14 -53 21q-20 4 -64 4h-6zM342 1241v27q25 29 53 67l57 78l54 82q29 47 41 74h194 q12 -27 41 -74l53 -82l58 -78q29 -39 53 -67v-27h-80q-61 35 -119 84q-49 41 -104 100q-55 -59 -105 -100q-61 -53 -116 -84h-80z" />
<glyph unicode="&#xfc;" horiz-adv-x="1298" d="M47 1012v86h367v-707q0 -61 10 -119q8 -49 35 -88q25 -37 67.5 -55t102.5 -18q68 0 117 24.5t79 67.5q33 45 47 104q14 57 15 135v422q0 47 -13 78q-10 27 -36 45q-18 14 -54 21q-20 4 -65 4h-6v86h366v-875q0 -46 13 -73q10 -20 36 -41q20 -14 54 -19q41 -4 65 -4h6v-86 h-325l-27 166h-10q-29 -55 -68 -94q-31 -31 -80 -56q-47 -23 -88 -28q-61 -8 -96 -8q-76 0 -143 22q-59 20 -107 74q-45 51 -65 125q-23 80 -23 180v491q0 39 -14 72q-10 25 -37 43q-18 14 -53 21q-20 4 -64 4h-6zM348 1409q0 35 8 53q12 29 23 37q16 12 32 19q18 6 41 6 t41 -6q16 -6 33 -19q10 -8 23 -37q8 -18 8 -53t-8 -53q-8 -20 -22.5 -34.5t-33 -21t-41.5 -6.5q-43 0 -76 27q-28 22 -28 88zM737 1409q0 35 8 53q12 29 23 37q16 12 32 19q18 6 41 6t41 -6q16 -6 33 -19q10 -8 23 -37q8 -18 8 -53t-8 -53q-8 -20 -22.5 -34.5t-33 -21 t-41.5 -6.5q-43 0 -75 27q-29 22 -29 88z" />
<glyph unicode="&#xfd;" horiz-adv-x="1155" d="M8 1012v86h492v-86h-6q-61 0 -92 -24.5t-31 -74.5q0 -10 4 -34q4 -20 12 -41l150 -365l30 -76q25 -70 29 -82q14 -41 25 -77q10 -33 14 -62h6q4 16 31 109q8 29 45 139l137 399q12 33 14 47q4 29 4 41q0 51 -34.5 76t-100.5 25h-6v86h426v-86h-6q-29 0 -51 -6 q-20 -6 -39 -25q-16 -16 -33 -49q-12 -23 -33 -80l-311 -860q-45 -119 -68 -174q-29 -70 -67 -129q-37 -57 -76 -88q-45 -35 -94 -56q-43 -18 -123 -28q-59 -8 -160 -9h-18v97q104 0 178 30q78 33 131 86.5t90 127t62 159.5l-379 895l-27 53q-10 18 -29 33q-14 12 -38 19 q-14 4 -52 4h-6zM504 1241v27q14 18 47 67l49 78l16.5 28.5l14.5 25t14 28.5q22 40 37 74h219v-21q-12 -20 -57 -67q-49 -53 -82 -84l-92 -86q-37 -33 -88 -70h-78z" />
<glyph unicode="&#xfe;" horiz-adv-x="1255" d="M37 -406h16q45 0 66 5q35 6 53 20q23 16 35 45q14 37 14 78v1589q0 39 -14 72q-10 25 -37 43q-25 18 -53 20q-41 4 -64 4h-16v86h377v-376v-80q0 -31 -4 -88l-4 -99h8q16 35 53 84q29 37 65 66q33 25 86 41q45 14 109 14q104 0 178 -33q80 -35 131 -104q55 -76 82 -176 q27 -104 27 -254q0 -152 -27 -256q-27 -102 -82 -178q-49 -66 -131 -103q-80 -35 -178 -34q-49 0 -106 14q-47 12 -89 37q-39 25 -67.5 55.5t-50.5 73.5h-8q0 -16 1 -49t3 -50q0 -8 1 -20t1 -21v-36q0 -6 1 -17.5t1 -15.5v-23v-196q0 -39 14 -72q10 -25 37 -43 q20 -14 53 -18q41 -4 64 -5h6v-86h-551v86zM414 551q0 -92 14 -189q12 -86 45 -139q35 -57 86 -84q53 -29 135 -28q63 0 115 28q45 25 78 84q29 51 45 139q14 78 14 191q0 217 -59.5 325.5t-194.5 108.5q-82 0 -133 -26q-59 -31 -86 -80q-33 -61 -45 -138q-14 -96 -14 -192z " />
<glyph unicode="&#xff;" horiz-adv-x="1155" d="M8 1012v86h492v-86h-6q-61 0 -92 -24.5t-31 -74.5q0 -10 4 -34q4 -20 12 -41l150 -365l30 -76q25 -70 29 -82q14 -41 25 -77q10 -33 14 -62h6q4 16 31 109q8 29 45 139l137 399q12 33 14 47q4 29 4 41q0 51 -34.5 76t-100.5 25h-6v86h426v-86h-6q-29 0 -51 -6 q-20 -6 -39 -25q-16 -16 -33 -49q-12 -23 -33 -80l-311 -860q-45 -119 -68 -174q-29 -70 -67 -129q-37 -57 -76 -88q-45 -35 -94 -56q-43 -18 -123 -28q-59 -8 -160 -9h-18v97q104 0 178 30q78 33 131 86.5t90 127t62 159.5l-379 895l-27 53q-10 18 -29 33q-14 12 -38 19 q-14 4 -52 4h-6zM320 1409q0 35 8 53q12 29 23 37q16 12 32 19q18 6 41 6t41 -6q16 -6 33 -19q10 -8 23 -37q8 -18 8 -53t-8 -53q-8 -20 -22.5 -34.5t-33 -21t-41.5 -6.5q-43 0 -76 27q-28 22 -28 88zM709 1409q0 35 8 53q12 29 23 37q16 12 32 19q18 6 41 6t41 -6 q16 -6 33 -19q10 -8 23 -37q8 -18 8 -53t-8 -53q-8 -20 -22.5 -34.5t-33 -21t-41.5 -6.5q-43 0 -75 27q-29 22 -29 88z" />
<glyph unicode="&#x100;" horiz-adv-x="1443" d="M0 0v86h39q31 0 51 6q16 4 37 25q16 16 33 49q20 39 35 80l454 1216h160l463 -1267q14 -35 24 -54q12 -23 29 -32q18 -12 41 -19q14 -4 51 -4h27v-86h-563v86h47q123 0 123 98q0 10 -4 35q-4 20 -13 41l-82 229h-538l-78 -215q-8 -20 -14 -47q-4 -16 -5 -41q0 -51 33 -75 q35 -25 103 -25h47v-86h-500zM453 592h462l-127 358l-59 170q-16 47 -43 154q-4 -31 -16 -72q-12 -45 -21 -69q-2 -6 -10 -33t-14 -43l-33 -88zM420 1579v121h594v-121h-594z" />
<glyph unicode="&#x101;" horiz-adv-x="1150" d="M102 307q0 164 115 242q117 80 352 86l170 6v123q0 55 -6 102t-26.5 80t-57.5 51.5t-100 18.5q-57 0 -96 -17q-31 -12 -56 -47q-23 -33 -28 -69q-6 -39 -7 -90q-84 0 -129 28.5t-45 100.5q0 51 29 90q27 35 80 61q43 20 117 35q57 10 143 10q94 0 164 -18q71 -18 117 -62 q49 -45 71 -108q23 -61 23 -166v-531q0 -45 6 -71q6 -25 23 -45q14 -18 40 -25q25 -6 58 -6h6v-86h-277l-32 176h-17q-31 -43 -61.5 -80t-67.5 -61q-43 -29 -80 -41q-43 -14 -110 -14q-61 0 -127 20q-55 18 -100 59q-39 37 -66 103q-25 61 -25 145zM301 297q0 -96 41 -143.5 t125 -47.5q66 0 113 21q55 25 86 55q37 37 55 90q18 51 18 119v166l-131 -6q-90 -4 -145 -21q-57 -18 -94 -49q-35 -29 -51.5 -78t-16.5 -106zM258 1241v121h594v-121h-594z" />
<glyph unicode="&#x102;" horiz-adv-x="1443" d="M0 0v86h39q31 0 51 6q16 4 37 25q16 16 33 49q20 39 35 80l454 1216h160l463 -1267q14 -35 24 -54q12 -23 29 -32q18 -12 41 -19q14 -4 51 -4h27v-86h-563v86h47q123 0 123 98q0 10 -4 35q-4 20 -13 41l-82 229h-538l-78 -215q-8 -20 -14 -47q-4 -16 -5 -41q0 -51 33 -75 q35 -25 103 -25h47v-86h-500zM453 592h462l-127 358l-59 170q-16 47 -43 154q-4 -31 -16 -72q-12 -45 -21 -69q-2 -6 -10 -33t-14 -43l-33 -88zM430 1860h94q18 -72 68 -107q47 -33 125 -33t125 33q49 35 67 107h95q-4 -66 -19 -109q-20 -57 -53 -90q-39 -39 -88 -59 q-55 -23 -127 -23t-127 23q-53 23 -88 59q-35 39 -53 90q-15 43 -19 109z" />
<glyph unicode="&#x103;" horiz-adv-x="1150" d="M102 307q0 164 115 242q117 80 352 86l170 6v123q0 55 -6 102t-26.5 80t-57.5 51.5t-100 18.5q-57 0 -96 -17q-31 -12 -56 -47q-23 -33 -28 -69q-6 -39 -7 -90q-84 0 -129 28.5t-45 100.5q0 51 29 90q27 35 80 61q43 20 117 35q57 10 143 10q94 0 164 -18q71 -18 117 -62 q49 -45 71 -108q23 -61 23 -166v-531q0 -45 6 -71q6 -25 23 -45q14 -18 40 -25q25 -6 58 -6h6v-86h-277l-32 176h-17q-31 -43 -61.5 -80t-67.5 -61q-43 -29 -80 -41q-43 -14 -110 -14q-61 0 -127 20q-55 18 -100 59q-39 37 -66 103q-25 61 -25 145zM301 297q0 -96 41 -143.5 t125 -47.5q66 0 113 21q55 25 86 55q37 37 55 90q18 51 18 119v166l-131 -6q-90 -4 -145 -21q-57 -18 -94 -49q-35 -29 -51.5 -78t-16.5 -106zM276 1522h94q18 -72 68 -107q47 -33 125 -33t125 33q49 35 67 107h95q-4 -66 -19 -109q-20 -57 -53 -90q-39 -39 -88 -59 q-55 -23 -127 -23t-127 23q-53 23 -88 59q-35 39 -53 90q-15 43 -19 109z" />
<glyph unicode="&#x104;" horiz-adv-x="1443" d="M0 0v86h39q31 0 51 6q16 4 37 25q16 16 33 49q20 39 35 80l454 1216h160l463 -1267q14 -35 24 -54q12 -23 29 -32q18 -12 41 -19q14 -4 51 -4h27v-86h-563v86h47q123 0 123 98q0 10 -4 35q-4 20 -13 41l-82 229h-538l-78 -215q-8 -20 -14 -47q-4 -16 -5 -41q0 -51 33 -75 q35 -25 103 -25h47v-86h-500zM453 592h462l-127 358l-59 170q-16 47 -43 154q-4 -31 -16 -72q-12 -45 -21 -69q-2 -6 -10 -33t-14 -43l-33 -88zM934 -266q0 51 21 92q23 43 53 78q29 31 78 59q43 25 90 37h117q-33 -10 -66 -31q-41 -27 -61 -49q-29 -31 -45 -67 q-18 -41 -19 -89q0 -33 10 -59q8 -23 29 -39q23 -18 45 -24q25 -6 58 -7q18 0 59 5q35 4 70 12v-111q-12 -8 -37 -14q-31 -8 -41 -10l-43 -6q-14 -2 -37 -3q-65 0 -117 13q-49 12 -88 40.5t-57.5 72t-18.5 100.5z" />
<glyph unicode="&#x105;" horiz-adv-x="1150" d="M102 307q0 164 115 242q117 80 352 86l170 6v123q0 55 -6 102t-26.5 80t-57.5 51.5t-100 18.5q-57 0 -96 -17q-31 -12 -56 -47q-23 -33 -28 -69q-6 -39 -7 -90q-84 0 -129 28.5t-45 100.5q0 51 29 90q27 35 80 61q43 20 117 35q57 10 143 10q94 0 164 -18q71 -18 117 -62 q49 -45 71 -108q23 -61 23 -166v-531q0 -45 6 -71q6 -25 23 -45q14 -18 40 -25q25 -6 58 -6h6v-86h-277l-32 176h-17q-31 -43 -61.5 -80t-67.5 -61q-43 -29 -80 -41q-43 -14 -110 -14q-61 0 -127 20q-55 18 -100 59q-39 37 -66 103q-25 61 -25 145zM301 297q0 -96 41 -143.5 t125 -47.5q66 0 113 21q55 25 86 55q37 37 55 90q18 51 18 119v166l-131 -6q-90 -4 -145 -21q-57 -18 -94 -49q-35 -29 -51.5 -78t-16.5 -106zM549 -266q0 51 21 92q23 43 53 78q29 31 78 59q43 25 90 37h117q-33 -10 -66 -31q-41 -27 -61 -49q-29 -31 -45 -67 q-18 -41 -19 -89q0 -33 10 -59q8 -23 29 -39q23 -18 45 -24q25 -6 58 -7q18 0 59 5q35 4 70 12v-111q-12 -8 -37 -14q-31 -8 -41 -10l-43 -6q-14 -2 -37 -3q-65 0 -117 13q-49 12 -88 40.5t-57.5 72t-18.5 100.5z" />
<glyph unicode="&#x106;" horiz-adv-x="1255" d="M117 733q0 164 43 303q45 145 123 238q82 98 206 153q123 55 285 56q115 0 182 -17q77 -18 129 -49q53 -31 78 -74t25 -90q0 -27 -14 -59q-12 -27 -37 -45q-29 -20 -56 -29q-37 -10 -71 -10q0 49 -13 94q-12 49 -41 86q-25 33 -73 60q-47 25 -113 24q-117 0 -197 -43 q-84 -45 -133 -123q-52 -83 -73 -202q-23 -125 -23 -273q0 -138 25 -252q25 -113 75 -194q51 -80 131 -127q78 -45 195 -45q78 0 133 14q59 16 101 39q45 27 77 55q35 31 60 66q14 -10 28 -31q10 -16 11 -49q0 -41 -27 -80q-31 -43 -80 -74q-51 -31 -137 -53t-197 -22 q-154 0 -270 55q-113 53 -193 151q-78 94 -118 240q-41 141 -41 307zM657 1579v27q14 18 47 67l49 78l16.5 28.5l14.5 25t14 28.5q22 40 37 74h219v-21q-12 -20 -57 -67q-49 -53 -82 -84l-92 -86q-37 -33 -88 -70h-78z" />
<glyph unicode="&#x107;" horiz-adv-x="1007" d="M113 543q0 160 34 274q33 109 97 178q59 66 145 94.5t180 28.5q61 0 127 -12q53 -10 115 -39q53 -25 84 -66q31 -40 31 -92q0 -74 -45 -100q-47 -29 -138 -29q0 51 -8 90t-28 76q-18 33 -52 51t-86 19q-57 0 -106 -22.5t-82 -76t-51.5 -145.5t-18.5 -227q0 -221 72 -326 q74 -106 238 -106q94 0 165 41q76 43 107 102q16 -12 25 -33q10 -25 10 -47q0 -35 -23 -70q-23 -37 -65 -63q-39 -25 -109 -45q-63 -18 -151 -18q-96 0 -189 32q-86 31 -147 99q-63 70 -97 174q-34 111 -34 258zM465 1241v27q14 18 47 67l49 78l16.5 28.5l14.5 25t14 28.5 q22 40 37 74h219v-21q-12 -20 -57 -67q-49 -53 -82 -84l-92 -86q-37 -33 -88 -70h-78z" />
<glyph unicode="&#x108;" horiz-adv-x="1255" d="M117 733q0 164 43 303q45 145 123 238q82 98 206 153q123 55 285 56q115 0 182 -17q77 -18 129 -49q53 -31 78 -74t25 -90q0 -27 -14 -59q-12 -27 -37 -45q-29 -20 -56 -29q-37 -10 -71 -10q0 49 -13 94q-12 49 -41 86q-25 33 -73 60q-47 25 -113 24q-117 0 -197 -43 q-84 -45 -133 -123q-52 -83 -73 -202q-23 -125 -23 -273q0 -138 25 -252q25 -113 75 -194q51 -80 131 -127q78 -45 195 -45q78 0 133 14q59 16 101 39q45 27 77 55q35 31 60 66q14 -10 28 -31q10 -16 11 -49q0 -41 -27 -80q-31 -43 -80 -74q-51 -31 -137 -53t-197 -22 q-154 0 -270 55q-113 53 -193 151q-78 94 -118 240q-41 141 -41 307zM459 1579v27q25 29 53 67l57 78l54 82q29 47 41 74h194q12 -27 41 -74l53 -82l58 -78q29 -39 53 -67v-27h-80q-61 35 -119 84q-49 41 -104 100q-55 -59 -105 -100q-61 -53 -116 -84h-80z" />
<glyph unicode="&#x109;" horiz-adv-x="1007" d="M113 543q0 160 34 274q33 109 97 178q59 66 145 94.5t180 28.5q61 0 127 -12q53 -10 115 -39q53 -25 84 -66q31 -40 31 -92q0 -74 -45 -100q-47 -29 -138 -29q0 51 -8 90t-28 76q-18 33 -52 51t-86 19q-57 0 -106 -22.5t-82 -76t-51.5 -145.5t-18.5 -227q0 -221 72 -326 q74 -106 238 -106q94 0 165 41q76 43 107 102q16 -12 25 -33q10 -25 10 -47q0 -35 -23 -70q-23 -37 -65 -63q-39 -25 -109 -45q-63 -18 -151 -18q-96 0 -189 32q-86 31 -147 99q-63 70 -97 174q-34 111 -34 258zM279 1241v27q25 29 53 67l57 78l54 82q29 47 41 74h194 q12 -27 41 -74l53 -82l58 -78q29 -39 53 -67v-27h-80q-61 35 -119 84q-49 41 -104 100q-55 -59 -105 -100q-61 -53 -116 -84h-80z" />
<glyph unicode="&#x10a;" horiz-adv-x="1255" d="M117 733q0 164 43 303q45 145 123 238q82 98 206 153q123 55 285 56q115 0 182 -17q77 -18 129 -49q53 -31 78 -74t25 -90q0 -27 -14 -59q-12 -27 -37 -45q-29 -20 -56 -29q-37 -10 -71 -10q0 49 -13 94q-12 49 -41 86q-25 33 -73 60q-47 25 -113 24q-117 0 -197 -43 q-84 -45 -133 -123q-52 -83 -73 -202q-23 -125 -23 -273q0 -138 25 -252q25 -113 75 -194q51 -80 131 -127q78 -45 195 -45q78 0 133 14q59 16 101 39q45 27 77 55q35 31 60 66q14 -10 28 -31q10 -16 11 -49q0 -41 -27 -80q-31 -43 -80 -74q-51 -31 -137 -53t-197 -22 q-154 0 -270 55q-113 53 -193 151q-78 94 -118 240q-41 141 -41 307zM651 1768q0 39 8.5 61t24.5 39q12 12 39 20q20 6 45 6t45 -6q23 -6 37 -20q18 -18 27 -39q8 -23 8 -61q0 -37 -8 -60q-8 -20 -27 -39q-16 -16 -36.5 -22t-45.5 -6t-45 6q-23 6 -39 22.5t-24.5 39 t-8.5 59.5z" />
<glyph unicode="&#x10b;" horiz-adv-x="1007" d="M113 543q0 160 34 274q33 109 97 178q59 66 145 94.5t180 28.5q61 0 127 -12q53 -10 115 -39q53 -25 84 -66q31 -40 31 -92q0 -74 -45 -100q-47 -29 -138 -29q0 51 -8 90t-28 76q-18 33 -52 51t-86 19q-57 0 -106 -22.5t-82 -76t-51.5 -145.5t-18.5 -227q0 -221 72 -326 q74 -106 238 -106q94 0 165 41q76 43 107 102q16 -12 25 -33q10 -25 10 -47q0 -35 -23 -70q-23 -37 -65 -63q-39 -25 -109 -45q-63 -18 -151 -18q-96 0 -189 32q-86 31 -147 99q-63 70 -97 174q-34 111 -34 258zM463 1430q0 39 8.5 61t24.5 39q12 12 39 20q20 6 45 6t45 -6 q23 -6 37 -20q18 -18 27 -39q8 -23 8 -61q0 -37 -8 -60q-8 -20 -27 -39q-16 -16 -36.5 -22t-45.5 -6t-45 6q-23 6 -39 22.5t-24.5 39t-8.5 59.5z" />
<glyph unicode="&#x10c;" horiz-adv-x="1255" d="M117 733q0 164 43 303q45 145 123 238q82 98 206 153q123 55 285 56q115 0 182 -17q77 -18 129 -49q53 -31 78 -74t25 -90q0 -27 -14 -59q-12 -27 -37 -45q-29 -20 -56 -29q-37 -10 -71 -10q0 49 -13 94q-12 49 -41 86q-25 33 -73 60q-47 25 -113 24q-117 0 -197 -43 q-84 -45 -133 -123q-52 -83 -73 -202q-23 -125 -23 -273q0 -138 25 -252q25 -113 75 -194q51 -80 131 -127q78 -45 195 -45q78 0 133 14q59 16 101 39q45 27 77 55q35 31 60 66q14 -10 28 -31q10 -16 11 -49q0 -41 -27 -80q-31 -43 -80 -74q-51 -31 -137 -53t-197 -22 q-154 0 -270 55q-113 53 -193 151q-78 94 -118 240q-41 141 -41 307zM436 1880v27h80l26.5 -17.5l32.5 -21.5q20 -14 57 -47l56 -51q28 -25 49 -50q22 25 49 50l55 51q29 27 60 47l32.5 21.5l26.5 17.5h80v-27q-25 -29 -53 -67l-58 -78q-37 -53 -53 -80q-25 -41 -41 -76 h-194q-16 35 -41 76q-16 27 -54 80l-57 78q-28 38 -53 67z" />
<glyph unicode="&#x10d;" horiz-adv-x="1007" d="M113 543q0 160 34 274q33 109 97 178q59 66 145 94.5t180 28.5q61 0 127 -12q53 -10 115 -39q53 -25 84 -66q31 -40 31 -92q0 -74 -45 -100q-47 -29 -138 -29q0 51 -8 90t-28 76q-18 33 -52 51t-86 19q-57 0 -106 -22.5t-82 -76t-51.5 -145.5t-18.5 -227q0 -221 72 -326 q74 -106 238 -106q94 0 165 41q76 43 107 102q16 -12 25 -33q10 -25 10 -47q0 -35 -23 -70q-23 -37 -65 -63q-39 -25 -109 -45q-63 -18 -151 -18q-96 0 -189 32q-86 31 -147 99q-63 70 -97 174q-34 111 -34 258zM275 1542v27h80l26.5 -17.5l32.5 -21.5q20 -14 57 -47l56 -51 q28 -25 49 -50q22 25 49 50l55 51q29 27 60 47l32.5 21.5l26.5 17.5h80v-27q-25 -29 -53 -67l-58 -78q-37 -53 -53 -80q-25 -41 -41 -76h-194q-16 35 -41 76q-16 27 -54 80l-57 78q-28 38 -53 67z" />
<glyph unicode="&#x10e;" horiz-adv-x="1488" d="M78 0v86h26q45 0 66 4q35 6 53 21q23 16 35 45q14 33 14 77v1004q0 39 -14 72q-10 25 -37 43q-25 18 -53 20q-41 4 -64 4h-26v86h627q160 0 282.5 -49t208.5 -141q84 -90 131 -230q45 -133 45 -309q0 -168 -43 -303q-45 -139 -125 -231q-84 -96 -207 -147.5t-292 -51.5 h-627zM479 104h178q125 0 213 41q94 45 154 121q57 76 90 199q31 117 31 268q0 307 -121 465q-125 162 -365 162h-180v-1256zM377 1880v27h80l26.5 -17.5l32.5 -21.5q20 -14 57 -47l56 -51q28 -25 49 -50q22 25 49 50l55 51q29 27 60 47l32.5 21.5l26.5 17.5h80v-27 q-25 -29 -53 -67l-58 -78q-37 -53 -53 -80q-25 -41 -41 -76h-194q-16 35 -41 76q-16 27 -54 80l-57 78q-28 38 -53 67z" />
<glyph unicode="&#x10f;" horiz-adv-x="1255" d="M113 547q0 152 26 256q28 108 80 178q51 70 131 104q74 33 180 33q57 0 107 -12q39 -10 86 -39q43 -27 70 -55q29 -31 51 -74h12q-4 66 -6 94l-4 76q-2 25 -2 55v168q0 45 -13 72q-10 25 -36 43q-25 18 -54 20q-41 4 -65 4h-17v86h377v-1331q0 -46 13 -73q10 -20 36 -41 q25 -18 54 -21q41 -4 65 -4h17v-86h-347l-22 184h-8q-20 -45 -53 -84q-37 -43 -66 -65q-33 -25 -86 -41q-45 -14 -109 -14q-100 0 -180 34q-82 37 -131 103q-53 72 -79.5 176t-26.5 254zM311 545q0 -217 59.5 -325.5t194.5 -108.5q82 0 133 26q55 29 86 80q35 57 47 137 q12 84 13 193q0 104 -13 188q-12 82 -47 139q-37 59 -86 84q-57 29 -135 29q-63 0 -114 -29q-47 -27 -80 -86q-27 -47 -43 -137q-15 -77 -15 -190zM1149 1229v26q14 55 33 148l29 153h178v-20q-2 -6 -14.5 -30.5l-20.5 -41.5l-18.5 -36.5t-24.5 -45.5l-47 -82l-45 -71h-70z " />
<glyph unicode="&#x110;" horiz-adv-x="1488" d="M78 0v86h26q45 0 66 4q35 6 53 21q23 16 35 45q14 33 14 77v482h-194v100h194v422q0 39 -14 72q-10 25 -37 43q-25 18 -53 20q-41 4 -64 4h-26v86h627q160 0 282.5 -49t208.5 -141q84 -90 131 -230q45 -133 45 -309q0 -168 -43 -303q-45 -139 -125 -231 q-84 -96 -207 -147.5t-292 -51.5h-627zM479 104h178q125 0 213 41q94 45 154 121q57 76 90 199q31 117 31 268.5t-31 267.5q-33 121 -90 197q-63 82 -152 121q-94 41 -213 41h-180v-545h348v-100h-348v-611z" />
<glyph unicode="&#x111;" horiz-adv-x="1255" d="M113 526.5q0 145.5 26 245.5q28 104 80 172q49 66 131 100q74 33 180 33q57 0 107 -12q39 -10 86 -39q43 -27 70 -55q29 -31 51 -74h12l-6 94l-4 78q-2 27 -2 59v86h-350v97h350v20q0 45 -13 72q-10 25 -36 43q-14 10 -54 18q-31 6 -65 6h-17v86h377v-245h187v-97h-187 v-989q0 -46 13 -73q10 -20 36 -41q25 -18 54 -21q41 -4 65 -4h17v-86h-347l-22 184h-8q-20 -45 -53 -84q-37 -43 -66 -65q-33 -25 -86 -41q-45 -14 -109 -14q-98 0 -180 32q-80 33 -131 99q-53 70 -79.5 170t-26.5 245.5zM311 524q0 -205 60 -311q57 -102 194 -102 q76 0 133 26q53 25 86 76q35 55 47 129q12 76 13 184q0 100 -13 181q-12 76 -47 131q-37 57 -86 82q-53 27 -135 26q-135 0 -194 -108q-58 -107 -58 -314z" />
<glyph unicode="&#x112;" horiz-adv-x="1275" d="M78 0v86h26q23 0 64 4q33 4 53 19q27 20 37 41q14 33 14 73v1006q0 45 -14 78q-12 27 -35 43q-18 14 -53 20q-31 6 -66 6h-26v86h1032l10 -358h-106l-10 88q-4 39 -15 65q-14 35 -33 54q-23 23 -55 35q-39 14 -78 14h-344v-545h494v-100h-494v-613h395q51 0 84 12.5 t58 37.5q23 23 35 53.5t18 64.5l14 88h107l-14 -358h-1098zM354 1579v121h594v-121h-594z" />
<glyph unicode="&#x113;" horiz-adv-x="1095" d="M113 541q0 285 118 432q117 145 336 145q98 0 178 -31q76 -29 134 -92q51 -57 84 -153q31 -92 30 -213v-94h-682q4 -121 23 -193q23 -82 59 -131q41 -55 94 -78q55 -25 129 -24q52 0 99 12t82 33q43 25 65 45q29 25 47 53q14 -6 26.5 -24.5t12.5 -45.5q0 -29 -22 -67 q-20 -33 -68 -66q-41 -27 -110 -49q-63 -20 -160 -20q-104 0 -199 38q-86 35 -149 109q-59 68 -95 176q-32 101 -32 238zM315 645h471q0 80 -12 148q-10 57 -39 114q-25 49 -67 74q-47 27 -105 27q-115 0 -176 -93q-60 -88 -72 -270zM262 1241v121h594v-121h-594z" />
<glyph unicode="&#x114;" horiz-adv-x="1275" d="M78 0v86h26q23 0 64 4q33 4 53 19q27 20 37 41q14 33 14 73v1006q0 45 -14 78q-12 27 -35 43q-18 14 -53 20q-31 6 -66 6h-26v86h1032l10 -358h-106l-10 88q-4 39 -15 65q-14 35 -33 54q-23 23 -55 35q-39 14 -78 14h-344v-545h494v-100h-494v-613h395q51 0 84 12.5 t58 37.5q23 23 35 53.5t18 64.5l14 88h107l-14 -358h-1098zM352 1860h94q18 -72 68 -107q47 -33 125 -33t125 33q49 35 67 107h95q-4 -66 -19 -109q-20 -57 -53 -90q-39 -39 -88 -59q-55 -23 -127 -23t-127 23q-53 23 -88 59q-35 39 -53 90q-15 43 -19 109z" />
<glyph unicode="&#x115;" horiz-adv-x="1095" d="M113 541q0 285 118 432q117 145 336 145q98 0 178 -31q76 -29 134 -92q51 -57 84 -153q31 -92 30 -213v-94h-682q4 -121 23 -193q23 -82 59 -131q41 -55 94 -78q55 -25 129 -24q52 0 99 12t82 33q43 25 65 45q29 25 47 53q14 -6 26.5 -24.5t12.5 -45.5q0 -29 -22 -67 q-20 -33 -68 -66q-41 -27 -110 -49q-63 -20 -160 -20q-104 0 -199 38q-86 35 -149 109q-59 68 -95 176q-32 101 -32 238zM315 645h471q0 80 -12 148q-10 57 -39 114q-25 49 -67 74q-47 27 -105 27q-115 0 -176 -93q-60 -88 -72 -270zM280 1522h94q18 -72 68 -107 q47 -33 125 -33t125 33q49 35 67 107h95q-4 -66 -19 -109q-20 -57 -53 -90q-39 -39 -88 -59q-55 -23 -127 -23t-127 23q-53 23 -88 59q-35 39 -53 90q-15 43 -19 109z" />
<glyph unicode="&#x116;" horiz-adv-x="1275" d="M78 0v86h26q23 0 64 4q33 4 53 19q27 20 37 41q14 33 14 73v1006q0 45 -14 78q-12 27 -35 43q-18 14 -53 20q-31 6 -66 6h-26v86h1032l10 -358h-106l-10 88q-4 39 -15 65q-14 35 -33 54q-23 23 -55 35q-39 14 -78 14h-344v-545h494v-100h-494v-613h395q51 0 84 12.5 t58 37.5q23 23 35 53.5t18 64.5l14 88h107l-14 -358h-1098zM542 1739q0 39 8.5 61t24.5 39q12 12 39 20q20 6 45 6t45 -6q23 -6 37 -20q18 -18 27 -39q8 -23 8 -61q0 -37 -8 -60q-8 -20 -27 -39q-16 -16 -36.5 -22t-45.5 -6t-45 6q-23 6 -39 22.5t-24.5 39t-8.5 59.5z" />
<glyph unicode="&#x117;" horiz-adv-x="1095" d="M113 541q0 285 118 432q117 145 336 145q98 0 178 -31q76 -29 134 -92q51 -57 84 -153q31 -92 30 -213v-94h-682q4 -121 23 -193q23 -82 59 -131q41 -55 94 -78q55 -25 129 -24q52 0 99 12t82 33q43 25 65 45q29 25 47 53q14 -6 26.5 -24.5t12.5 -45.5q0 -29 -22 -67 q-20 -33 -68 -66q-41 -27 -110 -49q-63 -20 -160 -20q-104 0 -199 38q-86 35 -149 109q-59 68 -95 176q-32 101 -32 238zM315 645h471q0 80 -12 148q-10 57 -39 114q-25 49 -67 74q-47 27 -105 27q-115 0 -176 -93q-60 -88 -72 -270zM446 1430q0 39 8.5 61t24.5 39 q12 12 39 20q20 6 45 6t45 -6q23 -6 37 -20q18 -18 27 -39q8 -23 8 -61q0 -37 -8 -60q-8 -20 -27 -39q-16 -16 -36.5 -22t-45.5 -6t-45 6q-23 6 -39 22.5t-24.5 39t-8.5 59.5z" />
<glyph unicode="&#x118;" horiz-adv-x="1275" d="M78 0v86h26q23 0 64 4q33 4 53 19q27 20 37 41q14 33 14 73v1006q0 45 -14 78q-12 27 -35 43q-18 14 -53 20q-31 6 -66 6h-26v86h1032l10 -358h-106l-10 88q-4 39 -15 65q-14 35 -33 54q-23 23 -55 35q-39 14 -78 14h-344v-545h494v-100h-494v-613h395q51 0 84 12.5 t58 37.5q23 23 35 53.5t18 64.5l14 88h107l-14 -358h-1098zM714 -266q0 51 21 92q23 43 53 78q29 31 78 59q43 25 90 37h117q-33 -10 -66 -31q-41 -27 -61 -49q-29 -31 -45 -67q-18 -41 -19 -89q0 -33 10 -59q8 -23 29 -39q23 -18 45 -24q25 -6 58 -7q18 0 59 5q35 4 70 12 v-111q-12 -8 -37 -14q-31 -8 -41 -10l-43 -6q-14 -2 -37 -3q-65 0 -117 13q-49 12 -88 40.5t-57.5 72t-18.5 100.5z" />
<glyph unicode="&#x119;" horiz-adv-x="1095" d="M113 541q0 285 118 432q117 145 336 145q98 0 178 -31q76 -29 134 -92q51 -57 84 -153q31 -92 30 -213v-94h-682q4 -121 23 -193q23 -82 59 -131q41 -55 94 -78q55 -25 129 -24q52 0 99 12t82 33q43 25 65 45q29 25 47 53q14 -6 26.5 -24.5t12.5 -45.5q0 -29 -22 -67 q-20 -33 -68 -66q-41 -27 -110 -49q-63 -20 -160 -20q-104 0 -199 38q-86 35 -149 109q-59 68 -95 176q-32 101 -32 238zM315 645h471q0 80 -12 148q-10 57 -39 114q-25 49 -67 74q-47 27 -105 27q-115 0 -176 -93q-60 -88 -72 -270zM471 -235q0 51 21 92q23 43 53 78 q29 31 78 59q43 25 90 37h117q-33 -10 -66 -31q-41 -27 -61 -49q-29 -31 -45 -67q-18 -41 -19 -89q0 -33 10 -59q8 -23 29 -39q23 -18 45 -24q25 -6 58 -7q18 0 59 5q35 4 70 12v-111q-12 -8 -37 -14q-31 -8 -41 -10l-43 -6q-14 -2 -37 -3q-65 0 -117 13q-49 12 -88 40.5 t-57.5 72t-18.5 100.5z" />
<glyph unicode="&#x11a;" horiz-adv-x="1275" d="M78 0v86h26q23 0 64 4q33 4 53 19q27 20 37 41q14 33 14 73v1006q0 45 -14 78q-12 27 -35 43q-18 14 -53 20q-31 6 -66 6h-26v86h1032l10 -358h-106l-10 88q-4 39 -15 65q-14 35 -33 54q-23 23 -55 35q-39 14 -78 14h-344v-545h494v-100h-494v-613h395q51 0 84 12.5 t58 37.5q23 23 35 53.5t18 64.5l14 88h107l-14 -358h-1098zM332 1880v27h80l26.5 -17.5l32.5 -21.5q20 -14 57 -47l56 -51q28 -25 49 -50q22 25 49 50l55 51q29 27 60 47l32.5 21.5l26.5 17.5h80v-27q-25 -29 -53 -67l-58 -78q-37 -53 -53 -80q-25 -41 -41 -76h-194 q-16 35 -41 76q-16 27 -54 80l-57 78q-28 38 -53 67z" />
<glyph unicode="&#x11b;" horiz-adv-x="1095" d="M113 541q0 285 118 432q117 145 336 145q98 0 178 -31q76 -29 134 -92q51 -57 84 -153q31 -92 30 -213v-94h-682q4 -121 23 -193q23 -82 59 -131q41 -55 94 -78q55 -25 129 -24q52 0 99 12t82 33q43 25 65 45q29 25 47 53q14 -6 26.5 -24.5t12.5 -45.5q0 -29 -22 -67 q-20 -33 -68 -66q-41 -27 -110 -49q-63 -20 -160 -20q-104 0 -199 38q-86 35 -149 109q-59 68 -95 176q-32 101 -32 238zM315 645h471q0 80 -12 148q-10 57 -39 114q-25 49 -67 74q-47 27 -105 27q-115 0 -176 -93q-60 -88 -72 -270zM260 1542v27h80l26.5 -17.5l32.5 -21.5 q20 -14 57 -47l56 -51q28 -25 49 -50q22 25 49 50l55 51q29 27 60 47l32.5 21.5l26.5 17.5h80v-27q-25 -29 -53 -67l-58 -78q-37 -53 -53 -80q-25 -41 -41 -76h-194q-16 35 -41 76q-16 27 -54 80l-57 78q-28 38 -53 67z" />
<glyph unicode="&#x11c;" horiz-adv-x="1460" d="M117 733q0 168 45 303q45 137 137 238q90 98 223 153q135 55 312 56q123 0 198 -17q86 -18 142 -49q57 -31 83 -74q29 -45 29 -90q0 -33 -14 -59q-14 -25 -41 -45.5t-60 -28.5q-37 -10 -75 -10q0 51 -15 94q-18 53 -44.5 86t-84.5 60q-51 25 -127 24q-129 0 -221 -43 q-94 -43 -149 -123q-59 -86 -84 -202q-27 -129 -27 -273q0 -158 27 -272q29 -123 88 -201q63 -82 157.5 -123t237.5 -41q59 0 114.5 6.5t98.5 18.5v330q0 41 -14 73q-10 25 -35 41q-18 12 -55 21q-20 4 -64 4h-8v86h532v-86h-8q-39 0 -55 -4q-29 -8 -45 -21q-18 -16 -31 -45 q-10 -25 -10 -78v-368q-109 -51 -211 -72q-113 -23 -242 -22q-178 0 -311 55q-137 57 -219 151q-88 100 -131 240q-43 138 -43 307zM504 1579v27q25 29 53 67l57 78l54 82q29 47 41 74h194q12 -27 41 -74l53 -82l58 -78q29 -39 53 -67v-27h-80q-61 35 -119 84 q-49 41 -104 100q-55 -59 -105 -100q-61 -53 -116 -84h-80z" />
<glyph unicode="&#x11d;" horiz-adv-x="1101" d="M47 -193q0 61 21 105q23 49 57.5 77.5t81.5 51.5q41 18 96 29q-16 6 -40.5 24.5t-37.5 34.5q-15 22 -24 49q-10 31 -11 60q0 63 31 106q31 41 103 86q-45 18 -78 49q-31 27 -58 72q-25 41 -36 88q-12 49 -13 100q0 88 25 158q27 76 72 121q49 49 118 74q76 27 170 26 q37 0 74 -6q41 -6 65.5 -14t55.5 -23q23 -10 39 -24q2 2 14 16t21 20q29 25 45 35q29 18 55 29q25 10 63 10q35 0 54 -8q25 -10 37 -23q16 -16 22 -34q8 -25 8 -41q0 -23 -6 -41q-6 -16 -20 -35q-10 -12 -33 -23q-18 -8 -49 -8q0 16 -2 25q-2 12 -11 22q-6 8 -20 17 q-12 6 -35 6q-25 0 -47 -6q-18 -4 -41 -19q37 -47 57 -102q23 -61 23 -146q0 -74 -23 -141q-20 -61 -69 -110q-47 -47 -115 -74t-162 -27h-26q-6 0 -14.5 1t-16.5 1q-6 0 -15.5 1t-13.5 1t-11 1t-9 1q-8 -4 -37 -22q-25 -16 -33 -26.5t-20 -35.5q-8 -16 -9 -41q0 -27 9 -41 q8 -12 26.5 -22t40.5 -12q16 -2 51 -2h232q88 0 156 -23q61 -20 104 -63q41 -41 59.5 -96.5t18.5 -123.5q0 -92 -33 -159q-37 -76 -98 -121q-66 -47 -170 -76q-98 -27 -242 -27q-215 0 -319 78q-107 80 -107 221zM213 -180q0 -45 12 -84q12 -43 41 -68q31 -29 82 -43 q55 -16 129 -16q113 0 182 18q72 18 113 51q41 31 59 80q16 41 17 99q0 41 -14 77q-12 29 -39 48q-29 18 -66 24q-53 8 -90 8h-201q-31 0 -84 -8q-39 -6 -71.5 -28.5t-51 -59.5t-18.5 -98zM332 745q0 -131 43 -192t143 -61q47 0 84 16t57 45q22 31 31 80q10 55 10 115 q0 141 -43 204q-43 66 -141 66t-141 -68t-43 -205zM232 1241v27q25 29 53 67l57 78l54 82q29 47 41 74h194q12 -27 41 -74l53 -82l58 -78q29 -39 53 -67v-27h-80q-61 35 -119 84q-49 41 -104 100q-55 -59 -105 -100q-61 -53 -116 -84h-80z" />
<glyph unicode="&#x11e;" horiz-adv-x="1460" d="M117 733q0 168 45 303q45 137 137 238q90 98 223 153q135 55 312 56q123 0 198 -17q86 -18 142 -49q57 -31 83 -74q29 -45 29 -90q0 -33 -14 -59q-14 -25 -41 -45.5t-60 -28.5q-37 -10 -75 -10q0 51 -15 94q-18 53 -44.5 86t-84.5 60q-51 25 -127 24q-129 0 -221 -43 q-94 -43 -149 -123q-59 -86 -84 -202q-27 -129 -27 -273q0 -158 27 -272q29 -123 88 -201q63 -82 157.5 -123t237.5 -41q59 0 114.5 6.5t98.5 18.5v330q0 41 -14 73q-10 25 -35 41q-18 12 -55 21q-20 4 -64 4h-8v86h532v-86h-8q-39 0 -55 -4q-29 -8 -45 -21q-18 -16 -31 -45 q-10 -25 -10 -78v-368q-109 -51 -211 -72q-113 -23 -242 -22q-178 0 -311 55q-137 57 -219 151q-88 100 -131 240q-43 138 -43 307zM520 1860h94q18 -72 68 -107q47 -33 125 -33t125 33q49 35 67 107h95q-4 -66 -19 -109q-20 -57 -53 -90q-39 -39 -88 -59q-55 -23 -127 -23 t-127 23q-53 23 -88 59q-35 39 -53 90q-15 43 -19 109z" />
<glyph unicode="&#x11f;" horiz-adv-x="1101" d="M47 -193q0 61 21 105q23 49 57.5 77.5t81.5 51.5q41 18 96 29q-16 6 -40.5 24.5t-37.5 34.5q-15 22 -24 49q-10 31 -11 60q0 63 31 106q31 41 103 86q-45 18 -78 49q-31 27 -58 72q-25 41 -36 88q-12 49 -13 100q0 88 25 158q27 76 72 121q49 49 118 74q76 27 170 26 q37 0 74 -6q41 -6 65.5 -14t55.5 -23q23 -10 39 -24q2 2 14 16t21 20q29 25 45 35q29 18 55 29q25 10 63 10q35 0 54 -8q25 -10 37 -23q16 -16 22 -34q8 -25 8 -41q0 -23 -6 -41q-6 -16 -20 -35q-10 -12 -33 -23q-18 -8 -49 -8q0 16 -2 25q-2 12 -11 22q-6 8 -20 17 q-12 6 -35 6q-25 0 -47 -6q-18 -4 -41 -19q37 -47 57 -102q23 -61 23 -146q0 -74 -23 -141q-20 -61 -69 -110q-47 -47 -115 -74t-162 -27h-26q-6 0 -14.5 1t-16.5 1q-6 0 -15.5 1t-13.5 1t-11 1t-9 1q-8 -4 -37 -22q-25 -16 -33 -26.5t-20 -35.5q-8 -16 -9 -41q0 -27 9 -41 q8 -12 26.5 -22t40.5 -12q16 -2 51 -2h232q88 0 156 -23q61 -20 104 -63q41 -41 59.5 -96.5t18.5 -123.5q0 -92 -33 -159q-37 -76 -98 -121q-66 -47 -170 -76q-98 -27 -242 -27q-215 0 -319 78q-107 80 -107 221zM213 -180q0 -45 12 -84q12 -43 41 -68q31 -29 82 -43 q55 -16 129 -16q113 0 182 18q72 18 113 51q41 31 59 80q16 41 17 99q0 41 -14 77q-12 29 -39 48q-29 18 -66 24q-53 8 -90 8h-201q-31 0 -84 -8q-39 -6 -71.5 -28.5t-51 -59.5t-18.5 -98zM332 745q0 -131 43 -192t143 -61q47 0 84 16t57 45q22 31 31 80q10 55 10 115 q0 141 -43 204q-43 66 -141 66t-141 -68t-43 -205zM237 1522h94q18 -72 68 -107q47 -33 125 -33t125 33q49 35 67 107h95q-4 -66 -19 -109q-20 -57 -53 -90q-39 -39 -88 -59q-55 -23 -127 -23t-127 23q-53 23 -88 59q-35 39 -53 90q-15 43 -19 109z" />
<glyph unicode="&#x120;" horiz-adv-x="1460" d="M117 733q0 168 45 303q45 137 137 238q90 98 223 153q135 55 312 56q123 0 198 -17q86 -18 142 -49q57 -31 83 -74q29 -45 29 -90q0 -33 -14 -59q-14 -25 -41 -45.5t-60 -28.5q-37 -10 -75 -10q0 51 -15 94q-18 53 -44.5 86t-84.5 60q-51 25 -127 24q-129 0 -221 -43 q-94 -43 -149 -123q-59 -86 -84 -202q-27 -129 -27 -273q0 -158 27 -272q29 -123 88 -201q63 -82 157.5 -123t237.5 -41q59 0 114.5 6.5t98.5 18.5v330q0 41 -14 73q-10 25 -35 41q-18 12 -55 21q-20 4 -64 4h-8v86h532v-86h-8q-39 0 -55 -4q-29 -8 -45 -21q-18 -16 -31 -45 q-10 -25 -10 -78v-368q-109 -51 -211 -72q-113 -23 -242 -22q-178 0 -311 55q-137 57 -219 151q-88 100 -131 240q-43 138 -43 307zM708 1768q0 39 8.5 61t24.5 39q12 12 39 20q20 6 45 6t45 -6q23 -6 37 -20q18 -18 27 -39q8 -23 8 -61q0 -37 -8 -60q-8 -20 -27 -39 q-16 -16 -36.5 -22t-45.5 -6t-45 6q-23 6 -39 22.5t-24.5 39t-8.5 59.5z" />
<glyph unicode="&#x121;" horiz-adv-x="1101" d="M47 -193q0 61 21 105q23 49 57.5 77.5t81.5 51.5q41 18 96 29q-16 6 -40.5 24.5t-37.5 34.5q-15 22 -24 49q-10 31 -11 60q0 63 31 106q31 41 103 86q-45 18 -78 49q-31 27 -58 72q-25 41 -36 88q-12 49 -13 100q0 88 25 158q27 76 72 121q49 49 118 74q76 27 170 26 q37 0 74 -6q41 -6 65.5 -14t55.5 -23q23 -10 39 -24q2 2 14 16t21 20q29 25 45 35q29 18 55 29q25 10 63 10q35 0 54 -8q25 -10 37 -23q16 -16 22 -34q8 -25 8 -41q0 -23 -6 -41q-6 -16 -20 -35q-10 -12 -33 -23q-18 -8 -49 -8q0 16 -2 25q-2 12 -11 22q-6 8 -20 17 q-12 6 -35 6q-25 0 -47 -6q-18 -4 -41 -19q37 -47 57 -102q23 -61 23 -146q0 -74 -23 -141q-20 -61 -69 -110q-47 -47 -115 -74t-162 -27h-26q-6 0 -14.5 1t-16.5 1q-6 0 -15.5 1t-13.5 1t-11 1t-9 1q-8 -4 -37 -22q-25 -16 -33 -26.5t-20 -35.5q-8 -16 -9 -41q0 -27 9 -41 q8 -12 26.5 -22t40.5 -12q16 -2 51 -2h232q88 0 156 -23q61 -20 104 -63q41 -41 59.5 -96.5t18.5 -123.5q0 -92 -33 -159q-37 -76 -98 -121q-66 -47 -170 -76q-98 -27 -242 -27q-215 0 -319 78q-107 80 -107 221zM213 -180q0 -45 12 -84q12 -43 41 -68q31 -29 82 -43 q55 -16 129 -16q113 0 182 18q72 18 113 51q41 31 59 80q16 41 17 99q0 41 -14 77q-12 29 -39 48q-29 18 -66 24q-53 8 -90 8h-201q-31 0 -84 -8q-39 -6 -71.5 -28.5t-51 -59.5t-18.5 -98zM332 745q0 -131 43 -192t143 -61q47 0 84 16t57 45q22 31 31 80q10 55 10 115 q0 141 -43 204q-43 66 -141 66t-141 -68t-43 -205zM407 1430q0 39 8.5 61t24.5 39q12 12 39 20q20 6 45 6t45 -6q23 -6 37 -20q18 -18 27 -39q8 -23 8 -61q0 -37 -8 -60q-8 -20 -27 -39q-16 -16 -36.5 -22t-45.5 -6t-45 6q-23 6 -39 22.5t-24.5 39t-8.5 59.5z" />
<glyph unicode="&#x122;" horiz-adv-x="1460" d="M117 733q0 168 45 303q45 137 137 238q90 98 223 153q135 55 312 56q123 0 198 -17q86 -18 142 -49q57 -31 83 -74q29 -45 29 -90q0 -33 -14 -59q-14 -25 -41 -45.5t-60 -28.5q-37 -10 -75 -10q0 51 -15 94q-18 53 -44.5 86t-84.5 60q-51 25 -127 24q-129 0 -221 -43 q-94 -43 -149 -123q-59 -86 -84 -202q-27 -129 -27 -273q0 -158 27 -272q29 -123 88 -201q63 -82 157.5 -123t237.5 -41q59 0 114.5 6.5t98.5 18.5v330q0 41 -14 73q-10 25 -35 41q-18 12 -55 21q-20 4 -64 4h-8v86h532v-86h-8q-39 0 -55 -4q-29 -8 -45 -21q-18 -16 -31 -45 q-10 -25 -10 -78v-368q-109 -51 -211 -72q-113 -23 -242 -22q-178 0 -311 55q-137 57 -219 151q-88 100 -131 240q-43 138 -43 307zM668 -426q14 55 33 147q23 119 29 154h178v-20q-4 -8 -14.5 -33t-18.5 -39l-45 -82q-14 -27 -47 -82l-45 -72h-70v27z" />
<glyph unicode="&#x123;" horiz-adv-x="1101" d="M47 -193q0 61 21 105q23 49 57.5 77.5t81.5 51.5q41 18 96 29q-16 6 -40.5 24.5t-37.5 34.5q-15 22 -24 49q-10 31 -11 60q0 63 31 106q31 41 103 86q-45 18 -78 49q-31 27 -58 72q-25 41 -36 88q-12 49 -13 100q0 88 25 158q27 76 72 121q49 49 118 74q76 27 170 26 q37 0 74 -6q41 -6 65.5 -14t55.5 -23q23 -10 39 -24q2 2 14 16t21 20q29 25 45 35q29 18 55 29q25 10 63 10q35 0 54 -8q25 -10 37 -23q16 -16 22 -34q8 -25 8 -41q0 -23 -6 -41q-6 -16 -20 -35q-10 -12 -33 -23q-18 -8 -49 -8q0 16 -2 25q-2 12 -11 22q-6 8 -20 17 q-12 6 -35 6q-25 0 -47 -6q-18 -4 -41 -19q37 -47 57 -102q23 -61 23 -146q0 -74 -23 -141q-20 -61 -69 -110q-47 -47 -115 -74t-162 -27h-26q-6 0 -14.5 1t-16.5 1q-6 0 -15.5 1t-13.5 1t-11 1t-9 1q-8 -4 -37 -22q-25 -16 -33 -26.5t-20 -35.5q-8 -16 -9 -41q0 -27 9 -41 q8 -12 26.5 -22t40.5 -12q16 -2 51 -2h232q88 0 156 -23q61 -20 104 -63q41 -41 59.5 -96.5t18.5 -123.5q0 -92 -33 -159q-37 -76 -98 -121q-66 -47 -170 -76q-98 -27 -242 -27q-215 0 -319 78q-107 80 -107 221zM213 -180q0 -45 12 -84q12 -43 41 -68q31 -29 82 -43 q55 -16 129 -16q113 0 182 18q72 18 113 51q41 31 59 80q16 41 17 99q0 41 -14 77q-12 29 -39 48q-29 18 -66 24q-53 8 -90 8h-201q-31 0 -84 -8q-39 -6 -71.5 -28.5t-51 -59.5t-18.5 -98zM332 745q0 -131 43 -192t143 -61q47 0 84 16t57 45q22 31 31 80q10 55 10 115 q0 141 -43 204q-43 66 -141 66t-141 -68t-43 -205zM440 1241v21q2 6 14.5 30.5l20.5 40.5l18.5 37t24.5 45l47 82l45 72h70v-27q-14 -55 -33 -147l-29 -154h-178z" />
<glyph unicode="&#x124;" horiz-adv-x="1622" d="M78 0v86h26q45 0 66 4q35 6 53 21q23 16 35 45q14 33 14 77v1004q0 39 -14 72q-10 25 -37 43q-25 18 -53 20q-41 4 -64 4h-26v86h596v-86h-27q-35 0 -65 -6q-35 -6 -54 -20q-27 -18 -36 -43q-12 -29 -13 -78v-414h666v414q0 45 -15 78q-12 27 -34 43q-18 14 -54 20 q-31 6 -65 6h-27v86h596v-86h-26q-35 0 -66 -6q-35 -6 -53 -20q-23 -16 -35 -43q-14 -33 -14 -78v-1006q0 -41 14 -73q10 -20 37 -41q20 -14 53 -19q41 -4 64 -4h26v-86h-596v86h27q45 0 65 4q35 6 54 21q23 16 34 45q14 33 15 77v480h-666v-480q0 -49 13 -77q12 -27 36 -45 q18 -14 54 -21q20 -4 65 -4h27v-86h-596zM510 1579v27q25 29 53 67l57 78l54 82q29 47 41 74h194q12 -27 41 -74l53 -82l58 -78q29 -39 53 -67v-27h-80q-61 35 -119 84q-49 41 -104 100q-55 -59 -105 -100q-61 -53 -116 -84h-80z" />
<glyph unicode="&#x125;" horiz-adv-x="1298" d="M37 0v86h16q45 0 66 4q35 6 53 21q23 16 35 45q14 33 14 77v1098q0 39 -14 72q-10 25 -37 43q-25 18 -53 20q-41 4 -64 4h-16v86h377v-450v-59q0 -23 -4 -56l-4 -59h10q92 186 301 186q88 0 155 -24q70 -25 113 -72q45 -47 69.5 -125t24.5 -180v-484q0 -49 13 -77 q14 -31 32.5 -45.5t49.5 -20.5q18 -4 63 -4h6v-86h-356v707q0 68 -13 118q-12 53 -38 88q-29 39 -68 56q-43 18 -106 18q-65 0 -111 -24q-47 -25 -76 -66q-31 -45 -47 -106q-14 -57 -14 -136v-432q0 -41 14 -73q10 -20 37 -41q20 -14 53 -19q41 -4 64 -4h6v-86h-551z M332 1634v27q25 29 53 67l57 78l54 82q29 47 41 74h194q12 -27 41 -74l53 -82l58 -78q29 -39 53 -67v-27h-80q-61 35 -119 84q-49 41 -104 100q-55 -59 -105 -100q-61 -53 -116 -84h-80z" />
<glyph unicode="&#x126;" horiz-adv-x="1622" d="M78 0v86h26q45 0 66 4q35 6 53 21q23 16 35 45q14 33 14 77v789h-194v100h194v115q0 39 -14 72q-10 25 -37 43q-25 18 -53 20q-41 4 -64 4h-26v86h596v-86h-27q-35 0 -65 -6q-35 -6 -54 -20q-27 -18 -36 -43q-12 -29 -13 -78v-107h666v107q0 45 -15 78q-12 27 -34 43 q-18 14 -54 20q-31 6 -65 6h-27v86h596v-86h-26q-35 0 -66 -6q-35 -6 -53 -20q-23 -16 -35 -43q-14 -33 -14 -78v-107h194v-100h-194v-799q0 -41 14 -73q10 -20 37 -41q20 -14 53 -19q41 -4 64 -4h26v-86h-596v86h27q45 0 65 4q35 6 54 21q23 16 34 45q14 33 15 77v480h-666 v-480q0 -49 13 -77q12 -27 36 -45q18 -14 54 -21q20 -4 65 -4h27v-86h-596zM479 815h666v207h-666v-207z" />
<glyph unicode="&#x127;" horiz-adv-x="1298" d="M35 1214v97h186v20q0 39 -14 72q-10 25 -37 43q-25 18 -53 20q-41 4 -64 4h-16v86h377v-245h350v-97h-350v-149v-59q0 -23 -4 -56l-4 -59h10q92 186 301 186q88 0 155 -24q70 -25 113 -72q45 -47 69.5 -125t24.5 -180v-443q0 -49 13 -77q14 -31 32.5 -45.5t49.5 -20.5 q18 -4 63 -4h6v-86h-356v666q0 68 -13 118q-12 53 -38 88q-29 39 -68 56q-43 18 -106 18q-65 0 -111 -24q-47 -25 -76 -66q-31 -45 -47 -106q-14 -57 -14 -136v-391q0 -41 14 -73q10 -20 37 -41q20 -14 53 -19q41 -4 64 -4h6v-86h-551v86h16q45 0 66 4q35 6 53 21 q23 16 35 45q14 33 14 77v981h-186z" />
<glyph unicode="&#x128;" horiz-adv-x="751" d="M78 0v86h26q45 0 66 4q35 6 53 21q23 16 35 45q14 33 14 77v996q0 45 -14 78q-12 27 -35 43q-18 14 -53 20q-31 6 -66 6h-26v86h596v-86h-27q-35 0 -65 -6q-35 -6 -54 -20q-27 -18 -36 -43q-12 -29 -13 -78v-996q0 -49 13 -77q12 -27 36 -45q18 -14 54 -21q20 -4 65 -4 h27v-86h-596zM12 1600q2 43 17 90q12 47 39 78q25 31 67 53q39 20 94 20q57 0 99 -20q57 -29 84 -45l38.5 -22.5t32.5 -20.5q33 -20 66 -20.5t49 7.5q20 10 29 25q12 20 14 35q0 4 3 18.5t5 22.5h92q-2 -43 -16 -90q-10 -35 -41 -78q-23 -31 -63 -53q-39 -20 -95 -21 q-59 0 -100 21l-82 43l-72 45q-33 20 -67 20q-33 0 -49 -8q-20 -10 -29 -25q-6 -10 -14 -34q-4 -12 -9 -41h-92z" />
<glyph unicode="&#x129;" horiz-adv-x="653" d="M47 0v86h27q25 0 65 4q33 4 54 19q27 20 36 41q12 28 13 73v649q0 45 -13 72q-10 25 -36 43q-18 14 -54 21q-20 4 -65 4h-6v86h366v-865q0 -45 15 -77q12 -29 34 -45q18 -14 54 -21q20 -4 65 -4h27v-86h-582zM-47 1262q2 43 17 90q12 47 39 78q25 31 67 53q39 20 94 20 q57 0 99 -20q57 -29 84 -45l38.5 -22.5t32.5 -20.5q33 -20 66 -20.5t49 7.5q20 10 29 25q12 20 14 35q0 4 3 18.5t5 22.5h92q-2 -43 -16 -90q-10 -35 -41 -78q-23 -31 -63 -53q-39 -20 -95 -21q-59 0 -100 21l-82 43l-72 45q-33 20 -67 20q-33 0 -49 -8q-20 -10 -29 -25 q-6 -10 -14 -34q-4 -12 -9 -41h-92z" />
<glyph unicode="&#x12a;" horiz-adv-x="751" d="M78 0v86h26q45 0 66 4q35 6 53 21q23 16 35 45q14 33 14 77v996q0 45 -14 78q-12 27 -35 43q-18 14 -53 20q-31 6 -66 6h-26v86h596v-86h-27q-35 0 -65 -6q-35 -6 -54 -20q-27 -18 -36 -43q-12 -29 -13 -78v-996q0 -49 13 -77q12 -27 36 -45q18 -14 54 -21q20 -4 65 -4 h27v-86h-596zM80 1579v121h594v-121h-594z" />
<glyph unicode="&#x12b;" horiz-adv-x="653" d="M47 0v86h27q25 0 65 4q33 4 54 19q27 20 36 41q12 28 13 73v649q0 45 -13 72q-10 25 -36 43q-18 14 -54 21q-20 4 -65 4h-6v86h366v-865q0 -45 15 -77q12 -29 34 -45q18 -14 54 -21q20 -4 65 -4h27v-86h-582zM2 1241v121h594v-121h-594z" />
<glyph unicode="&#x12c;" horiz-adv-x="751" d="M78 0v86h26q45 0 66 4q35 6 53 21q23 16 35 45q14 33 14 77v996q0 45 -14 78q-12 27 -35 43q-18 14 -53 20q-31 6 -66 6h-26v86h596v-86h-27q-35 0 -65 -6q-35 -6 -54 -20q-27 -18 -36 -43q-12 -29 -13 -78v-996q0 -49 13 -77q12 -27 36 -45q18 -14 54 -21q20 -4 65 -4 h27v-86h-596zM90 1860h94q18 -72 68 -107q47 -33 125 -33t125 33q49 35 67 107h95q-4 -66 -19 -109q-20 -57 -53 -90q-39 -39 -88 -59q-55 -23 -127 -23t-127 23q-53 23 -88 59q-35 39 -53 90q-15 43 -19 109z" />
<glyph unicode="&#x12d;" horiz-adv-x="653" d="M47 0v86h27q25 0 65 4q33 4 54 19q27 20 36 41q12 28 13 73v649q0 45 -13 72q-10 25 -36 43q-18 14 -54 21q-20 4 -65 4h-6v86h366v-865q0 -45 15 -77q12 -29 34 -45q18 -14 54 -21q20 -4 65 -4h27v-86h-582zM24 1522h94q18 -72 68 -107q47 -33 125 -33t125 33 q49 35 67 107h95q-4 -66 -19 -109q-20 -57 -53 -90q-39 -39 -88 -59q-55 -23 -127 -23t-127 23q-53 23 -88 59q-35 39 -53 90q-15 43 -19 109z" />
<glyph unicode="&#x12e;" horiz-adv-x="751" d="M78 0v86h26q45 0 66 4q35 6 53 21q23 16 35 45q14 33 14 77v996q0 45 -14 78q-12 27 -35 43q-18 14 -53 20q-31 6 -66 6h-26v86h596v-86h-27q-35 0 -65 -6q-35 -6 -54 -20q-27 -18 -36 -43q-12 -29 -13 -78v-996q0 -49 13 -77q12 -27 36 -45q18 -14 54 -21q20 -4 65 -4 h27v-86h-596zM182 -266q0 51 21 92q23 43 53 78q29 31 78 59q43 25 90 37h117q-33 -10 -66 -31q-41 -27 -61 -49q-29 -31 -45 -67q-18 -41 -19 -89q0 -33 10 -59q8 -23 29 -39q23 -18 45 -24q25 -6 58 -7q18 0 59 5q35 4 70 12v-111q-12 -8 -37 -14q-31 -8 -41 -10l-43 -6 q-14 -2 -37 -3q-65 0 -117 13q-49 12 -88 40.5t-57.5 72t-18.5 100.5z" />
<glyph unicode="&#x12f;" horiz-adv-x="653" d="M47 0v86h27q25 0 65 4q33 4 54 19q27 20 36 41q12 28 13 73v649q0 45 -13 72q-10 25 -36 43q-18 14 -54 21q-20 4 -65 4h-6v86h366v-865q0 -45 15 -77q12 -29 34 -45q18 -14 54 -21q20 -4 65 -4h27v-86h-582zM213 1430q0 39 8 61q8 20 27 39q14 14 36.5 20t45 6t45 -6 t37.5 -20q16 -16 24 -39q10 -27 10 -61q0 -33 -10 -60q-8 -23 -24.5 -39t-36.5 -22q-23 -6 -45.5 -6t-44.5 6q-20 6 -37 22q-18 18 -27 39q-8 23 -8 60zM102 -266q0 51 21 92q23 43 53 78q29 31 78 59q43 25 90 37h117q-33 -10 -66 -31q-41 -27 -61 -49q-29 -31 -45 -67 q-18 -41 -19 -89q0 -33 10 -59q8 -23 29 -39q23 -18 45 -24q25 -6 58 -7q18 0 59 5q35 4 70 12v-111q-12 -8 -37 -14q-31 -8 -41 -10l-43 -6q-14 -2 -37 -3q-65 0 -117 13q-49 12 -88 40.5t-57.5 72t-18.5 100.5z" />
<glyph unicode="&#x130;" horiz-adv-x="751" d="M78 0v86h26q45 0 66 4q35 6 53 21q23 16 35 45q14 33 14 77v996q0 45 -14 78q-12 27 -35 43q-18 14 -53 20q-31 6 -66 6h-26v86h596v-86h-27q-35 0 -65 -6q-35 -6 -54 -20q-27 -18 -36 -43q-12 -29 -13 -78v-996q0 -49 13 -77q12 -27 36 -45q18 -14 54 -21q20 -4 65 -4 h27v-86h-596zM258 1768q0 39 8.5 61t24.5 39q12 12 39 20q20 6 45 6t45 -6q23 -6 37 -20q18 -18 27 -39q8 -23 8 -61q0 -37 -8 -60q-8 -20 -27 -39q-16 -16 -36.5 -22t-45.5 -6t-45 6q-23 6 -39 22.5t-24.5 39t-8.5 59.5z" />
<glyph unicode="&#x131;" horiz-adv-x="653" d="M47 0v86h27q25 0 65 4q33 4 54 19q27 20 36 41q12 28 13 73v649q0 45 -13 72q-10 25 -36 43q-18 14 -54 21q-20 4 -65 4h-6v86h366v-865q0 -45 15 -77q12 -29 34 -45q18 -14 54 -21q20 -4 65 -4h27v-86h-582z" />
<glyph unicode="&#x132;" horiz-adv-x="1423" d="M78 0v86h26q45 0 66 4q35 6 53 21q23 16 35 45q14 33 14 77v996q0 45 -14 78q-12 27 -35 43q-18 14 -53 20q-31 6 -66 6h-26v86h596v-86h-27q-35 0 -65 -6q-35 -6 -54 -20q-27 -18 -36 -43q-12 -29 -13 -78v-996q0 -49 13 -77q12 -27 36 -45q18 -14 54 -21q20 -4 65 -4 h27v-86h-596zM671 -395h19q65 0 117 18q55 18 88 62q35 45 53 116q18 74 18 181v1255q0 39 -14 72q-10 25 -37 43q-25 18 -53 20q-41 4 -64 4h-26v86h596v-86h-27q-35 0 -65 -6q-35 -6 -54 -20q-27 -18 -36 -43q-12 -29 -13 -78v-1245q0 -137 -36.5 -229.5t-98.5 -145.5 q-68 -57 -149 -78q-90 -23 -183 -23h-35v97z" />
<glyph unicode="&#x133;" horiz-adv-x="1269" d="M47 0v86h27q25 0 65 4q33 4 54 19q27 20 36 41q12 28 13 73v649q0 45 -13 72q-10 25 -36 43q-18 14 -54 21q-20 4 -65 4h-6v86h366v-865q0 -45 15 -77q12 -29 34 -45q18 -14 54 -21q20 -4 65 -4h27v-86h-582zM213 1430q0 39 8 61q8 20 27 39q14 14 36.5 20t45 6t45 -6 t37.5 -20q16 -16 24 -39q10 -27 10 -61q0 -33 -10 -60q-8 -23 -24.5 -39t-36.5 -22q-23 -6 -45.5 -6t-44.5 6q-20 6 -37 22q-18 18 -27 39q-8 23 -8 60zM630 -395h15q55 0 98 18q41 16 72 62q29 41 45 116q16 78 16 181v890q0 39 -14 72q-10 25 -37 43q-18 14 -53 21 q-20 4 -64 4h-6v86h367v-1114q0 -143 -29 -230q-29 -90 -86 -145q-57 -57 -127 -78q-78 -23 -164 -23h-33v97zM848 1430q0 35 10 61q8 23 24 39q14 14 37 20t45.5 6t45 -6t36.5 -20q16 -16 25 -39q10 -27 10 -61q0 -33 -10 -60q-8 -23 -24.5 -39t-37.5 -22q-23 -6 -45 -6 t-45 6q-20 6 -36.5 22.5t-24.5 38.5q-10 27 -10 60z" />
<glyph unicode="&#x134;" horiz-adv-x="729" d="M-23 -395h19q65 0 117 18q55 18 88 62q35 45 53 116q18 74 18 181v1255q0 39 -14 72q-10 25 -37 43q-25 18 -53 20q-41 4 -64 4h-26v86h596v-86h-27q-35 0 -65 -6q-35 -6 -54 -20q-27 -18 -36 -43q-12 -29 -13 -78v-1245q0 -137 -36.5 -229.5t-98.5 -145.5 q-68 -57 -149 -78q-90 -23 -183 -23h-35v97zM74 1579v27q25 29 53 67l57 78l54 82q29 47 41 74h194q12 -27 41 -74l53 -82l58 -78q29 -39 53 -67v-27h-80q-61 35 -119 84q-49 41 -104 100q-55 -59 -105 -100q-61 -53 -116 -84h-80z" />
<glyph unicode="&#x135;" horiz-adv-x="612" d="M-25 -395h15q55 0 98 18q41 16 72 62q29 41 45 116q16 78 16 181v890q0 39 -14 72q-10 25 -37 43q-18 14 -53 21q-20 4 -64 4h-6v86h367v-1114q0 -143 -29 -230q-29 -90 -86 -145q-57 -57 -127 -78q-78 -23 -164 -23h-33v97zM-22 1241v27q25 29 53 67l57 78l54 82 q29 47 41 74h194q12 -27 41 -74l53 -82l58 -78q29 -39 53 -67v-27h-80q-61 35 -119 84q-49 41 -104 100q-55 -59 -105 -100q-61 -53 -116 -84h-80z" />
<glyph unicode="&#x136;" horiz-adv-x="1433" d="M78 0v86h26q23 0 64 4q33 4 53 19q27 20 37 41q14 33 14 73v1014q0 39 -14 72q-10 25 -37 43q-25 18 -53 20q-41 4 -64 4h-26v86h596v-86h-27q-35 0 -65 -6q-35 -6 -54 -20q-27 -18 -36 -43q-12 -29 -13 -78v-578l424 486q34 37 55 67q29 41 35 53.5t17 42.5q6 18 6 33 q0 27 -25 35q-27 10 -76 10v84h453v-84q-29 0 -68 -14q-31 -10 -65 -37q-27 -20 -66 -61q-35 -35 -75 -80l-297 -334l432 -602q57 -78 114 -123q53 -41 111 -41h4v-86h-22q-111 0 -168 8q-74 10 -113 29q-45 20 -78 57q-43 47 -71 90l-353 506l-174 -141v-316q0 -49 13 -77 q12 -27 36 -45q18 -14 54 -21q20 -4 65 -4h27v-86h-596zM622 -426q14 55 33 147q23 119 29 154h178v-20q-4 -8 -14.5 -33t-18.5 -39l-45 -82q-14 -27 -47 -82l-45 -72h-70v27z" />
<glyph unicode="&#x137;" horiz-adv-x="1196" d="M37 0v86h16q45 0 66 4q35 6 53 21q23 16 35 45q14 33 14 77v1098q0 39 -14 72q-10 25 -37 43q-25 18 -53 20q-41 4 -64 4h-16v86h377v-790v-72q0 -29 -4 -86q-2 -47 -4 -100l256 280q29 31 55 66q31 39 35 47q2 4 16 39q6 15 6 31q0 27 -24 33q-33 8 -76 8v86h452v-86 q-72 0 -139 -49q-74 -53 -149 -142l-144 -162l273 -405q49 -78 106 -125q53 -43 121 -43h6v-86h-29q-89 0 -147 6q-61 6 -98 25q-45 23 -78 61q-41 47 -78 107l-205 321l-151 -112v-185q0 -41 14 -73q10 -20 37 -41q20 -14 53 -19q41 -4 64 -4h6v-86h-551zM504 -426 q14 55 33 147q23 119 29 154h178v-20q-4 -8 -14.5 -33t-18.5 -39l-45 -82q-14 -27 -47 -82l-45 -72h-70v27z" />
<glyph unicode="&#x138;" horiz-adv-x="1196" d="M37 0v86h16q45 0 66 4q35 6 53 21q23 16 35 45q14 33 14 77v639q0 41 -14 74q-10 20 -37 41q-25 18 -53 21q-41 4 -64 4h-16v86h377v-332v-72q0 -29 -4 -86q-2 -47 -4 -100l256 280q29 31 55 66q31 39 35 47q2 4 16 39q6 15 6 31q0 27 -24 33q-33 8 -76 8v86h452v-86 q-72 0 -139 -49q-74 -53 -149 -142l-144 -162l273 -405q49 -78 106 -125q53 -43 121 -43h6v-86h-29q-89 0 -147 6q-61 6 -98 25q-45 23 -78 61q-41 47 -78 107l-205 321l-151 -112v-185q0 -41 14 -73q10 -20 37 -41q20 -14 53 -19q41 -4 64 -4h6v-86h-551z" />
<glyph unicode="&#x139;" horiz-adv-x="1275" d="M78 0v86h26q45 0 66 4q35 6 53 21q23 16 35 45q14 33 14 77v996q0 45 -14 78q-12 27 -35 43q-18 14 -53 20q-31 6 -66 6h-26v86h596v-86h-27q-25 0 -65 -4q-29 -2 -54 -20q-27 -18 -36 -43q-12 -27 -13 -72v-1135h404q41 0 78 17q34 15 55 43q16 23 31 59q14 39 16 66 l20 153h107l-14 -440h-1098zM305 1579v27q14 18 47 67l49 78l16.5 28.5l14.5 25t14 28.5q22 40 37 74h219v-21q-12 -20 -57 -67q-49 -53 -82 -84l-92 -86q-37 -33 -88 -70h-78z" />
<glyph unicode="&#x13a;" horiz-adv-x="634" d="M27 0v86h26q45 0 66 4q35 6 53 21q23 16 35 45q14 33 14 77v1098q0 39 -14 72q-10 25 -37 43q-25 18 -53 20q-41 4 -64 4h-26v86h387v-1323q0 -49 12 -77q12 -27 37 -45q18 -14 53 -21q20 -4 66 -4h26v-86h-581zM217 1636v27q14 18 47 67l49 78l16.5 28.5l14.5 25 t14 28.5q22 40 37 74h219v-21q-12 -20 -57 -67q-49 -53 -82 -84l-92 -86q-37 -33 -88 -70h-78z" />
<glyph unicode="&#x13b;" horiz-adv-x="1275" d="M78 0v86h26q45 0 66 4q35 6 53 21q23 16 35 45q14 33 14 77v996q0 45 -14 78q-12 27 -35 43q-18 14 -53 20q-31 6 -66 6h-26v86h596v-86h-27q-25 0 -65 -4q-29 -2 -54 -20q-27 -18 -36 -43q-12 -27 -13 -72v-1135h404q41 0 78 17q34 15 55 43q16 23 31 59q14 39 16 66 l20 153h107l-14 -440h-1098zM532 -426q14 55 33 147q23 119 29 154h178v-20q-4 -8 -14.5 -33t-18.5 -39l-45 -82q-14 -27 -47 -82l-45 -72h-70v27z" />
<glyph unicode="&#x13c;" horiz-adv-x="634" d="M27 0v86h26q45 0 66 4q35 6 53 21q23 16 35 45q14 33 14 77v1098q0 39 -14 72q-10 25 -37 43q-25 18 -53 20q-41 4 -64 4h-26v86h387v-1323q0 -49 12 -77q12 -27 37 -45q18 -14 53 -21q20 -4 66 -4h26v-86h-581zM174 -426q14 55 33 147q23 119 29 154h178v-20 q-4 -8 -14.5 -33t-18.5 -39l-45 -82q-14 -27 -47 -82l-45 -72h-70v27z" />
<glyph unicode="&#x13d;" horiz-adv-x="1275" d="M78 0v86h26q45 0 66 4q35 6 53 21q23 16 35 45q14 33 14 77v996q0 45 -14 78q-12 27 -35 43q-18 14 -53 20q-31 6 -66 6h-26v86h596v-86h-27q-25 0 -65 -4q-29 -2 -54 -20q-27 -18 -36 -43q-12 -27 -13 -72v-1135h404q41 0 78 17q34 15 55 43q16 23 31 59q14 39 16 66 l20 153h107l-14 -440h-1098zM864 1137v26q14 55 33 148l29 153h178v-20q-2 -6 -14.5 -30.5l-20.5 -41.5l-18.5 -36.5t-24.5 -45.5l-47 -82l-45 -71h-70z" />
<glyph unicode="&#x13e;" horiz-adv-x="634" d="M27 0v86h26q45 0 66 4q35 6 53 21q23 16 35 45q14 33 14 77v1098q0 39 -14 72q-10 25 -37 43q-25 18 -53 20q-41 4 -64 4h-26v86h387v-1323q0 -49 12 -77q12 -27 37 -45q18 -14 53 -21q20 -4 66 -4h26v-86h-581zM526 1229v26q14 55 33 148l29 153h178v-20 q-2 -6 -14.5 -30.5l-20.5 -41.5l-18.5 -36.5t-24.5 -45.5l-47 -82l-45 -71h-70z" />
<glyph unicode="&#x13f;" horiz-adv-x="1275" d="M78 0v86h26q45 0 66 4q35 6 53 21q23 16 35 45q14 33 14 77v996q0 45 -14 78q-12 27 -35 43q-18 14 -53 20q-31 6 -66 6h-26v86h596v-86h-27q-25 0 -65 -4q-29 -2 -54 -20q-27 -18 -36 -43q-12 -27 -13 -72v-1135h404q41 0 78 17q34 15 55 43q16 23 31 59q14 39 16 66 l20 153h107l-14 -440h-1098zM768 787q0 39 8.5 61t24.5 39q12 12 39 20q20 6 45 6t45 -6q23 -6 37 -20q18 -18 27 -39q8 -23 8 -61q0 -37 -8 -60q-8 -20 -27 -39q-16 -16 -36.5 -22t-45.5 -6t-45 6q-23 6 -39 22.5t-24.5 39t-8.5 59.5z" />
<glyph unicode="&#x140;" horiz-adv-x="757" d="M27 0v86h26q45 0 66 4q35 6 53 21q23 16 35 45q14 33 14 77v1098q0 39 -14 72q-10 25 -37 43q-25 18 -53 20q-41 4 -64 4h-26v86h387v-1323q0 -49 12 -77q12 -27 37 -45q18 -14 53 -21q20 -4 66 -4h26v-86h-581zM579 672q0 39 8.5 61t24.5 39q12 12 39 20q20 6 45 6 t45 -6q23 -6 37 -20q18 -18 27 -39q8 -23 8 -61q0 -37 -8 -60q-8 -20 -27 -39q-16 -16 -36.5 -22t-45.5 -6t-45 6q-23 6 -39 22.5t-24.5 39t-8.5 59.5z" />
<glyph unicode="&#x141;" horiz-adv-x="1275" d="M78 0v86h26q45 0 66 4q35 6 53 21q23 16 35 45q14 33 14 77v347l-194 -111v115l194 112v533q0 45 -14 78q-12 27 -35 43q-18 14 -53 20q-31 6 -66 6h-26v86h596v-86h-27q-25 0 -65 -4q-29 -2 -54 -20q-27 -18 -36 -43q-12 -27 -13 -72v-422l320 186v-118l-320 -185v-596 h404q41 0 78 17q34 15 55 43q16 23 31 59q14 39 16 66l20 153h107l-14 -440h-1098z" />
<glyph unicode="&#x142;" horiz-adv-x="663" d="M57 0v86h27q45 0 66 4q35 6 53 21q23 16 35 45q14 33 14 77v334l-174 -98v115l174 100v647q0 39 -14 72q-12 27 -35 43q-25 18 -53 20q-41 4 -66 4h-27v86h387v-761l193 110v-119l-193 -108v-445q0 -49 13 -77q12 -27 37 -45q18 -14 53 -21q20 -4 65 -4h27v-86h-582z" />
<glyph unicode="&#x143;" horiz-adv-x="1562" d="M78 0v86h26q45 0 66 4q35 6 53 21q23 16 35 45q14 33 14 77v1004q0 39 -14 72q-10 25 -37 43q-25 18 -53 20q-41 4 -64 4h-26v86h375l733 -1132v907q0 45 -12 72q-10 25 -37 43q-25 18 -54 20q-41 4 -65 4h-27v86h514v-86h-26q-35 0 -66 -6q-35 -6 -53 -20 q-27 -18 -37 -43q-12 -29 -12 -78v-1229h-146l-768 1180v-947q0 -49 13 -77q12 -27 36 -45q18 -14 54 -21q20 -4 65 -4h27v-86h-514zM706 1579v27q14 18 47 67l49 78l16.5 28.5l14.5 25t14 28.5q22 40 37 74h219v-21q-12 -20 -57 -67q-49 -53 -82 -84l-92 -86 q-37 -33 -88 -70h-78z" />
<glyph unicode="&#x144;" horiz-adv-x="1320" d="M57 0v86h17q45 0 65 4q35 6 54 21q25 18 36 45q12 29 13 77v639q0 45 -13 72q-10 25 -36 43q-18 14 -54 21q-20 4 -65 4h-6v86h331l27 -166h10q29 55 68 94t74 57q37 20 84 27q57 8 94 8q80 0 145.5 -24.5t106.5 -71.5q47 -53 69 -125q23 -70 23 -180v-484q0 -49 12 -77 q14 -31 32.5 -45.5t49.5 -20.5q18 -4 63 -4h7v-86h-357v707q0 68 -12 118q-12 53 -39 88q-29 37 -70 56q-43 18 -104 18q-72 0 -117 -26q-53 -31 -78 -74q-29 -49 -41 -107q-12 -61 -12 -125v-432q0 -41 15 -73q10 -25 34 -41q20 -14 54 -19q41 -4 65 -4h6v-86h-551z M569 1241v27q14 18 47 67l49 78l16.5 28.5l14.5 25t14 28.5q22 40 37 74h219v-21q-12 -20 -57 -67q-49 -53 -82 -84l-92 -86q-37 -33 -88 -70h-78z" />
<glyph unicode="&#x145;" horiz-adv-x="1562" d="M78 0v86h26q45 0 66 4q35 6 53 21q23 16 35 45q14 33 14 77v1004q0 39 -14 72q-10 25 -37 43q-25 18 -53 20q-41 4 -64 4h-26v86h375l733 -1132v907q0 45 -12 72q-10 25 -37 43q-25 18 -54 20q-41 4 -65 4h-27v86h514v-86h-26q-35 0 -66 -6q-35 -6 -53 -20 q-27 -18 -37 -43q-12 -29 -12 -78v-1229h-146l-768 1180v-947q0 -49 13 -77q12 -27 36 -45q18 -14 54 -21q20 -4 65 -4h27v-86h-514zM682 -426q14 55 33 147q23 119 29 154h178v-20q-4 -8 -14.5 -33t-18.5 -39l-45 -82q-14 -27 -47 -82l-45 -72h-70v27z" />
<glyph unicode="&#x146;" horiz-adv-x="1320" d="M57 0v86h17q45 0 65 4q35 6 54 21q25 18 36 45q12 29 13 77v639q0 45 -13 72q-10 25 -36 43q-18 14 -54 21q-20 4 -65 4h-6v86h331l27 -166h10q29 55 68 94t74 57q37 20 84 27q57 8 94 8q80 0 145.5 -24.5t106.5 -71.5q47 -53 69 -125q23 -70 23 -180v-484q0 -49 12 -77 q14 -31 32.5 -45.5t49.5 -20.5q18 -4 63 -4h7v-86h-357v707q0 68 -12 118q-12 53 -39 88q-29 37 -70 56q-43 18 -104 18q-72 0 -117 -26q-53 -31 -78 -74q-29 -49 -41 -107q-12 -61 -12 -125v-432q0 -41 15 -73q10 -25 34 -41q20 -14 54 -19q41 -4 65 -4h6v-86h-551z M543 -426q14 55 33 147q23 119 29 154h178v-20q-4 -8 -14.5 -33t-18.5 -39l-45 -82q-14 -27 -47 -82l-45 -72h-70v27z" />
<glyph unicode="&#x147;" horiz-adv-x="1562" d="M78 0v86h26q45 0 66 4q35 6 53 21q23 16 35 45q14 33 14 77v1004q0 39 -14 72q-10 25 -37 43q-25 18 -53 20q-41 4 -64 4h-26v86h375l733 -1132v907q0 45 -12 72q-10 25 -37 43q-25 18 -54 20q-41 4 -65 4h-27v86h514v-86h-26q-35 0 -66 -6q-35 -6 -53 -20 q-27 -18 -37 -43q-12 -29 -12 -78v-1229h-146l-768 1180v-947q0 -49 13 -77q12 -27 36 -45q18 -14 54 -21q20 -4 65 -4h27v-86h-514zM527 1880v27h80l26.5 -17.5l32.5 -21.5q20 -14 57 -47l56 -51q28 -25 49 -50q22 25 49 50l55 51q29 27 60 47l32.5 21.5l26.5 17.5h80v-27 q-25 -29 -53 -67l-58 -78q-37 -53 -53 -80q-25 -41 -41 -76h-194q-16 35 -41 76q-16 27 -54 80l-57 78q-28 38 -53 67z" />
<glyph unicode="&#x148;" horiz-adv-x="1320" d="M57 0v86h17q45 0 65 4q35 6 54 21q25 18 36 45q12 29 13 77v639q0 45 -13 72q-10 25 -36 43q-18 14 -54 21q-20 4 -65 4h-6v86h331l27 -166h10q29 55 68 94t74 57q37 20 84 27q57 8 94 8q80 0 145.5 -24.5t106.5 -71.5q47 -53 69 -125q23 -70 23 -180v-484q0 -49 12 -77 q14 -31 32.5 -45.5t49.5 -20.5q18 -4 63 -4h7v-86h-357v707q0 68 -12 118q-12 53 -39 88q-29 37 -70 56q-43 18 -104 18q-72 0 -117 -26q-53 -31 -78 -74q-29 -49 -41 -107q-12 -61 -12 -125v-432q0 -41 15 -73q10 -25 34 -41q20 -14 54 -19q41 -4 65 -4h6v-86h-551z M375 1542v27h80l26.5 -17.5l32.5 -21.5q20 -14 57 -47l56 -51q28 -25 49 -50q22 25 49 50l55 51q29 27 60 47l32.5 21.5l26.5 17.5h80v-27q-25 -29 -53 -67l-58 -78q-37 -53 -53 -80q-25 -41 -41 -76h-194q-16 35 -41 76q-16 27 -54 80l-57 78q-28 38 -53 67z" />
<glyph unicode="&#x149;" horiz-adv-x="1595" d="M333 0v86h17q45 0 65 4q35 6 54 21q25 18 36 45q12 29 13 77v639q0 45 -13 72q-10 25 -36 43q-18 14 -54 21q-20 4 -65 4h-6v86h331l27 -166h10q29 55 68 94t74 57q37 20 84 27q57 8 94 8q80 0 145.5 -24.5t106.5 -71.5q47 -53 69 -125q23 -70 23 -180v-484q0 -49 12 -77 q14 -31 32.5 -45.5t49.5 -20.5q18 -4 63 -4h7v-86h-357v707q0 68 -12 118q-12 53 -39 88q-29 37 -70 56q-43 18 -104 18q-72 0 -117 -26q-53 -31 -78 -74q-29 -49 -41 -107q-12 -61 -12 -125v-432q0 -41 15 -73q10 -25 34 -41q20 -14 54 -19q41 -4 65 -4h6v-86h-551zM2 883 v86q100 31 147.5 78t47.5 106q0 23 -10 33q-20 20 -29 24q-6 2 -18.5 10.5t-18.5 10.5q-12 6 -35 24q-16 14 -28 35q-10 18 -11 51q0 59 39 90t95 31q31 0 59 -12q33 -14 51 -33q23 -23 35 -57q12 -33 12 -76q0 -66 -18 -127q-16 -57 -60 -113q-37 -49 -102 -92 q-64 -40 -156 -69z" />
<glyph unicode="&#x14a;" horiz-adv-x="1622" d="M78 0v86h26q45 0 66 4q35 6 53 21q23 16 35 45q14 33 14 77v1004q0 39 -14 72q-10 25 -37 43q-25 18 -53 20q-41 4 -64 4h-26v86h375l794 -1124v899q0 39 -14 72q-10 25 -37 43q-25 18 -53 20q-41 4 -64 4h-26v86h514v-86h-27q-35 0 -65 -6q-35 -6 -54 -20 q-23 -16 -35 -43q-14 -33 -14 -78v-1245q0 -127 -20 -230q-18 -92 -58 -145q-41 -57 -98 -78q-61 -23 -135 -23h-47v97h28q51 0 88 18q39 20 64 62q27 47 39 116q14 86 14 181v18l-850 1200v-967q0 -49 13 -77q12 -27 36 -45q18 -14 54 -21q20 -4 65 -4h27v-86h-514z" />
<glyph unicode="&#x14b;" horiz-adv-x="1298" d="M57 0v86h17q45 0 65 4q35 6 54 21q25 18 36 45q12 29 13 77v639q0 45 -13 72q-10 25 -36 43q-18 14 -54 21q-20 4 -65 4h-6v86h331l27 -166h10q29 55 68 94t74 57q37 20 84 27q57 8 94 8q80 0 145.5 -24.5t106.5 -71.5q47 -53 69 -125q23 -70 23 -180v-733 q0 -133 -29 -230q-27 -88 -78 -145.5t-119 -77.5q-74 -23 -153 -23h-31v97h12q51 0 89 18q39 20 63 62q27 47 39 116q14 86 14 181v725q0 68 -12 118q-12 53 -39 88q-29 37 -70 56q-43 18 -104 18q-72 0 -117 -26q-53 -31 -78 -74q-29 -49 -41 -107q-12 -61 -12 -125v-432 q0 -41 15 -73q10 -25 34 -41q20 -14 54 -19q41 -4 65 -4h6v-86h-551z" />
<glyph unicode="&#x14c;" horiz-adv-x="1519" d="M115 735q0 168 41 309q41 139 118 236q82 100 203 152q125 53 285 53q152 0 274 -53q115 -51 201 -152q80 -96 125 -238q41 -131 41 -309q0 -176 -41 -307q-45 -145 -125 -239.5t-203 -151.5q-121 -55 -274 -55q-166 0 -285 55q-125 57 -201 151q-78 94 -118 240 q-41 141 -41 309zM342 733q0 -147 23 -272q20 -115 71 -201q49 -82 131 -127q80 -43 193 -43q115 0 194.5 43t128.5 127q49 82 70 201q23 125 23 272q0 145 -23 271q-23 123 -70 202q-49 82 -129 125t-192 43q-115 0 -195 -43t-129 -125q-53 -90 -73 -202q-23 -126 -23 -271 zM459 1579v121h594v-121h-594z" />
<glyph unicode="&#x14d;" horiz-adv-x="1181" d="M113 551q0 287 123 428q121 139 358 139q106 0 199 -35q88 -33 149 -104q59 -70 94 -178q33 -104 33 -250q0 -289 -123 -430t-358 -141q-106 0 -199 34q-84 33 -149 107q-59 70 -95 178q-32 105 -32 252zM311 551q0 -121 15 -201q16 -88 49 -145.5t86 -87.5 q51 -31 131 -31t131 31q53 31 86 88q31 53 47 145q14 80 14 201q0 109 -16 201q-16 90 -47 143q-34 58 -86 86q-53 29 -131 29q-76 0 -129 -29q-52 -28 -86 -86q-35 -59 -49 -143q-15 -80 -15 -201zM289 1241v121h594v-121h-594z" />
<glyph unicode="&#x14e;" horiz-adv-x="1519" d="M115 735q0 168 41 309q41 139 118 236q82 100 203 152q125 53 285 53q152 0 274 -53q115 -51 201 -152q80 -96 125 -238q41 -131 41 -309q0 -176 -41 -307q-45 -145 -125 -239.5t-203 -151.5q-121 -55 -274 -55q-166 0 -285 55q-125 57 -201 151q-78 94 -118 240 q-41 141 -41 309zM342 733q0 -147 23 -272q20 -115 71 -201q49 -82 131 -127q80 -43 193 -43q115 0 194.5 43t128.5 127q49 82 70 201q23 125 23 272q0 145 -23 271q-23 123 -70 202q-49 82 -129 125t-192 43q-115 0 -195 -43t-129 -125q-53 -90 -73 -202q-23 -126 -23 -271 zM473 1860h94q18 -72 68 -107q47 -33 125 -33t125 33q49 35 67 107h95q-4 -66 -19 -109q-20 -57 -53 -90q-39 -39 -88 -59q-55 -23 -127 -23t-127 23q-53 23 -88 59q-35 39 -53 90q-15 43 -19 109z" />
<glyph unicode="&#x14f;" horiz-adv-x="1181" d="M113 551q0 287 123 428q121 139 358 139q106 0 199 -35q88 -33 149 -104q59 -70 94 -178q33 -104 33 -250q0 -289 -123 -430t-358 -141q-106 0 -199 34q-84 33 -149 107q-59 70 -95 178q-32 105 -32 252zM311 551q0 -121 15 -201q16 -88 49 -145.5t86 -87.5 q51 -31 131 -31t131 31q53 31 86 88q31 53 47 145q14 80 14 201q0 109 -16 201q-16 90 -47 143q-34 58 -86 86q-53 29 -131 29q-76 0 -129 -29q-52 -28 -86 -86q-35 -59 -49 -143q-15 -80 -15 -201zM303 1522h94q18 -72 68 -107q47 -33 125 -33t125 33q49 35 67 107h95 q-4 -66 -19 -109q-20 -57 -53 -90q-39 -39 -88 -59q-55 -23 -127 -23t-127 23q-53 23 -88 59q-35 39 -53 90q-15 43 -19 109z" />
<glyph unicode="&#x150;" horiz-adv-x="1519" d="M115 735q0 168 41 309q41 139 118 236q82 100 203 152q125 53 285 53q152 0 274 -53q115 -51 201 -152q80 -96 125 -238q41 -131 41 -309q0 -176 -41 -307q-45 -145 -125 -239.5t-203 -151.5q-121 -55 -274 -55q-166 0 -285 55q-125 57 -201 151q-78 94 -118 240 q-41 141 -41 309zM342 733q0 -147 23 -272q20 -115 71 -201q49 -82 131 -127q80 -43 193 -43q115 0 194.5 43t128.5 127q49 82 70 201q23 125 23 272q0 145 -23 271q-23 123 -70 202q-49 82 -129 125t-192 43q-115 0 -195 -43t-129 -125q-53 -90 -73 -202q-23 -126 -23 -271 zM445 1579v27l45 71q33 53 47 78q10 18 22.5 38t22.5 40q22 40 37 74h219v-21q-12 -18 -31 -43q-12 -16 -45 -53q-25 -29 -53 -57l-57 -58l-56 -53q-10 -10 -28.5 -24.5t-22.5 -18.5h-100zM814 1579v27l45 71q33 53 47 78q10 18 22.5 38t22.5 40q22 40 37 74h219v-21 q-12 -18 -31 -43q-23 -31 -43 -53q-12 -14 -55 -57l-58 -58l-55 -53q-10 -10 -28.5 -24.5t-22.5 -18.5h-100z" />
<glyph unicode="&#x151;" horiz-adv-x="1181" d="M113 551q0 287 123 428q121 139 358 139q106 0 199 -35q88 -33 149 -104q59 -70 94 -178q33 -104 33 -250q0 -289 -123 -430t-358 -141q-106 0 -199 34q-84 33 -149 107q-59 70 -95 178q-32 105 -32 252zM311 551q0 -121 15 -201q16 -88 49 -145.5t86 -87.5 q51 -31 131 -31t131 31q53 31 86 88q31 53 47 145q14 80 14 201q0 109 -16 201q-16 90 -47 143q-34 58 -86 86q-53 29 -131 29q-76 0 -129 -29q-52 -28 -86 -86q-35 -59 -49 -143q-15 -80 -15 -201zM279 1241v27l45 71q33 53 47 78q10 18 22.5 38t22.5 40q22 40 37 74h219 v-21q-12 -18 -31 -43q-12 -16 -45 -53q-25 -29 -53 -57l-57 -58l-56 -53q-10 -10 -28.5 -24.5t-22.5 -18.5h-100zM648 1241v27l45 71q33 53 47 78q10 18 22.5 38t22.5 40q22 40 37 74h219v-21q-12 -18 -31 -43q-23 -31 -43 -53q-12 -14 -55 -57l-58 -58l-55 -53 q-10 -10 -28.5 -24.5t-22.5 -18.5h-100z" />
<glyph unicode="&#x152;" horiz-adv-x="1961" d="M115 735q0 168 41 309q41 139 118 236q82 100 203 152q125 53 285 53q8 0 25.5 -1t27.5 -1q20 0 57 -4t54 -6q20 -2 47 -11h825l10 -358h-106l-10 88q-4 39 -15 65q-12 31 -35 54q-25 25 -53 35q-39 14 -78 14h-344v-545h494v-100h-494v-613h396q47 0 81.5 12.5 t59.5 37.5q23 23 35 53.5t18 64.5l15 88h106l-14 -358h-893q-16 -4 -47 -8l-56 -6q-37 -4 -57 -4q-10 0 -26.5 -1t-24.5 -1q-166 0 -285 55q-125 57 -201 151q-78 94 -118 240q-41 141 -41 309zM342 733q0 -147 23 -272q20 -115 71 -201q49 -82 131 -127q80 -43 193 -43 q68 0 110 8q61 12 91 23v1218q-35 16 -91 27q-43 8 -108 8q-115 0 -195 -43t-129 -125q-53 -90 -73 -202q-23 -126 -23 -271z" />
<glyph unicode="&#x153;" horiz-adv-x="1851" d="M113 551q0 287 123 428q121 139 358 139q125 0 217 -49q96 -51 156 -149q57 100 147 149t211 49q98 0 178 -31q76 -29 133 -92q55 -61 86 -153q29 -86 29 -213v-94h-682q4 -111 18 -177q20 -84 54 -135q35 -53 94 -83.5t139 -30.5q52 0 99 12t81 33q43 25 66 45 q29 25 47 53q14 -6 26.5 -24.5t12.5 -45.5q0 -29 -23 -67q-20 -35 -65 -66q-39 -25 -113 -49q-63 -20 -159 -20q-127 0 -222 53q-90 51 -151 151q-121 -205 -385 -204q-106 0 -199 34q-84 33 -149 107q-59 70 -95 178q-32 105 -32 252zM311 551q0 -121 15 -201 q16 -88 49 -145.5t86 -87.5q51 -31 131 -31q76 0 129 29q52 28 86 86q31 53 47 143q16 92 16 197v28q0 104 -16 193q-14 82 -49 137q-35 57 -86 84t-129 27q-76 0 -129 -29q-52 -28 -86 -86q-35 -59 -49 -143q-15 -80 -15 -201zM1073 645h471q0 80 -12 148q-10 57 -39 114 q-25 49 -68 74q-47 27 -104 27q-115 0 -176 -93q-60 -88 -72 -270z" />
<glyph unicode="&#x154;" horiz-adv-x="1341" d="M78 0v86h26q23 0 64 4q33 4 53 19q27 20 37 41q14 33 14 73v1014q0 39 -14 72q-10 25 -37 43q-25 18 -53 20q-41 4 -64 4h-26v86h551q266 0 395 -98q131 -100 131 -297q0 -84 -27 -143q-29 -61 -69 -107q-43 -47 -96 -76q-49 -27 -109 -47l281 -444q51 -82 102 -123 t113 -41h6v-86h-29q-96 0 -158 6q-59 6 -104 29q-47 25 -74 55q-37 43 -65 94l-277 461h-170v-422q0 -46 13 -73q10 -20 36 -41q20 -14 54 -19q41 -4 65 -4h27v-86h-596zM479 741h144q90 0 149 21q61 20 96 59t52 101q16 66 16 139q0 88 -16 139q-18 57 -56 94 q-39 39 -98 54q-66 16 -148 16h-139v-623zM524 1579v27q14 18 47 67l49 78l16.5 28.5l14.5 25t14 28.5q22 40 37 74h219v-21q-12 -20 -57 -67q-49 -53 -82 -84l-92 -86q-37 -33 -88 -70h-78z" />
<glyph unicode="&#x155;" horiz-adv-x="964" d="M68 0v86h6q45 0 65 4q35 6 54 21q25 18 36 45q12 29 13 77v639q0 45 -13 72q-10 25 -36 43q-18 14 -54 21q-20 4 -65 4h-6v86h315l39 -203h10l41 86q25 45 51 72q29 29 76 47t113 18q113 0 166 -39q55 -40 55 -110q0 -29 -10 -60q-8 -25 -33 -45q-27 -23 -60 -30 q-41 -10 -88 -11q0 86 -24.5 123t-83.5 37q-35 0 -68 -22q-35 -25 -53 -56q-23 -39 -37 -82q-20 -61 -26 -94q-10 -49 -13 -96q-4 -66 -4 -88v-322q0 -41 15 -73q10 -25 34 -41q20 -14 54 -19q41 -4 65 -4h57v-86h-591zM375 1241v27q14 18 47 67l49 78l16.5 28.5l14.5 25 t14 28.5q22 40 37 74h219v-21q-12 -20 -57 -67q-49 -53 -82 -84l-92 -86q-37 -33 -88 -70h-78z" />
<glyph unicode="&#x156;" horiz-adv-x="1341" d="M78 0v86h26q23 0 64 4q33 4 53 19q27 20 37 41q14 33 14 73v1014q0 39 -14 72q-10 25 -37 43q-25 18 -53 20q-41 4 -64 4h-26v86h551q266 0 395 -98q131 -100 131 -297q0 -84 -27 -143q-29 -61 -69 -107q-43 -47 -96 -76q-49 -27 -109 -47l281 -444q51 -82 102 -123 t113 -41h6v-86h-29q-96 0 -158 6q-59 6 -104 29q-47 25 -74 55q-37 43 -65 94l-277 461h-170v-422q0 -46 13 -73q10 -20 36 -41q20 -14 54 -19q41 -4 65 -4h27v-86h-596zM479 741h144q90 0 149 21q61 20 96 59t52 101q16 66 16 139q0 88 -16 139q-18 57 -56 94 q-39 39 -98 54q-66 16 -148 16h-139v-623zM543 -426q14 55 33 147q23 119 29 154h178v-20q-4 -8 -14.5 -33t-18.5 -39l-45 -82q-14 -27 -47 -82l-45 -72h-70v27z" />
<glyph unicode="&#x157;" horiz-adv-x="964" d="M68 0v86h6q45 0 65 4q35 6 54 21q25 18 36 45q12 29 13 77v639q0 45 -13 72q-10 25 -36 43q-18 14 -54 21q-20 4 -65 4h-6v86h315l39 -203h10l41 86q25 45 51 72q29 29 76 47t113 18q113 0 166 -39q55 -40 55 -110q0 -29 -10 -60q-8 -25 -33 -45q-27 -23 -60 -30 q-41 -10 -88 -11q0 86 -24.5 123t-83.5 37q-35 0 -68 -22q-35 -25 -53 -56q-23 -39 -37 -82q-20 -61 -26 -94q-10 -49 -13 -96q-4 -66 -4 -88v-322q0 -41 15 -73q10 -25 34 -41q20 -14 54 -19q41 -4 65 -4h57v-86h-591zM188 -426q14 55 33 147q23 119 29 154h178v-20 q-4 -8 -14.5 -33t-18.5 -39l-45 -82q-14 -27 -47 -82l-45 -72h-70v27z" />
<glyph unicode="&#x158;" horiz-adv-x="1341" d="M78 0v86h26q23 0 64 4q33 4 53 19q27 20 37 41q14 33 14 73v1014q0 39 -14 72q-10 25 -37 43q-25 18 -53 20q-41 4 -64 4h-26v86h551q266 0 395 -98q131 -100 131 -297q0 -84 -27 -143q-29 -61 -69 -107q-43 -47 -96 -76q-49 -27 -109 -47l281 -444q51 -82 102 -123 t113 -41h6v-86h-29q-96 0 -158 6q-59 6 -104 29q-47 25 -74 55q-37 43 -65 94l-277 461h-170v-422q0 -46 13 -73q10 -20 36 -41q20 -14 54 -19q41 -4 65 -4h27v-86h-596zM479 741h144q90 0 149 21q61 20 96 59t52 101q16 66 16 139q0 88 -16 139q-18 57 -56 94 q-39 39 -98 54q-66 16 -148 16h-139v-623zM322 1880v27h80l26.5 -17.5l32.5 -21.5q20 -14 57 -47l56 -51q28 -25 49 -50q22 25 49 50l55 51q29 27 60 47l32.5 21.5l26.5 17.5h80v-27q-25 -29 -53 -67l-58 -78q-37 -53 -53 -80q-25 -41 -41 -76h-194q-16 35 -41 76 q-16 27 -54 80l-57 78q-28 38 -53 67z" />
<glyph unicode="&#x159;" horiz-adv-x="964" d="M68 0v86h6q45 0 65 4q35 6 54 21q25 18 36 45q12 29 13 77v639q0 45 -13 72q-10 25 -36 43q-18 14 -54 21q-20 4 -65 4h-6v86h315l39 -203h10l41 86q25 45 51 72q29 29 76 47t113 18q113 0 166 -39q55 -40 55 -110q0 -29 -10 -60q-8 -25 -33 -45q-27 -23 -60 -30 q-41 -10 -88 -11q0 86 -24.5 123t-83.5 37q-35 0 -68 -22q-35 -25 -53 -56q-23 -39 -37 -82q-20 -61 -26 -94q-10 -49 -13 -96q-4 -66 -4 -88v-322q0 -41 15 -73q10 -25 34 -41q20 -14 54 -19q41 -4 65 -4h57v-86h-591zM156 1542v27h80l26.5 -17.5l32.5 -21.5q20 -14 57 -47 l56 -51q28 -25 49 -50q22 25 49 50l55 51q29 27 60 47l32.5 21.5l26.5 17.5h80v-27q-25 -29 -53 -67l-58 -78q-37 -53 -53 -80q-25 -41 -41 -76h-194q-16 35 -41 76q-16 27 -54 80l-57 78q-28 38 -53 67z" />
<glyph unicode="&#x15a;" horiz-adv-x="1112" d="M98 268q0 63 39 100.5t109 37.5q2 -55 20 -123q15 -58 49 -105q33 -45 84.5 -71.5t122.5 -26.5q138 0 215 67q78 68 78 191q0 53 -16 98q-14 41 -54 80q-37 37 -96 70q-66 37 -151 71q-90 37 -166 84q-76 45 -119 99q-51 61 -70 121q-23 72 -22 151q0 92 33 158 q37 74 94 116q66 49 141 72q82 25 180 25q90 0 162 -19q68 -18 121 -51q49 -31 74 -74q27 -47 26 -86q0 -66 -43 -100q-41 -33 -118 -33q0 55 -11 94q-12 49 -39 84q-29 37 -71 60q-45 23 -109 22q-57 0 -106 -16q-45 -16 -78 -47q-31 -31 -49 -74q-16 -39 -16.5 -96 t16.5 -107q16 -45 53 -84q39 -39 98 -71q57 -31 150 -70q82 -35 159 -78q66 -37 121 -92q47 -47 74 -112.5t27 -141.5q0 -102 -35 -174q-37 -76 -103 -129q-63 -51 -157 -80q-96 -29 -209 -28q-102 0 -176 20t-129 59q-49 35 -76 91q-27 57 -27 118zM450 1579v27 q14 18 47 67l49 78l16.5 28.5l14.5 25t14 28.5q22 40 37 74h219v-21q-12 -20 -57 -67q-49 -53 -82 -84l-92 -86q-37 -33 -88 -70h-78z" />
<glyph unicode="&#x15b;" horiz-adv-x="923" d="M92 197q0 37 14 69q10 25 33 43q20 16 41 22.5t41 6.5q0 -61 10 -100q12 -47 37 -84q20 -31 70 -56q41 -20 104 -20q45 0 97 14q45 12 71.5 37t42.5 59q14 31 15 76q0 43 -11 66q-10 25 -41 51q-27 23 -77 49q-74 37 -123 57q-76 33 -137 68q-63 37 -97 70q-41 41 -57 86 q-18 49 -19 116q0 70 27 123q28 55 80 92q53 37 121 56q72 18 158 18q78 0 129 -14q55 -16 94 -41q39 -27 57 -60q18 -35 19 -73q0 -57 -39 -90t-109 -33q0 100 -43 160q-43 57 -133 57q-51 0 -88 -12q-39 -12 -62 -33q-20 -18 -34 -53q-10 -27 -11 -66q0 -41 15 -67 q18 -35 43 -54q29 -23 80 -45q10 -4 32.5 -14l43 -19.5t40.5 -17.5q84 -35 140 -68q59 -35 94 -71q37 -41 55 -88q18 -49 19 -113q0 -76 -29 -139q-27 -57 -82 -101q-51 -39 -127 -61q-70 -20 -166 -20q-68 0 -139 14q-61 12 -107 41q-43 28 -67 67q-25 42 -25 95zM364 1241 v27q14 18 47 67l49 78l16.5 28.5l14.5 25t14 28.5q22 40 37 74h219v-21q-12 -20 -57 -67q-49 -53 -82 -84l-92 -86q-37 -33 -88 -70h-78z" />
<glyph unicode="&#x15c;" horiz-adv-x="1112" d="M98 268q0 63 39 100.5t109 37.5q2 -55 20 -123q15 -58 49 -105q33 -45 84.5 -71.5t122.5 -26.5q138 0 215 67q78 68 78 191q0 53 -16 98q-14 41 -54 80q-37 37 -96 70q-66 37 -151 71q-90 37 -166 84q-76 45 -119 99q-51 61 -70 121q-23 72 -22 151q0 92 33 158 q37 74 94 116q66 49 141 72q82 25 180 25q90 0 162 -19q68 -18 121 -51q49 -31 74 -74q27 -47 26 -86q0 -66 -43 -100q-41 -33 -118 -33q0 55 -11 94q-12 49 -39 84q-29 37 -71 60q-45 23 -109 22q-57 0 -106 -16q-45 -16 -78 -47q-31 -31 -49 -74q-16 -39 -16.5 -96 t16.5 -107q16 -45 53 -84q39 -39 98 -71q57 -31 150 -70q82 -35 159 -78q66 -37 121 -92q47 -47 74 -112.5t27 -141.5q0 -102 -35 -174q-37 -76 -103 -129q-63 -51 -157 -80q-96 -29 -209 -28q-102 0 -176 20t-129 59q-49 35 -76 91q-27 57 -27 118zM271 1579v27 q25 29 53 67l57 78l54 82q29 47 41 74h194q12 -27 41 -74l53 -82l58 -78q29 -39 53 -67v-27h-80q-61 35 -119 84q-49 41 -104 100q-55 -59 -105 -100q-61 -53 -116 -84h-80z" />
<glyph unicode="&#x15d;" horiz-adv-x="923" d="M92 197q0 37 14 69q10 25 33 43q20 16 41 22.5t41 6.5q0 -61 10 -100q12 -47 37 -84q20 -31 70 -56q41 -20 104 -20q45 0 97 14q45 12 71.5 37t42.5 59q14 31 15 76q0 43 -11 66q-10 25 -41 51q-27 23 -77 49q-74 37 -123 57q-76 33 -137 68q-63 37 -97 70q-41 41 -57 86 q-18 49 -19 116q0 70 27 123q28 55 80 92q53 37 121 56q72 18 158 18q78 0 129 -14q55 -16 94 -41q39 -27 57 -60q18 -35 19 -73q0 -57 -39 -90t-109 -33q0 100 -43 160q-43 57 -133 57q-51 0 -88 -12q-39 -12 -62 -33q-20 -18 -34 -53q-10 -27 -11 -66q0 -41 15 -67 q18 -35 43 -54q29 -23 80 -45q10 -4 32.5 -14l43 -19.5t40.5 -17.5q84 -35 140 -68q59 -35 94 -71q37 -41 55 -88q18 -49 19 -113q0 -76 -29 -139q-27 -57 -82 -101q-51 -39 -127 -61q-70 -20 -166 -20q-68 0 -139 14q-61 12 -107 41q-43 28 -67 67q-25 42 -25 95zM189 1241 v27q25 29 53 67l57 78l54 82q29 47 41 74h194q12 -27 41 -74l53 -82l58 -78q29 -39 53 -67v-27h-80q-61 35 -119 84q-49 41 -104 100q-55 -59 -105 -100q-61 -53 -116 -84h-80z" />
<glyph unicode="&#x15e;" horiz-adv-x="1112" d="M98 268q0 63 39 100.5t109 37.5q2 -55 20 -123q15 -58 49 -105q33 -45 84.5 -71.5t122.5 -26.5q138 0 215 67q78 68 78 191q0 53 -16 98q-14 41 -54 80q-37 37 -96 70q-66 37 -151 71q-90 37 -166 84q-76 45 -119 99q-51 61 -70 121q-23 72 -22 151q0 92 33 158 q37 74 94 116q66 49 141 72q82 25 180 25q90 0 162 -19q68 -18 121 -51q49 -31 74 -74q27 -47 26 -86q0 -66 -43 -100q-41 -33 -118 -33q0 55 -11 94q-12 49 -39 84q-29 37 -71 60q-45 23 -109 22q-57 0 -106 -16q-45 -16 -78 -47q-31 -31 -49 -74q-16 -39 -16.5 -96 t16.5 -107q16 -45 53 -84q39 -39 98 -71q57 -31 150 -70q82 -35 159 -78q66 -37 121 -92q47 -47 74 -112.5t27 -141.5q0 -102 -35 -174q-37 -76 -103 -129q-63 -51 -157 -80q-96 -29 -209 -28q-102 0 -176 20t-129 59q-49 35 -76 91q-27 57 -27 118zM318 -365q37 -9 74 -12 q49 -4 65 -4q58 0 92 31q33 31 33 84q0 59 -43 90q-39 29 -111 35l43 159h97l-21 -88q102 -8 150 -57q49 -49 49 -131q0 -111 -70 -172q-72 -61 -200 -62h-35q-8 0 -23.5 3.5t-17.5 3.5l-43 6q-14 2 -39 10v104z" />
<glyph unicode="&#x15f;" horiz-adv-x="923" d="M92 197q0 37 14 69q10 25 33 43q20 16 41 22.5t41 6.5q0 -61 10 -100q12 -47 37 -84q20 -31 70 -56q41 -20 104 -20q45 0 97 14q45 12 71.5 37t42.5 59q14 31 15 76q0 43 -11 66q-10 25 -41 51q-27 23 -77 49q-74 37 -123 57q-76 33 -137 68q-63 37 -97 70q-41 41 -57 86 q-18 49 -19 116q0 70 27 123q28 55 80 92q53 37 121 56q72 18 158 18q78 0 129 -14q55 -16 94 -41q39 -27 57 -60q18 -35 19 -73q0 -57 -39 -90t-109 -33q0 100 -43 160q-43 57 -133 57q-51 0 -88 -12q-39 -12 -62 -33q-20 -18 -34 -53q-10 -27 -11 -66q0 -41 15 -67 q18 -35 43 -54q29 -23 80 -45q10 -4 32.5 -14l43 -19.5t40.5 -17.5q84 -35 140 -68q59 -35 94 -71q37 -41 55 -88q18 -49 19 -113q0 -76 -29 -139q-27 -57 -82 -101q-51 -39 -127 -61q-70 -20 -166 -20q-68 0 -139 14q-61 12 -107 41q-43 28 -67 67q-25 42 -25 95zM246 -365 q37 -9 74 -12q49 -4 65 -4q58 0 92 31q33 31 33 84q0 59 -43 90q-39 29 -111 35l43 159h97l-21 -88q102 -8 150 -57q49 -49 49 -131q0 -111 -70 -172q-72 -61 -200 -62h-35q-8 0 -23.5 3.5t-17.5 3.5l-43 6q-14 2 -39 10v104z" />
<glyph unicode="&#x160;" horiz-adv-x="1112" d="M98 268q0 63 39 100.5t109 37.5q2 -55 20 -123q15 -58 49 -105q33 -45 84.5 -71.5t122.5 -26.5q138 0 215 67q78 68 78 191q0 53 -16 98q-14 41 -54 80q-37 37 -96 70q-66 37 -151 71q-90 37 -166 84q-76 45 -119 99q-51 61 -70 121q-23 72 -22 151q0 92 33 158 q37 74 94 116q66 49 141 72q82 25 180 25q90 0 162 -19q68 -18 121 -51q49 -31 74 -74q27 -47 26 -86q0 -66 -43 -100q-41 -33 -118 -33q0 55 -11 94q-12 49 -39 84q-29 37 -71 60q-45 23 -109 22q-57 0 -106 -16q-45 -16 -78 -47q-31 -31 -49 -74q-16 -39 -16.5 -96 t16.5 -107q16 -45 53 -84q39 -39 98 -71q57 -31 150 -70q82 -35 159 -78q66 -37 121 -92q47 -47 74 -112.5t27 -141.5q0 -102 -35 -174q-37 -76 -103 -129q-63 -51 -157 -80q-96 -29 -209 -28q-102 0 -176 20t-129 59q-49 35 -76 91q-27 57 -27 118zM262 1880v27h80 l26.5 -17.5l32.5 -21.5q20 -14 57 -47l56 -51q28 -25 49 -50q22 25 49 50l55 51q29 27 60 47l32.5 21.5l26.5 17.5h80v-27q-25 -29 -53 -67l-58 -78q-37 -53 -53 -80q-25 -41 -41 -76h-194q-16 35 -41 76q-16 27 -54 80l-57 78q-28 38 -53 67z" />
<glyph unicode="&#x161;" horiz-adv-x="923" d="M92 197q0 37 14 69q10 25 33 43q20 16 41 22.5t41 6.5q0 -61 10 -100q12 -47 37 -84q20 -31 70 -56q41 -20 104 -20q45 0 97 14q45 12 71.5 37t42.5 59q14 31 15 76q0 43 -11 66q-10 25 -41 51q-27 23 -77 49q-74 37 -123 57q-76 33 -137 68q-63 37 -97 70q-41 41 -57 86 q-18 49 -19 116q0 70 27 123q28 55 80 92q53 37 121 56q72 18 158 18q78 0 129 -14q55 -16 94 -41q39 -27 57 -60q18 -35 19 -73q0 -57 -39 -90t-109 -33q0 100 -43 160q-43 57 -133 57q-51 0 -88 -12q-39 -12 -62 -33q-20 -18 -34 -53q-10 -27 -11 -66q0 -41 15 -67 q18 -35 43 -54q29 -23 80 -45q10 -4 32.5 -14l43 -19.5t40.5 -17.5q84 -35 140 -68q59 -35 94 -71q37 -41 55 -88q18 -49 19 -113q0 -76 -29 -139q-27 -57 -82 -101q-51 -39 -127 -61q-70 -20 -166 -20q-68 0 -139 14q-61 12 -107 41q-43 28 -67 67q-25 42 -25 95zM168 1542 v27h80l26.5 -17.5l32.5 -21.5q20 -14 57 -47l56 -51q28 -25 49 -50q22 25 49 50l55 51q29 27 60 47l32.5 21.5l26.5 17.5h80v-27q-25 -29 -53 -67l-58 -78q-37 -53 -53 -80q-25 -41 -41 -76h-194q-16 35 -41 76q-16 27 -54 80l-57 78q-28 38 -53 67z" />
<glyph unicode="&#x162;" horiz-adv-x="1253" d="M41 1104l10 358h1153l10 -358h-106l-10 88q-2 25 -15 65q-8 31 -28.5 53.5t-48.5 35.5q-35 14 -78 14h-199v-1127q0 -45 14 -77q12 -29 35 -45q18 -14 53 -21q20 -4 66 -4h47v-86h-637v86h47q23 0 64 4q33 4 53 19q27 20 37 41q14 33 14 73v1137h-196q-39 0 -76 -14 q-29 -12 -49.5 -35t-28.5 -54q-12 -41 -14 -65l-11 -88h-106zM475 -426q14 55 33 147q23 119 29 154h178v-20q-4 -8 -14.5 -33t-18.5 -39l-45 -82q-14 -27 -47 -82l-45 -72h-70v27z" />
<glyph unicode="&#x163;" horiz-adv-x="720" d="M39 981v82q41 0 82 14.5t78 50.5q37 41 57 91q23 53 37 131h94v-252h268v-117h-268v-690q0 -104 43 -153.5t113 -49.5q27 0 67 4q25 2 64 10v-90q-10 -6 -35 -12q-29 -8 -45 -10q-8 0 -24.5 -3t-26.5 -5q-18 -2 -51 -2q-74 0 -134 16q-53 14 -92 53q-35 35 -53 98 q-18 61 -18 150v684h-156zM266 -426q14 55 33 147q23 119 29 154h178v-20q-4 -8 -14.5 -33t-18.5 -39l-45 -82q-14 -27 -47 -82l-45 -72h-70v27z" />
<glyph unicode="&#x164;" horiz-adv-x="1253" d="M41 1104l10 358h1153l10 -358h-106l-10 88q-2 25 -15 65q-8 31 -28.5 53.5t-48.5 35.5q-35 14 -78 14h-199v-1127q0 -45 14 -77q12 -29 35 -45q18 -14 53 -21q20 -4 66 -4h47v-86h-637v86h47q23 0 64 4q33 4 53 19q27 20 37 41q14 33 14 73v1137h-196q-39 0 -76 -14 q-29 -12 -49.5 -35t-28.5 -54q-12 -41 -14 -65l-11 -88h-106zM324 1880v27h80l26.5 -17.5l32.5 -21.5q20 -14 57 -47l56 -51q28 -25 49 -50q22 25 49 50l55 51q29 27 60 47l32.5 21.5l26.5 17.5h80v-27q-25 -29 -53 -67l-58 -78q-37 -53 -53 -80q-25 -41 -41 -76h-194 q-16 35 -41 76q-16 27 -54 80l-57 78q-28 38 -53 67z" />
<glyph unicode="&#x165;" horiz-adv-x="720" d="M39 981v82q41 0 82 14.5t78 50.5q37 41 57 91q23 53 37 131h94v-252h268v-117h-268v-690q0 -104 43 -153.5t113 -49.5q27 0 67 4q25 2 64 10v-90q-10 -6 -35 -12q-29 -8 -45 -10q-8 0 -24.5 -3t-26.5 -5q-18 -2 -51 -2q-74 0 -134 16q-53 14 -92 53q-35 35 -53 98 q-18 61 -18 150v684h-156zM532 1229v26q14 55 33 148l29 153h178v-20q-2 -6 -14.5 -30.5l-20.5 -41.5l-18.5 -36.5t-24.5 -45.5l-47 -82l-45 -71h-70z" />
<glyph unicode="&#x166;" horiz-adv-x="1253" d="M41 1104l10 358h1153l10 -358h-106l-10 88q-2 25 -15 65q-8 31 -28.5 53.5t-48.5 35.5q-35 14 -78 14h-199v-588h346v-100h-346v-439q0 -45 14 -77q12 -29 35 -45q18 -14 53 -21q20 -4 66 -4h47v-86h-637v86h47q23 0 64 4q33 4 53 19q27 20 37 41q14 33 14 73v449h-342 v100h342v588h-196q-39 0 -76 -14q-29 -12 -49.5 -35t-28.5 -54q-12 -41 -14 -65l-11 -88h-106z" />
<glyph unicode="&#x167;" horiz-adv-x="720" d="M39 981v82q41 0 82 14.5t78 50.5q37 41 57 91q23 53 37 131h94v-252h268v-117h-268v-289h248v-96h-248v-305q0 -104 43 -153.5t113 -49.5q27 0 67 4q25 2 64 10v-90q-10 -6 -35 -12q-29 -8 -45 -10q-8 0 -24.5 -3t-26.5 -5q-18 -2 -51 -2q-74 0 -134 16q-53 14 -92 53 q-35 35 -53 98q-18 61 -18 150v299h-140v96h140v289h-156z" />
<glyph unicode="&#x168;" horiz-adv-x="1466" d="M31 1376v86h596v-86h-27q-35 0 -65 -6q-35 -6 -54 -20q-23 -16 -35 -43q-14 -33 -14 -78v-799q0 -90 24.5 -151.5t71.5 -102.5q41 -35 109 -55q61 -18 137 -19q89 0 154 25q66 25 106 66q43 41 64 100q20 55 20 129v815q0 39 -14 72q-10 25 -37 43q-25 18 -53 20 q-41 4 -64 4h-26v86h514v-86h-27q-35 0 -65 -6q-35 -6 -54 -20q-23 -16 -35 -43q-14 -33 -14 -78v-811q0 -102 -33 -182q-35 -88 -96 -140q-66 -57 -158 -86q-96 -31 -215 -30q-115 0 -217 26q-94 25 -161.5 80t-102.5 143t-35 213v795q0 39 -14 72q-10 25 -37 43 q-25 18 -53 20q-41 4 -64 4h-26zM393 1600q2 43 17 90q12 47 39 78q25 31 67 53q39 20 94 20q57 0 99 -20q57 -29 84 -45l38.5 -22.5t32.5 -20.5q33 -20 66 -20.5t49 7.5q20 10 29 25q12 20 14 35q0 4 3 18.5t5 22.5h92q-2 -43 -16 -90q-10 -35 -41 -78q-23 -31 -63 -53 q-39 -20 -95 -21q-59 0 -100 21l-82 43l-72 45q-33 20 -67 20q-33 0 -49 -8q-20 -10 -29 -25q-6 -10 -14 -34q-4 -12 -9 -41h-92z" />
<glyph unicode="&#x169;" horiz-adv-x="1298" d="M47 1012v86h367v-707q0 -61 10 -119q8 -49 35 -88q25 -37 67.5 -55t102.5 -18q68 0 117 24.5t79 67.5q33 45 47 104q14 57 15 135v422q0 47 -13 78q-10 27 -36 45q-18 14 -54 21q-20 4 -65 4h-6v86h366v-875q0 -46 13 -73q10 -20 36 -41q20 -14 54 -19q41 -4 65 -4h6v-86 h-325l-27 166h-10q-29 -55 -68 -94q-31 -31 -80 -56q-47 -23 -88 -28q-61 -8 -96 -8q-76 0 -143 22q-59 20 -107 74q-45 51 -65 125q-23 80 -23 180v491q0 39 -14 72q-10 25 -37 43q-18 14 -53 21q-20 4 -64 4h-6zM270 1262q2 43 17 90q12 47 39 78q25 31 67 53q39 20 94 20 q57 0 99 -20q57 -29 84 -45l38.5 -22.5t32.5 -20.5q33 -20 66 -20.5t49 7.5q20 10 29 25q12 20 14 35q0 4 3 18.5t5 22.5h92q-2 -43 -16 -90q-10 -35 -41 -78q-23 -31 -63 -53q-39 -20 -95 -21q-59 0 -100 21l-82 43l-72 45q-33 20 -67 20q-33 0 -49 -8q-20 -10 -29 -25 q-6 -10 -14 -34q-4 -12 -9 -41h-92z" />
<glyph unicode="&#x16a;" horiz-adv-x="1466" d="M31 1376v86h596v-86h-27q-35 0 -65 -6q-35 -6 -54 -20q-23 -16 -35 -43q-14 -33 -14 -78v-799q0 -90 24.5 -151.5t71.5 -102.5q41 -35 109 -55q61 -18 137 -19q89 0 154 25q66 25 106 66q43 41 64 100q20 55 20 129v815q0 39 -14 72q-10 25 -37 43q-25 18 -53 20 q-41 4 -64 4h-26v86h514v-86h-27q-35 0 -65 -6q-35 -6 -54 -20q-23 -16 -35 -43q-14 -33 -14 -78v-811q0 -102 -33 -182q-35 -88 -96 -140q-66 -57 -158 -86q-96 -31 -215 -30q-115 0 -217 26q-94 25 -161.5 80t-102.5 143t-35 213v795q0 39 -14 72q-10 25 -37 43 q-25 18 -53 20q-41 4 -64 4h-26zM475 1579v121h594v-121h-594z" />
<glyph unicode="&#x16b;" horiz-adv-x="1298" d="M47 1012v86h367v-707q0 -61 10 -119q8 -49 35 -88q25 -37 67.5 -55t102.5 -18q68 0 117 24.5t79 67.5q33 45 47 104q14 57 15 135v422q0 47 -13 78q-10 27 -36 45q-18 14 -54 21q-20 4 -65 4h-6v86h366v-875q0 -46 13 -73q10 -20 36 -41q20 -14 54 -19q41 -4 65 -4h6v-86 h-325l-27 166h-10q-29 -55 -68 -94q-31 -31 -80 -56q-47 -23 -88 -28q-61 -8 -96 -8q-76 0 -143 22q-59 20 -107 74q-45 51 -65 125q-23 80 -23 180v491q0 39 -14 72q-10 25 -37 43q-18 14 -53 21q-20 4 -64 4h-6zM328 1241v121h594v-121h-594z" />
<glyph unicode="&#x16c;" horiz-adv-x="1466" d="M31 1376v86h596v-86h-27q-35 0 -65 -6q-35 -6 -54 -20q-23 -16 -35 -43q-14 -33 -14 -78v-799q0 -90 24.5 -151.5t71.5 -102.5q41 -35 109 -55q61 -18 137 -19q89 0 154 25q66 25 106 66q43 41 64 100q20 55 20 129v815q0 39 -14 72q-10 25 -37 43q-25 18 -53 20 q-41 4 -64 4h-26v86h514v-86h-27q-35 0 -65 -6q-35 -6 -54 -20q-23 -16 -35 -43q-14 -33 -14 -78v-811q0 -102 -33 -182q-35 -88 -96 -140q-66 -57 -158 -86q-96 -31 -215 -30q-115 0 -217 26q-94 25 -161.5 80t-102.5 143t-35 213v795q0 39 -14 72q-10 25 -37 43 q-25 18 -53 20q-41 4 -64 4h-26zM473 1860h94q18 -72 68 -107q47 -33 125 -33t125 33q49 35 67 107h95q-4 -66 -19 -109q-20 -57 -53 -90q-39 -39 -88 -59q-55 -23 -127 -23t-127 23q-53 23 -88 59q-35 39 -53 90q-15 43 -19 109z" />
<glyph unicode="&#x16d;" horiz-adv-x="1298" d="M47 1012v86h367v-707q0 -61 10 -119q8 -49 35 -88q25 -37 67.5 -55t102.5 -18q68 0 117 24.5t79 67.5q33 45 47 104q14 57 15 135v422q0 47 -13 78q-10 27 -36 45q-18 14 -54 21q-20 4 -65 4h-6v86h366v-875q0 -46 13 -73q10 -20 36 -41q20 -14 54 -19q41 -4 65 -4h6v-86 h-325l-27 166h-10q-29 -55 -68 -94q-31 -31 -80 -56q-47 -23 -88 -28q-61 -8 -96 -8q-76 0 -143 22q-59 20 -107 74q-45 51 -65 125q-23 80 -23 180v491q0 39 -14 72q-10 25 -37 43q-18 14 -53 21q-20 4 -64 4h-6zM348 1522h94q18 -72 68 -107q47 -33 125 -33t125 33 q49 35 67 107h95q-4 -66 -19 -109q-20 -57 -53 -90q-39 -39 -88 -59q-55 -23 -127 -23t-127 23q-53 23 -88 59q-35 39 -53 90q-15 43 -19 109z" />
<glyph unicode="&#x16e;" horiz-adv-x="1466" d="M31 1376v86h596v-86h-27q-35 0 -65 -6q-35 -6 -54 -20q-23 -16 -35 -43q-14 -33 -14 -78v-799q0 -90 24.5 -151.5t71.5 -102.5q41 -35 109 -55q61 -18 137 -19q89 0 154 25q66 25 106 66q43 41 64 100q20 55 20 129v815q0 39 -14 72q-10 25 -37 43q-25 18 -53 20 q-41 4 -64 4h-26v86h514v-86h-27q-35 0 -65 -6q-35 -6 -54 -20q-23 -16 -35 -43q-14 -33 -14 -78v-811q0 -102 -33 -182q-35 -88 -96 -140q-66 -57 -158 -86q-96 -31 -215 -30q-115 0 -217 26q-94 25 -161.5 80t-102.5 143t-35 213v795q0 39 -14 72q-10 25 -37 43 q-25 18 -53 20q-41 4 -64 4h-26zM514 1782q0 53 19 96q16 41 53 70q35 29 78 43t96 14t96 -14.5t78 -42.5q37 -29 53 -70q18 -43 18.5 -96t-18.5 -96q-16 -41 -53 -70q-35 -29 -78 -43t-96 -14t-96 14t-78 43q-37 29 -53 70q-19 43 -19 96zM625 1782q0 -31 10 -58 q6 -18 29 -36q20 -16 43 -23q25 -6 53.5 -6t52.5 6q23 6 43 23q23 18 29 36q10 27 10 58t-10 57q-6 18 -29 37q-20 16 -43 23q-25 6 -53.5 6t-52.5 -6q-23 -6 -43 -23q-23 -18 -29 -37q-10 -26 -10 -57z" />
<glyph unicode="&#x16f;" horiz-adv-x="1298" d="M47 1012v86h367v-707q0 -61 10 -119q8 -49 35 -88q25 -37 67.5 -55t102.5 -18q68 0 117 24.5t79 67.5q33 45 47 104q14 57 15 135v422q0 47 -13 78q-10 27 -36 45q-18 14 -54 21q-20 4 -65 4h-6v86h366v-875q0 -46 13 -73q10 -20 36 -41q20 -14 54 -19q41 -4 65 -4h6v-86 h-325l-27 166h-10q-29 -55 -68 -94q-31 -31 -80 -56q-47 -23 -88 -28q-61 -8 -96 -8q-76 0 -143 22q-59 20 -107 74q-45 51 -65 125q-23 80 -23 180v491q0 39 -14 72q-10 25 -37 43q-18 14 -53 21q-20 4 -64 4h-6zM377 1444q0 53 19 96q16 41 53 70q35 29 78 43t96 14 t96 -14.5t78 -42.5q37 -29 53 -70q18 -43 18.5 -96t-18.5 -96q-16 -41 -53 -70q-35 -29 -78 -43t-96 -14t-96 14t-78 43q-37 29 -53 70q-19 43 -19 96zM488 1444q0 -31 10 -58q6 -18 29 -36q20 -16 43 -23q25 -6 53.5 -6t52.5 6q23 6 43 23q23 18 29 36q10 27 10 58t-10 57 q-6 18 -29 37q-20 16 -43 23q-25 6 -53.5 6t-52.5 -6q-23 -6 -43 -23q-23 -18 -29 -37q-10 -26 -10 -57z" />
<glyph unicode="&#x170;" horiz-adv-x="1466" d="M31 1376v86h596v-86h-27q-35 0 -65 -6q-35 -6 -54 -20q-23 -16 -35 -43q-14 -33 -14 -78v-799q0 -90 24.5 -151.5t71.5 -102.5q41 -35 109 -55q61 -18 137 -19q89 0 154 25q66 25 106 66q43 41 64 100q20 55 20 129v815q0 39 -14 72q-10 25 -37 43q-25 18 -53 20 q-41 4 -64 4h-26v86h514v-86h-27q-35 0 -65 -6q-35 -6 -54 -20q-23 -16 -35 -43q-14 -33 -14 -78v-811q0 -102 -33 -182q-35 -88 -96 -140q-66 -57 -158 -86q-96 -31 -215 -30q-115 0 -217 26q-94 25 -161.5 80t-102.5 143t-35 213v795q0 39 -14 72q-10 25 -37 43 q-25 18 -53 20q-41 4 -64 4h-26zM459 1579v27l45 71q33 53 47 78q10 18 22.5 38t22.5 40q22 40 37 74h219v-21q-12 -18 -31 -43q-12 -16 -45 -53q-25 -29 -53 -57l-57 -58l-56 -53q-10 -10 -28.5 -24.5t-22.5 -18.5h-100zM828 1579v27l45 71q33 53 47 78q10 18 22.5 38 t22.5 40q22 40 37 74h219v-21q-12 -18 -31 -43q-23 -31 -43 -53q-12 -14 -55 -57l-58 -58l-55 -53q-10 -10 -28.5 -24.5t-22.5 -18.5h-100z" />
<glyph unicode="&#x171;" horiz-adv-x="1298" d="M47 1012v86h367v-707q0 -61 10 -119q8 -49 35 -88q25 -37 67.5 -55t102.5 -18q68 0 117 24.5t79 67.5q33 45 47 104q14 57 15 135v422q0 47 -13 78q-10 27 -36 45q-18 14 -54 21q-20 4 -65 4h-6v86h366v-875q0 -46 13 -73q10 -20 36 -41q20 -14 54 -19q41 -4 65 -4h6v-86 h-325l-27 166h-10q-29 -55 -68 -94q-31 -31 -80 -56q-47 -23 -88 -28q-61 -8 -96 -8q-76 0 -143 22q-59 20 -107 74q-45 51 -65 125q-23 80 -23 180v491q0 39 -14 72q-10 25 -37 43q-18 14 -53 21q-20 4 -64 4h-6zM338 1241v27l45 71q33 53 47 78q10 18 22.5 38t22.5 40 q22 40 37 74h219v-21q-12 -18 -31 -43q-12 -16 -45 -53q-25 -29 -53 -57l-57 -58l-56 -53q-10 -10 -28.5 -24.5t-22.5 -18.5h-100zM707 1241v27l45 71q33 53 47 78q10 18 22.5 38t22.5 40q22 40 37 74h219v-21q-12 -18 -31 -43q-23 -31 -43 -53q-12 -14 -55 -57l-58 -58 l-55 -53q-10 -10 -28.5 -24.5t-22.5 -18.5h-100z" />
<glyph unicode="&#x172;" horiz-adv-x="1466" d="M31 1376v86h596v-86h-27q-35 0 -65 -6q-35 -6 -54 -20q-23 -16 -35 -43q-14 -33 -14 -78v-799q0 -90 24.5 -151.5t71.5 -102.5q41 -35 109 -55q61 -18 137 -19q89 0 154 25q66 25 106 66q43 41 64 100q20 55 20 129v815q0 39 -14 72q-10 25 -37 43q-25 18 -53 20 q-41 4 -64 4h-26v86h514v-86h-27q-35 0 -65 -6q-35 -6 -54 -20q-23 -16 -35 -43q-14 -33 -14 -78v-811q0 -102 -33 -182q-35 -88 -96 -140q-66 -57 -158 -86q-96 -31 -215 -30q-115 0 -217 26q-94 25 -161.5 80t-102.5 143t-35 213v795q0 39 -14 72q-10 25 -37 43 q-25 18 -53 20q-41 4 -64 4h-26zM559 -266q0 51 21 92q23 43 53 78q29 31 78 59q43 25 90 37h117q-33 -10 -66 -31q-41 -27 -61 -49q-29 -31 -45 -67q-18 -41 -19 -89q0 -33 10 -59q8 -23 29 -39q23 -18 45 -24q25 -6 58 -7q18 0 59 5q35 4 70 12v-111q-12 -8 -37 -14 q-31 -8 -41 -10l-43 -6q-14 -2 -37 -3q-65 0 -117 13q-49 12 -88 40.5t-57.5 72t-18.5 100.5z" />
<glyph unicode="&#x173;" horiz-adv-x="1298" d="M47 1012v86h367v-707q0 -61 10 -119q8 -49 35 -88q25 -37 67.5 -55t102.5 -18q68 0 117 24.5t79 67.5q33 45 47 104q14 57 15 135v422q0 47 -13 78q-10 27 -36 45q-18 14 -54 21q-20 4 -65 4h-6v86h366v-875q0 -46 13 -73q10 -20 36 -41q20 -14 54 -19q41 -4 65 -4h6v-86 h-325l-27 166h-10q-29 -55 -68 -94q-31 -31 -80 -56q-47 -23 -88 -28q-61 -8 -96 -8q-76 0 -143 22q-59 20 -107 74q-45 51 -65 125q-23 80 -23 180v491q0 39 -14 72q-10 25 -37 43q-18 14 -53 21q-20 4 -64 4h-6zM692 -266q0 51 21 92q23 43 53 78q29 31 78 59q43 25 90 37 h117q-33 -10 -66 -31q-41 -27 -61 -49q-29 -31 -45 -67q-18 -41 -19 -89q0 -33 10 -59q8 -23 29 -39q23 -18 45 -24q25 -6 58 -7q18 0 59 5q35 4 70 12v-111q-12 -8 -37 -14q-31 -8 -41 -10l-43 -6q-14 -2 -37 -3q-65 0 -117 13q-49 12 -88 40.5t-57.5 72t-18.5 100.5z" />
<glyph unicode="&#x174;" horiz-adv-x="2142" d="M18 1376v86h564v-86h-47q-61 0 -92 -24.5t-31 -73.5q0 -16 6 -35q4 -18 10 -41l188 -655q27 -92 50 -182l39 -164q14 74 36 174q31 137 47 194l244 879h148l256 -887q37 -135 51 -196l37 -164q6 29 19 86t16 69q14 61 47 181l180 632q2 12 6 27q2 4 4 14.5t4 16.5 q2 8 4 14t2 12q2 8 2 23q0 51 -34 76q-33 25 -101 24h-47v86h500v-86h-39q-31 0 -53.5 -6t-39 -22.5t-32.5 -49t-31 -81.5l-346 -1217h-184l-334 1147l-313 -1147h-189l-375 1268q-8 29 -22 53q-12 20 -31 33q-14 10 -39 16q-20 6 -53 6h-27zM838 1579v27q25 29 53 67l57 78 l54 82q29 47 41 74h194q12 -27 41 -74l53 -82l58 -78q29 -39 53 -67v-27h-80q-61 35 -119 84q-49 41 -104 100q-55 -59 -105 -100q-61 -53 -116 -84h-80z" />
<glyph unicode="&#x175;" horiz-adv-x="1763" d="M2 1012v86h506v-86h-27q-61 0 -92 -18.5t-31 -67.5q0 -25 4 -41q8 -33 13 -47l96 -344l21 -80q6 -23 20 -88q10 -43 18 -82q4 -14 7.5 -35t5.5 -29h6q0 4 5 25.5t9 34.5l8.5 34.5t10.5 40.5l24 80q4 14 14.5 42t12.5 36l213 619h129l205 -607l26 -79q8 -25 14.5 -47.5 l10.5 -36.5l22 -78q4 -14 8.5 -35t6.5 -29h6q12 68 29 125l51 174l102 330q6 18 14 55q4 20 5 47q0 51 -33 76t-103 25h-14v86h438v-86h-26q-29 0 -51 -6q-27 -8 -41 -23q-12 -12 -31 -49q-16 -33 -31 -82l-264 -852h-164l-244 721l-37 135l-290 -856h-162l-268 903 q-14 35 -25 53q-12 20 -30.5 32.5t-39.5 19.5q-14 4 -51 4h-6zM570 1241v27q25 29 53 67l57 78l54 82q29 47 41 74h194q12 -27 41 -74l53 -82l58 -78q29 -39 53 -67v-27h-80q-61 35 -119 84q-49 41 -104 100q-55 -59 -105 -100q-61 -53 -116 -84h-80z" />
<glyph unicode="&#x176;" horiz-adv-x="1280" d="M-10 1376v86h563v-86h-76q-27 0 -45 -6q-25 -8 -29 -12q-8 -8 -12 -23q-4 -16 -4 -24q0 -29 12 -58q16 -37 25 -51l151 -274q39 -68 62 -125q4 -10 41 -109q4 8 11 24.5t11 24.5l31 58l35 63l35 64l131 235q16 27 29 66q8 27 8 57q0 46 -31 68q-33 23 -92 22h-60v86h500 v-86h-24q-16 0 -41 -8q-16 -6 -39 -25q-22 -18 -43 -49q-23 -33 -47 -77l-344 -607v-377q0 -45 14 -77q12 -29 35 -45q18 -14 53 -21q20 -4 65 -4h48v-86h-637v86h47q25 0 65 4q33 4 54 19q27 20 36 41q12 28 13 73v387l-379 658q-4 6 -11.5 16t-12.5 18.5t-9 14.5 q-16 25 -31 35q-15 12 -37 18q-20 6 -45 6h-26zM342 1579v27q25 29 53 67l57 78l54 82q29 47 41 74h194q12 -27 41 -74l53 -82l58 -78q29 -39 53 -67v-27h-80q-61 35 -119 84q-49 41 -104 100q-55 -59 -105 -100q-61 -53 -116 -84h-80z" />
<glyph unicode="&#x177;" horiz-adv-x="1155" d="M8 1012v86h492v-86h-6q-61 0 -92 -24.5t-31 -74.5q0 -10 4 -34q4 -20 12 -41l150 -365l30 -76q25 -70 29 -82q14 -41 25 -77q10 -33 14 -62h6q4 16 31 109q8 29 45 139l137 399q12 33 14 47q4 29 4 41q0 51 -34.5 76t-100.5 25h-6v86h426v-86h-6q-29 0 -51 -6 q-20 -6 -39 -25q-16 -16 -33 -49q-12 -23 -33 -80l-311 -860q-45 -119 -68 -174q-29 -70 -67 -129q-37 -57 -76 -88q-45 -35 -94 -56q-43 -18 -123 -28q-59 -8 -160 -9h-18v97q104 0 178 30q78 33 131 86.5t90 127t62 159.5l-379 895l-27 53q-10 18 -29 33q-14 12 -38 19 q-14 4 -52 4h-6zM303 1241v27q25 29 53 67l57 78l54 82q29 47 41 74h194q12 -27 41 -74l53 -82l58 -78q29 -39 53 -67v-27h-80q-61 35 -119 84q-49 41 -104 100q-55 -59 -105 -100q-61 -53 -116 -84h-80z" />
<glyph unicode="&#x178;" horiz-adv-x="1280" d="M-10 1376v86h563v-86h-76q-27 0 -45 -6q-25 -8 -29 -12q-8 -8 -12 -23q-4 -16 -4 -24q0 -29 12 -58q16 -37 25 -51l151 -274q39 -68 62 -125q4 -10 41 -109q4 8 11 24.5t11 24.5l31 58l35 63l35 64l131 235q16 27 29 66q8 27 8 57q0 46 -31 68q-33 23 -92 22h-60v86h500 v-86h-24q-16 0 -41 -8q-16 -6 -39 -25q-22 -18 -43 -49q-23 -33 -47 -77l-344 -607v-377q0 -45 14 -77q12 -29 35 -45q18 -14 53 -21q20 -4 65 -4h48v-86h-637v86h47q25 0 65 4q33 4 54 19q27 20 36 41q12 28 13 73v387l-379 658q-4 6 -11.5 16t-12.5 18.5t-9 14.5 q-16 25 -31 35q-15 12 -37 18q-20 6 -45 6h-26zM359 1747q0 35 8 53q12 29 23 37q16 12 32 19q18 6 41 6t41 -6q16 -6 33 -19q10 -8 23 -37q8 -18 8 -53t-8 -53q-8 -20 -22.5 -34.5t-33 -21t-41.5 -6.5q-43 0 -76 27q-28 22 -28 88zM748 1747q0 35 8 53q12 29 23 37 q16 12 32 19q18 6 41 6t41 -6q16 -6 33 -19q10 -8 23 -37q8 -18 8 -53t-8 -53q-8 -20 -22.5 -34.5t-33 -21t-41.5 -6.5q-43 0 -75 27q-29 22 -29 88z" />
<glyph unicode="&#x179;" horiz-adv-x="1210" d="M74 0v82l768 1278h-445q-41 0 -75 -14q-29 -12 -49.5 -35t-28.5 -54q-12 -41 -15 -65l-10 -88h-106l10 358h971v-84l-770 -1276h516q47 0 78 13q27 10 49 37q20 23 28 53q12 41 15 65l10 88h106l-10 -358h-1042zM495 1579v27q14 18 47 67l49 78l16.5 28.5l14.5 25 t14 28.5q22 40 37 74h219v-21q-12 -20 -57 -67q-49 -53 -82 -84l-92 -86q-37 -33 -88 -70h-78z" />
<glyph unicode="&#x17a;" horiz-adv-x="1046" d="M86 0v82l594 899h-320q-39 0 -65.5 -10t-42.5 -33q-18 -27 -27 -51l-22 -72l-2 -8h-86l20 291h785v-84l-596 -897h372q37 0 59.5 14t39.5 37q14 20 24 53q12 41 17 64l10 47h86l-10 -332h-836zM428 1241v27q14 18 47 67l49 78l16.5 28.5l14.5 25t14 28.5q22 40 37 74h219 v-21q-12 -20 -57 -67q-49 -53 -82 -84l-92 -86q-37 -33 -88 -70h-78z" />
<glyph unicode="&#x17b;" horiz-adv-x="1210" d="M74 0v82l768 1278h-445q-41 0 -75 -14q-29 -12 -49.5 -35t-28.5 -54q-12 -41 -15 -65l-10 -88h-106l10 358h971v-84l-770 -1276h516q47 0 78 13q27 10 49 37q20 23 28 53q12 41 15 65l10 88h106l-10 -358h-1042zM520 1768q0 39 8.5 61t24.5 39q12 12 39 20q20 6 45 6 t45 -6q23 -6 37 -20q18 -18 27 -39q8 -23 8 -61q0 -37 -8 -60q-8 -20 -27 -39q-16 -16 -36.5 -22t-45.5 -6t-45 6q-23 6 -39 22.5t-24.5 39t-8.5 59.5z" />
<glyph unicode="&#x17c;" horiz-adv-x="1046" d="M86 0v82l594 899h-320q-39 0 -65.5 -10t-42.5 -33q-18 -27 -27 -51l-22 -72l-2 -8h-86l20 291h785v-84l-596 -897h372q37 0 59.5 14t39.5 37q14 20 24 53q12 41 17 64l10 47h86l-10 -332h-836zM428 1430q0 39 8.5 61t24.5 39q12 12 39 20q20 6 45 6t45 -6q23 -6 37 -20 q18 -18 27 -39q8 -23 8 -61q0 -37 -8 -60q-8 -20 -27 -39q-16 -16 -36.5 -22t-45.5 -6t-45 6q-23 6 -39 22.5t-24.5 39t-8.5 59.5z" />
<glyph unicode="&#x17d;" horiz-adv-x="1210" d="M74 0v82l768 1278h-445q-41 0 -75 -14q-29 -12 -49.5 -35t-28.5 -54q-12 -41 -15 -65l-10 -88h-106l10 358h971v-84l-770 -1276h516q47 0 78 13q27 10 49 37q20 23 28 53q12 41 15 65l10 88h106l-10 -358h-1042zM320 1880v27h80l26.5 -17.5l32.5 -21.5q20 -14 57 -47 l56 -51q28 -25 49 -50q22 25 49 50l55 51q29 27 60 47l32.5 21.5l26.5 17.5h80v-27q-25 -29 -53 -67l-58 -78q-37 -53 -53 -80q-25 -41 -41 -76h-194q-16 35 -41 76q-16 27 -54 80l-57 78q-28 38 -53 67z" />
<glyph unicode="&#x17e;" horiz-adv-x="1046" d="M86 0v82l594 899h-320q-39 0 -65.5 -10t-42.5 -33q-18 -27 -27 -51l-22 -72l-2 -8h-86l20 291h785v-84l-596 -897h372q37 0 59.5 14t39.5 37q14 20 24 53q12 41 17 64l10 47h86l-10 -332h-836zM246 1542v27h80l26.5 -17.5l32.5 -21.5q20 -14 57 -47l56 -51q28 -25 49 -50 q22 25 49 50l55 51q29 27 60 47l32.5 21.5l26.5 17.5h80v-27q-25 -29 -53 -67l-58 -78q-37 -53 -53 -80q-25 -41 -41 -76h-194q-16 35 -41 76q-16 27 -54 80l-57 78q-28 38 -53 67z" />
<glyph unicode="&#x17f;" horiz-adv-x="724" d="M27 0v86h26q45 0 66 4q35 6 53 21q23 16 35 45q14 33 14 77v967q0 90 25 162q23 63 73 119q43 47 113 71q68 25 152 25q74 0 135 -10q45 -8 88 -31q34 -18 49 -43q14 -23 14 -59q0 -55 -47 -86q-43 -29 -121 -29q0 31 -6 61q-6 27 -22 52q-14 20 -41 36q-23 14 -66 15 q-88 0 -121 -68q-33 -66 -32 -196v-986q0 -49 12 -77q12 -27 37 -45q18 -14 53 -21q20 -4 66 -4h77v-86h-632z" />
<glyph unicode="&#x192;" d="M-82 -477l19 96q2 -2 8 -3t10 -1l25 -4q16 -4 26 -4q4 0 12.5 -1t12.5 -1q51 0 90 20q41 23 69 66q31 46 56 116q18 51 43 175l162 833h-207l18 96h207l39 205q20 96 47 156q31 70 80 114q51 49 113 72q63 25 149 25q133 0 197 -41q68 -43 67 -111q0 -66 -45 -100 q-41 -33 -125 -33q0 29 -4 74q-4 35 -16 61q-14 29 -31 41q-20 14 -53 15q-77 0 -117 -62q-41 -63 -65 -192l-43 -224h268l-19 -96h-268l-162 -831q-29 -139 -69 -230q-43 -92 -97 -145q-57 -57 -125 -78q-74 -23 -153 -23h-31q-12 0 -33 5q-6 0 -16 2t-14 2q-16 3 -25 6z " />
<glyph unicode="&#x1f0;" horiz-adv-x="612" d="M-25 -395h15q55 0 98 18q41 16 72 62q29 41 45 116q16 78 16 181v890q0 39 -14 72q-10 25 -37 43q-18 14 -53 21q-20 4 -64 4h-6v86h367v-1114q0 -143 -29 -230q-29 -90 -86 -145q-57 -57 -127 -78q-78 -23 -164 -23h-33v97zM-12 1542v27h80l26.5 -17.5l32.5 -21.5 q20 -14 57 -47l56 -51q28 -25 49 -50q22 25 49 50l55 51q29 27 60 47l32.5 21.5l26.5 17.5h80v-27q-25 -29 -53 -67l-58 -78q-37 -53 -53 -80q-25 -41 -41 -76h-194q-16 35 -41 76q-16 27 -54 80l-57 78q-28 38 -53 67z" />
<glyph unicode="&#x1fa;" horiz-adv-x="1443" d="M0 0v86h39q31 0 51 6q14 4 37 23q16 14 33 43q14 25 35 73l419 1002q-63 23 -100 74q-37 53 -37 131q0 53 19 96q16 41 53 70q35 29 78 43t96 14t96 -14.5t78 -42.5q37 -29 53 -70q18 -43 19 -96q0 -74 -35 -125t-94 -76l432 -1053q16 -37 24 -49q12 -16 29 -29 q20 -14 41 -16q29 -4 51 -4h27v-86h-563v86h47q123 0 123 90q0 10 -4 31q-3 15 -13 37l-82 200h-538l-78 -188q-6 -14 -14 -43q-4 -14 -5 -35q0 -92 136 -92h47v-86h-500zM459 547h450l-121 323l-57 154q-23 59 -45 139l-18 -63q-12 -41 -21 -64q-6 -14 -11 -31.5t-13 -37.5 l-31 -80zM588 1438q0 -29 10 -56q8 -23 29 -39q16 -14 43 -20q33 -8 53 -8t53 8q27 6 43 20q20 16 29 39q10 27 10 56q0 31 -10 57q-6 18 -29 37q-20 16 -43 22q-25 6 -53.5 6.5t-52.5 -6.5q-23 -6 -43 -22q-23 -18 -29 -37q-10 -26 -10 -57zM637 1700v20q2 2 19.5 21.5 t27.5 32.5q14 16 26.5 33.5l20.5 29.5q37 49 47 66q18 27 37 59h219v-16q-10 -12 -55 -54q-35 -33 -82 -69q-18 -14 -52 -38t-42 -30q-41 -29 -88 -55h-78z" />
<glyph unicode="&#x1fb;" horiz-adv-x="1150" d="M102 307q0 164 115 242q117 80 352 86l170 6v123q0 55 -6 102t-26.5 80t-57.5 51.5t-100 18.5q-57 0 -96 -17q-31 -12 -56 -47q-23 -33 -28 -69q-6 -39 -7 -90q-84 0 -129 28.5t-45 100.5q0 51 29 90q27 35 80 61q43 20 117 35q57 10 143 10q94 0 164 -18q71 -18 117 -62 q49 -45 71 -108q23 -61 23 -166v-531q0 -45 6 -71q6 -25 23 -45q14 -18 40 -25q25 -6 58 -6h6v-86h-277l-32 176h-17q-31 -43 -61.5 -80t-67.5 -61q-43 -29 -80 -41q-43 -14 -110 -14q-61 0 -127 20q-55 18 -100 59q-39 37 -66 103q-25 61 -25 145zM301 297q0 -96 41 -143.5 t125 -47.5q66 0 113 21q55 25 86 55q37 37 55 90q18 51 18 119v166l-131 -6q-90 -4 -145 -21q-57 -18 -94 -49q-35 -29 -51.5 -78t-16.5 -106zM328 1417q0 53 18 96q16 41 53 70q35 29 78 43t96.5 14t96.5 -14t78 -43q37 -29 53 -70q18 -43 18 -96t-18 -96q-16 -41 -53 -70 q-35 -29 -78 -43t-96.5 -14t-96.5 14.5t-78 42.5q-37 29 -53 70q-18 43 -18 96zM438 1417q0 -37 11 -57q10 -18 30 -37q20 -16 43 -23q25 -6 51.5 -6t51.5 6q23 6 43 23q20 18 30 37q10 20 11 57q0 35 -11 56q-12 23 -30 38q-20 16 -43 23q-25 6 -51.5 6t-51.5 -6 q-23 -6 -43 -23q-18 -16 -30 -38q-11 -21 -11 -56zM477 1700v20q2 2 19.5 21.5t27.5 32.5q33 41 49 63l45 66q18 27 37 59h219v-16q-2 -4 -57 -54q-35 -33 -82 -69l-92 -68q-41 -29 -88 -55h-78z" />
<glyph unicode="&#x1fc;" horiz-adv-x="1947" d="M0 0v86h33q51 0 96 39q43 37 86 121l592 1120l-160 10v86h1135l10 -358h-106l-11 88q-4 35 -14 63q-14 35 -33 54q-22 22 -55 37q-31 14 -78 14h-344v-545h494v-100h-494v-613h395q47 0 82 13q33 12 58 37q27 27 36 53q12 31 19 65l14 88h107l-15 -358h-1097v86h26 q23 0 64 4q33 4 53 19q23 16 37 41q14 27 14 73v266h-471l-113 -215q-16 -29 -24 -61q-8 -37 -8 -47q0 -41 32 -62q31 -18 91 -18h47v-86h-498zM526 592h418v768h-29q-18 -41 -65 -139l-47.5 -92.5l-46.5 -90.5l-111 -215zM1073 1579v27q14 18 47 67l49 78l16.5 28.5 l14.5 25t14 28.5q22 40 37 74h219v-21q-12 -20 -57 -67q-49 -53 -82 -84l-92 -86q-37 -33 -88 -70h-78z" />
<glyph unicode="&#x1fd;" horiz-adv-x="1720" d="M102 307q0 164 115 242q117 80 352 86l170 6v123q0 55 -6 102t-26.5 80t-57.5 51.5t-100 18.5q-57 0 -96 -17q-31 -12 -56 -47q-23 -33 -28 -69q-6 -39 -7 -90q-84 0 -129 28.5t-45 100.5q0 51 29 90q27 35 80 61q43 20 117 35q57 10 143 10q115 0 194.5 -30.5 t125.5 -94.5q113 125 317 125q98 0 178 -31q76 -29 133 -92q55 -61 86 -153q29 -86 29 -213v-94h-682q2 -109 23 -193q18 -80 57 -131q43 -55 96 -78q57 -25 141 -24q43 0 86 12q53 14 80 29q18 8 66 47q25 18 49 55q14 -6 26.5 -24.5t12.5 -45.5q0 -29 -23 -67 q-18 -33 -65 -66q-35 -25 -111 -49q-63 -20 -155 -20q-147 0 -254 59q-102 57 -162 174q-16 -41 -53 -88q-31 -37 -82 -74q-47 -33 -111 -51q-68 -20 -139 -20q-61 0 -127 20q-55 18 -100 59q-39 37 -66 103q-25 61 -25 145zM301 297q0 -96 41 -143.5t125 -47.5q66 0 113 21 q55 25 86 55q37 37 55 90q18 51 18 119v123v27v16l-131 -6q-90 -4 -145 -21q-57 -18 -94 -49q-35 -29 -51.5 -78t-16.5 -106zM942 645h471q0 80 -12 148q-12 63 -37 114q-25 47 -70 74q-47 27 -104 27q-115 0 -176 -93q-60 -88 -72 -270zM764 1241v27q14 18 47 67l49 78 l16.5 28.5l14.5 25t14 28.5q22 40 37 74h219v-21q-12 -20 -57 -67q-49 -53 -82 -84l-92 -86q-37 -33 -88 -70h-78z" />
<glyph unicode="&#x1fe;" horiz-adv-x="1519" d="M115 735q0 168 41 309q41 139 118 236q82 100 203 152q125 53 285 53q94 0 170 -19q70 -16 143 -55l76 135h119l-107 -192q117 -98 178 -254q61 -158 62 -367q0 -176 -41 -307q-45 -145 -125 -239.5t-203 -151.5q-121 -55 -274 -55q-92 0 -172 18q-86 20 -146 51 l-71 -131h-121l104 188q-123 100 -180 259q-59 161 -59 370zM342 733q0 -150 23 -272q23 -121 73 -203l572 1034q-94 82 -248 82q-115 0 -195 -43t-129 -125q-53 -90 -73 -202q-23 -126 -23 -271zM510 170q96 -80 250 -80q115 0 194.5 43t128.5 127q49 82 70 201 q23 125 23 272q0 145 -23 271q-20 117 -72 202zM649 1579v27q14 18 47 67l49 78l16.5 28.5l14.5 25t14 28.5q22 40 37 74h219v-21q-12 -20 -57 -67q-49 -53 -82 -84l-92 -86q-37 -33 -88 -70h-78z" />
<glyph unicode="&#x1ff;" horiz-adv-x="1181" d="M113 551q0 287 123 428q121 139 358 139q68 0 137 -16q61 -14 117 -47l78 125h118l-114 -189q68 -68 104 -178q35 -104 35 -262q0 -289 -123 -430t-358 -141q-76 0 -133 14q-59 14 -113 43l-74 -119h-121l111 180q-72 72 -108.5 182.5t-36.5 270.5zM311 551 q0 -86 11 -168q10 -76 30 -133l424 686q-68 74 -186 74q-76 0 -129 -29q-52 -28 -86 -86q-35 -59 -49 -143q-15 -80 -15 -201zM412 152q27 -29 77 -50q39 -16 103 -16q80 0 131 31q53 31 86 88q31 53 47 145q14 80 14 201q0 178 -36 285zM471 1241v27q14 18 47 67l49 78 l16.5 28.5l14.5 25t14 28.5q22 40 37 74h219v-21q-12 -20 -57 -67q-49 -53 -82 -84l-92 -86q-37 -33 -88 -70h-78z" />
<glyph unicode="&#x218;" horiz-adv-x="1112" d="M98 268q0 63 39 100.5t109 37.5q2 -55 20 -123q15 -58 49 -105q33 -45 84.5 -71.5t122.5 -26.5q138 0 215 67q78 68 78 191q0 53 -16 98q-14 41 -54 80q-37 37 -96 70q-66 37 -151 71q-90 37 -166 84q-76 45 -119 99q-51 61 -70 121q-23 72 -22 151q0 92 33 158 q37 74 94 116q66 49 141 72q82 25 180 25q90 0 162 -19q68 -18 121 -51q49 -31 74 -74q27 -47 26 -86q0 -66 -43 -100q-41 -33 -118 -33q0 55 -11 94q-12 49 -39 84q-29 37 -71 60q-45 23 -109 22q-57 0 -106 -16q-45 -16 -78 -47q-31 -31 -49 -74q-16 -39 -16.5 -96 t16.5 -107q16 -45 53 -84q39 -39 98 -71q57 -31 150 -70q82 -35 159 -78q66 -37 121 -92q47 -47 74 -112.5t27 -141.5q0 -102 -35 -174q-37 -76 -103 -129q-63 -51 -157 -80q-96 -29 -209 -28q-102 0 -176 20t-129 59q-49 35 -76 91q-27 57 -27 118zM418 -426q14 55 33 147 q23 119 29 154h178v-20q-4 -8 -14.5 -33t-18.5 -39l-45 -82q-14 -27 -47 -82l-45 -72h-70v27z" />
<glyph unicode="&#x219;" horiz-adv-x="923" d="M92 197q0 37 14 69q10 25 33 43q20 16 41 22.5t41 6.5q0 -61 10 -100q12 -47 37 -84q20 -31 70 -56q41 -20 104 -20q45 0 97 14q45 12 71.5 37t42.5 59q14 31 15 76q0 43 -11 66q-10 25 -41 51q-27 23 -77 49q-74 37 -123 57q-76 33 -137 68q-63 37 -97 70q-41 41 -57 86 q-18 49 -19 116q0 70 27 123q28 55 80 92q53 37 121 56q72 18 158 18q78 0 129 -14q55 -16 94 -41q39 -27 57 -60q18 -35 19 -73q0 -57 -39 -90t-109 -33q0 100 -43 160q-43 57 -133 57q-51 0 -88 -12q-39 -12 -62 -33q-20 -18 -34 -53q-10 -27 -11 -66q0 -41 15 -67 q18 -35 43 -54q29 -23 80 -45q10 -4 32.5 -14l43 -19.5t40.5 -17.5q84 -35 140 -68q59 -35 94 -71q37 -41 55 -88q18 -49 19 -113q0 -76 -29 -139q-27 -57 -82 -101q-51 -39 -127 -61q-70 -20 -166 -20q-68 0 -139 14q-61 12 -107 41q-43 28 -67 67q-25 42 -25 95zM319 -426 q14 55 33 147q23 119 29 154h178v-20q-4 -8 -14.5 -33t-18.5 -39l-45 -82q-14 -27 -47 -82l-45 -72h-70v27z" />
<glyph unicode="&#x2bc;" horiz-adv-x="512" d="M61 883v86q100 31 147.5 78t47.5 106q0 23 -10 33q-20 20 -29 24q-6 2 -18.5 10.5t-18.5 10.5q-12 6 -35 24q-16 14 -28 35q-10 18 -11 51q0 59 39 90t95 31q31 0 59 -12q33 -14 51 -33q23 -23 35 -57q12 -33 12 -76q0 -66 -18 -127q-16 -57 -60 -113q-37 -49 -102 -92 q-64 -40 -156 -69z" />
<glyph unicode="&#x2c6;" horiz-adv-x="1181" d="M289 1241v27q25 29 53 67l57 78l54 82q29 47 41 74h194q12 -27 41 -74l53 -82l58 -78q29 -39 53 -67v-27h-80q-61 35 -119 84q-49 41 -104 100q-55 -59 -105 -100q-61 -53 -116 -84h-80z" />
</font>
</defs>
</svg>
