<?xml version="1.0" standalone="no"?>
<!DOCTYPE svg PUBLIC "-//W3C//DTD SVG 1.1//EN" "http://www.w3.org/Graphics/SVG/1.1/DTD/svg11.dtd" >
<svg xmlns="http://www.w3.org/2000/svg">
<metadata>
This is a custom SVG webfont generated by Font Squirrel.
Copyright   : Digitized data copyright  2007 Google Corporation
Foundry     : Ascender Corporation
Foundry URL : httpwwwascendercorpcom
</metadata>
<defs>
<font id="webfontfbadt5K4" horiz-adv-x="1144" >
<font-face units-per-em="2048" ascent="1638" descent="-410" />
<missing-glyph horiz-adv-x="530" />
<glyph unicode=" "  horiz-adv-x="530" />
<glyph unicode="&#x09;" horiz-adv-x="530" />
<glyph unicode="&#xa0;" horiz-adv-x="530" />
<glyph unicode="!" horiz-adv-x="681" d="M123 109q0 72 37 114.5t98 42.5q127 0 127 -125q0 -72 -37 -114.5t-98 -42.5q-127 0 -127 125zM258 412l152 1050h237l-295 -1050h-94z" />
<glyph unicode="&#x22;" horiz-adv-x="835" d="M268 981l41 481h217l-164 -481h-94zM653 981l41 481h217l-163 -481h-95z" />
<glyph unicode="#" d="M68 416l14 121h190l119 401h-244l13 121h266l117 403h125l-119 -403h285l118 403h123l-119 -403h160l-12 -121h-182l-117 -401h233l-14 -121h-258l-121 -416h-123l121 416h-285l-120 -416h-123l121 416h-168zM397 537h285l117 401h-285z" />
<glyph unicode="$" d="M49 352q0 76 51 123q47 45 107 45q0 -135 61 -227q63 -94 164 -115l107 502q-270 135 -271 350q0 166 111 264q109 96 315 107l33 155h102l-32 -155q295 -25 295 -205q0 -141 -166 -141q0 221 -150 254l-104 -492l22 -12q188 -104 236 -174q49 -74 49 -162 q0 -166 -123 -274q-125 -109 -344 -121l-49 -236h-103l52 238q-172 12 -267 88q-96 77 -96 188zM459 1059q0 -117 121 -195l94 447q-215 -37 -215 -252zM535 174q111 8 182 80q68 68 67 170q0 131 -151 211z" />
<glyph unicode="%" horiz-adv-x="1832" d="M135 901q0 213 119 397q117 182 311 183q272 0 273 -326q0 -205 -121 -393q-119 -186 -318 -187q-123 0 -194 84q-70 82 -70 242zM297 870q0 -211 111 -211q113 0 186 177q74 178 74 352q0 211 -111 211q-113 0 -186 -176q-74 -179 -74 -353zM342 0l1028 1462h143 l-1019 -1462h-152zM1040 309q0 215 117 397.5t313 182.5q272 0 273 -326q0 -205 -121 -393q-119 -186 -317 -186q-265 -1 -265 325zM1202 279q0 -211 111 -211q113 0 186 176q74 174 74 352q0 211 -111 211q-113 0 -186.5 -176t-73.5 -352z" />
<glyph unicode="&#x26;" horiz-adv-x="1519" d="M72 362q0 156 96 269q92 109 334 198q-98 166 -99 301q0 168 111 260.5t326 92.5q166 0 256 -72t90 -194q0 -129 -76 -216q-72 -80 -371 -188l287 -393q84 160 129 362l16 80h369l-18 -86h-19q-101 0 -147 -31q-45 -29 -68 -59q-18 -23 -102 -199q-51 -102 -90 -161 l112 -154q66 -86 201 -86h18l-18 -86h-313l-123 170q-184 -190 -453 -190q-209 0 -330 104q-118 104 -118 278zM274 367q0 -119 72 -197q70 -76 195 -76q211 0 368 164l-348 483q-160 -74 -223.5 -155.5t-63.5 -218.5zM600 1145q0 -117 82 -250q174 66 245.5 131.5 t71.5 175.5q0 80 -47 131q-47 49 -127 49q-225 1 -225 -237z" />
<glyph unicode="'" horiz-adv-x="450" d="M260 981l41 481h217l-164 -481h-94z" />
<glyph unicode="(" horiz-adv-x="708" d="M86 381q0 416 199 745q203 336 551 430l-21 -92q-283 -154 -409.5 -518t-126.5 -661q0 -322 190 -453l-20 -94q-363 160 -363 643z" />
<glyph unicode=")" horiz-adv-x="708" d="M-100 -279l20 93q283 154 410 520q127 369 127 659q0 322 -191 453l21 94q362 -156 362 -643q0 -412 -200 -747q-199 -333 -549 -429z" />
<glyph unicode="*" horiz-adv-x="1024" d="M238 1153l358 29l-315 172l104 143l266 -260l17 330l174 -37l-123 -305l350 123l37 -172l-361 -27l318 -170l-102 -139l-271 252l-12 -328l-174 37l119 305l-349 -125z" />
<glyph unicode="+" d="M150 672v121h376v378h123v-378h379v-121h-379v-379h-123v379h-376z" />
<glyph unicode="," horiz-adv-x="512" d="M-57 -299l8 86q209 46 209 172q0 35 -66 78q-68 43 -67 104q0 53 34 88q33 33 93 33q70 0 114.5 -45t44.5 -123q0 -147 -96 -254q-94 -102 -274 -139z" />
<glyph unicode="-" horiz-adv-x="634" d="M29 481l32 154h533l-33 -154h-532z" />
<glyph unicode="." horiz-adv-x="585" d="M90 109q0 72 37 114.5t98 42.5q127 0 127 -125q0 -72 -36.5 -114.5t-98.5 -42.5q-127 0 -127 125z" />
<glyph unicode="/" horiz-adv-x="589" d="M-190 -248l841 1804h129l-841 -1804h-129z" />
<glyph unicode="0" d="M82 473q0 391 170 703q168 309 444 309q180 0 284.5 -123t104.5 -346q0 -391 -167 -717q-166 -322 -441 -322q-182 0 -288.5 131.5t-106.5 364.5zM281 414q0 -324 213 -324q178 0 286 295q106 293 107 670q0 319 -211 319q-180 0 -287 -297q-108 -301 -108 -663z" />
<glyph unicode="1" d="M78 0l16 86h109q98 0 141 37q45 39 59 110l160 754q27 131 76 322h-8q-135 -131 -193 -170q-66 -43 -116 -43q-82 0 -82 110q141 33 335 158l166 106h131l-264 -1245q-8 -33 -8 -57q0 -82 148 -82h110l-18 -86h-762z" />
<glyph unicode="2" d="M-35 0l43 166l481 434q195 176 269 297q76 125 76 277q0 98 -52 151q-53 55 -137 55q-236 0 -291 -309q-145 0 -145 131q0 114 123 197q125 84 323 84q182 0 284.5 -78t102.5 -221q0 -119 -88 -252q-88 -131 -338 -354l-460 -414h475q70 0 114 31q49 33 89 122l14 33h86 l-82 -350h-887z" />
<glyph unicode="3" d="M-6 195q0 68 43 110q41 41 113 41q0 -113 67 -182q68 -72 189 -72q147 0 239 92q94 94 94 254q0 127 -75.5 197t-212.5 70h-89l21 104h66q174 0 286.5 106.5t112.5 278.5q0 186 -174 186q-225 0 -291 -305q-152 0 -152 131q0 121 127 199q125 78 324 78q178 0 276 -78 q100 -80 101 -215q0 -157 -111 -270q-113 -117 -301 -150q147 -15 227 -98q80 -82 80 -211q0 -230 -159 -357q-158 -125 -404 -124q-195 0 -297 59q-100 58 -100 156z" />
<glyph unicode="4" d="M-29 401l19 84l839 977h197l-203 -946h254l-24 -115h-254l-35 -176q-8 -35 -8 -57q0 -82 147 -82h47l-18 -86h-670l17 86h90q98 0 141 37q45 39 59 110l33 168h-631zM162 516h465l80 383q49 238 100 397q-86 -129 -180 -235z" />
<glyph unicode="5" d="M16 184q0 127 154 127q6 -219 223 -219q168 0 258 103q92 104 92 288q0 129 -71 205q-71 74 -191 74q-113 0 -223 -45l-70 14l220 731h684l-56 -309h-86q6 76 6 96q0 49 -94 49h-397l-135 -456q104 33 196 32q203 0 316 -100q115 -102 114 -276q0 -227 -159 -373 q-162 -145 -422 -145q-359 -1 -359 204z" />
<glyph unicode="6" d="M123 475q0 414 198.5 711t501.5 297q145 0 229.5 -53.5t84.5 -131.5q0 -154 -179 -153q0 137 -34.5 188t-104.5 51q-307 0 -459 -602q150 106 302 107q162 0 254 -98.5t92 -260.5q0 -242 -134 -395q-135 -156 -366 -155q-172 0 -278.5 131t-106.5 364zM309 399 q0 -307 211 -307q125 0 205 121q80 119 80 305q0 266 -184 266q-133 0 -283 -118q-29 -169 -29 -267z" />
<glyph unicode="7" d="M184 1092l88 370h916l-12 -59l-801 -1403h-154l758 1298h-539q-113 0 -141 -104l-29 -102h-86z" />
<glyph unicode="8" d="M20 332q0 141 90.5 237.5t315.5 178.5q-201 145 -201 339q0 186 127 291q126 104 363 105q176 0 276.5 -82t100.5 -217q0 -132 -80 -228q-82 -96 -277 -176q260 -150 260 -366q0 -207 -145 -322q-143 -113 -395 -112q-197 0 -316 98t-119 254zM217 328 q0 -113 71.5 -180.5t192.5 -67.5q143 0 231.5 75.5t88.5 209.5q0 106 -67.5 182t-213.5 147q-303 -110 -303 -366zM422 1110q0 -164 215 -281q272 117 272 340q0 100 -55 155.5t-156 55.5q-125 0 -200.5 -73.5t-75.5 -196.5z" />
<glyph unicode="9" d="M72 164q0 49 32 86q31 33 89 33q2 -90 53 -148q49 -55 129 -55q141 0 243 145q100 143 191 477q-135 -139 -313 -139q-160 0 -252 92q-94 94 -94 248q0 248 157 416q156 164 383 164q174 0 274.5 -106.5t100.5 -297.5q0 -393 -188 -747q-186 -352 -519 -352 q-286 0 -286 184zM354 897q0 -113 52 -166q52 -55 141 -55q164 0 295 174q33 141 32 242q0 279 -190 278q-135 0 -233 -143q-97 -142 -97 -330z" />
<glyph unicode=":" horiz-adv-x="587" d="M66 109q0 72 36.5 114.5t98.5 42.5q59 0 94 -35q33 -33 33 -90q0 -72 -37 -114.5t-98 -42.5q-127 0 -127 125zM250 950q0 72 37 115t98 43q127 0 127 -125q0 -74 -37 -117q-35 -41 -98 -41q-127 0 -127 125z" />
<glyph unicode=";" horiz-adv-x="585" d="M37 -299l8 86q209 46 209 172q0 35 -66 78q-68 43 -67 104q0 53 35 88q33 33 92 33q68 0 114 -47q45 -45 46 -121q0 -147 -97 -254q-92 -102 -274 -139zM254 950q0 72 37 115t98 43q127 0 127 -125q0 -74 -37 -117q-35 -41 -98 -41q-127 0 -127 125z" />
<glyph unicode="&#x3c;" d="M150 696v72l878 473v-137l-688 -373l688 -369v-137z" />
<glyph unicode="=" d="M150 469v121h878v-121h-878zM150 872v121h878v-121h-878z" />
<glyph unicode="&#x3e;" d="M150 225v137l688 369l-688 373v137l878 -473v-72z" />
<glyph unicode="?" horiz-adv-x="1024" d="M268 1212q0 113 115 193q111 78 299 78q387 0 387 -340q0 -309 -504 -494l-51 -237h-125l64 303q416 154 415 444q0 98 -55 159.5t-143 61.5q-211 0 -254 -290q-148 -1 -148 122zM279 109q0 72 36.5 114.5t98.5 42.5q59 0 94 -35q33 -33 33 -90q0 -72 -37 -114.5 t-98 -42.5q-127 0 -127 125z" />
<glyph unicode="@" horiz-adv-x="1884" d="M133 446q0 438 270.5 727t681.5 289q322 0 508 -180q184 -178 185 -479q0 -279 -125 -461q-125 -184 -277 -184q-178 0 -241 186h-11q-98 -186 -276 -186q-137 0 -225 94q-86 92 -86 256q0 219 141 397t381 178q117 0 192 -61l82 43h49l-104 -522q-14 -66 -14 -137 q0 -59 34 -101q33 -39 91 -39q100 0 182 151.5t82 391.5q0 254 -156 401q-157 147 -424 148q-317 0 -549 -256q-229 -254 -229 -651q0 -301 164 -469q164 -166 446.5 -166t519.5 170l48 -74q-276 -203 -588 -203q-350 0 -551 194.5t-201 542.5zM727 479q0 -108 43 -160 q43 -53 113 -53q172 0 221 256l78 416q-27 61 -115 61q-156 0 -248 -168t-92 -352z" />
<glyph unicode="A" horiz-adv-x="1443" d="M-115 0l17 86h39q53 0 92 28.5t98 131.5l713 1216h160l194 -1267q8 -63 35 -86t86 -23h27l-17 -86h-557l16 86h48q147 0 147 104q0 33 -4 70l-33 229h-538l-123 -215q-39 -66 -39 -114q0 -74 114 -74h48l-17 -86h-506zM469 592h463l-51 358q-29 209 -33 324 q-47 -115 -160 -305z" />
<glyph unicode="B" horiz-adv-x="1337" d="M-43 0l16 86h27q170 0 201 147l213 1004q8 33 8 57q0 82 -148 82h-26l18 86h531q479 0 479 -307q0 -305 -334 -381l-2 -8q250 -49 250 -299q0 -225 -151.5 -346t-438.5 -121h-643zM379 102h199q391 0 391 379q0 233 -287 234h-172zM530 817h158q365 0 365 311 q0 231 -283 232h-123z" />
<glyph unicode="C" horiz-adv-x="1282" d="M106 528q0 391 242 672q243 283 602 283q176 0 279 -62q100 -61 100 -166q0 -74 -55 -116.5t-146 -42.5q0 279 -204 278q-252 0 -424 -276q-170 -272 -170 -602q0 -383 364 -383q238 0 379 186q27 -18 27 -68q0 -96 -115 -173.5t-313 -77.5q-266 0 -416 143t-150 405z " />
<glyph unicode="D" horiz-adv-x="1484" d="M-43 0l16 86h27q170 0 201 147l213 1004q8 33 8 57q0 82 -148 82h-26l18 86h574q279 0 430 -145.5t151 -411.5q0 -395 -223 -649q-225 -256 -596 -256h-645zM379 104h178q297 0 469 227.5t172 596.5q0 432 -389 432h-162z" />
<glyph unicode="E" horiz-adv-x="1275" d="M-43 0l16 86h27q106 0 145 37q37 35 54 100l213 1006q6 28 6 49q0 49 -29 73.5t-115 24.5h-26l18 86h1032l-65 -358h-107l7 63q4 33 4 56q0 137 -146 137h-344l-117 -545h494l-20 -100h-494l-131 -613h395q174 0 232 168l32 88h107l-90 -358h-1098z" />
<glyph unicode="F" horiz-adv-x="1206" d="M-43 0l16 86h27q96 0 137 33q43 34 62 104l215 1014q8 33 8 57q0 82 -148 82h-26l18 86h1032l-65 -358h-107l4 37q0 23 3 35q4 45 4 47q0 137 -154 137h-336l-127 -592h494l-21 -100h-493l-92 -435q-6 -33 -7 -51q0 -96 142 -96h67l-16 -86h-637z" />
<glyph unicode="G" horiz-adv-x="1460" d="M106 528q0 406 250 680.5t631 274.5q205 0 318 -62q115 -61 114 -159q0 -76 -61.5 -119t-155.5 -43q0 132 -67 203q-68 72 -191 71q-252 0 -434 -262q-180 -260 -180 -616q0 -399 395 -400q111 0 231 29l68 326q8 33 8 57q0 82 -147 82h-19l19 86h545l-19 -86h-8 q-84 0 -121 -37q-39 -39 -53 -111l-78 -368q-215 -94 -463 -94q-283 0 -432.5 143t-149.5 405z" />
<glyph unicode="H" horiz-adv-x="1622" d="M-43 0l16 86h27q98 0 141 37t60 110l213 1004q8 33 8 57q0 82 -148 82h-26l18 86h596l-18 -86h-27q-98 0 -141 -37q-41 -35 -58 -110l-88 -414h666l90 422q8 33 8 57q0 82 -147 82h-27l19 86h596l-19 -86h-26q-98 0 -142 -37q-41 -35 -57 -110l-213 -1004q-8 -33 -8 -57 q0 -82 147 -82h27l-19 -86h-596l17 86h26q98 0 142 37q45 39 59 110l101 480h-666l-102 -488q-8 -39 -9 -57q0 -82 148 -82h26l-18 -86h-596z" />
<glyph unicode="I" horiz-adv-x="751" d="M-43 0l16 86h27q170 0 201 147l213 1004q8 33 8 57q0 82 -148 82h-26l18 86h596l-18 -86h-27q-98 0 -141 -37q-41 -35 -58 -110l-212 -1004q-8 -39 -9 -57q0 -82 148 -82h26l-18 -86h-596z" />
<glyph unicode="J" horiz-adv-x="729" d="M-317 -469l28 92q51 -18 133 -18q119 0 185 90q68 92 108 287l266 1255q8 39 9 57q0 82 -148 82h-26l18 86h596l-18 -86h-27q-98 0 -141 -37q-41 -35 -58 -110l-266 -1245q-55 -248 -172 -363q-115 -113 -320 -113q-87 0 -167 23z" />
<glyph unicode="K" horiz-adv-x="1433" d="M-43 0l16 86h27q98 0 141 37t60 110l213 1004q8 33 8 57q0 82 -148 82h-26l18 86h596l-18 -86h-27q-98 0 -141 -37q-41 -35 -58 -110l-88 -414l-36 -151l528 485q154 141 154 184q0 45 -91 45l17 84h452l-16 -84q-57 0 -118.5 -34.5t-196.5 -157.5l-373 -338l248 -598 q68 -164 194 -164h6l-18 -86h-29q-164 0 -241.5 33t-126.5 157l-199 506l-211 -147l-67 -324q-8 -39 -9 -57q0 -82 148 -82h26l-18 -86h-596z" />
<glyph unicode="L" horiz-adv-x="1275" d="M-41 0l18 86h27q94 0 137 37q39 33 60 110l213 1004q8 33 8 57q0 82 -148 82h-26l18 86h596l-18 -86h-27q-94 0 -139 -35q-41 -33 -57 -104l-242 -1135h403q158 0 219 185l54 153h106l-106 -440h-1096z" />
<glyph unicode="M" horiz-adv-x="1918" d="M-41 0l18 86h27q101 0 141 37q37 35 54 100l215 1014q8 33 8 57q0 82 -148 82h-26l18 86h465l174 -1167l670 1167h457l-19 -86h-26q-98 0 -142 -37q-41 -35 -57 -110l-213 -1004q-8 -33 -8 -57q0 -82 147 -82h27l-19 -86h-544l18 86h6q88 0 121 33q37 37 53 96l234 1094 l-748 -1309h-110l-199 1309l-229 -1084q-8 -39 -9 -57q0 -82 148 -82h26l-18 -86h-512z" />
<glyph unicode="N" horiz-adv-x="1562" d="M-41 0l18 86h27q94 0 137 37q39 33 60 110l213 1004q8 33 8 57q0 82 -148 82h-26l18 86h373l496 -1130l192 905q8 33 8 57q0 82 -147 82h-27l19 86h514l-19 -86h-26q-96 0 -139.5 -36.5t-59.5 -110.5l-260 -1229h-133l-527 1200l-206 -975q-8 -39 -9 -57q0 -82 148 -82 h26l-18 -86h-512z" />
<glyph unicode="O" horiz-adv-x="1519" d="M106 545q0 354 229.5 647t590.5 293q238 0 385 -148q145 -145 145 -415q0 -348 -227 -648q-227 -297 -586 -297q-242 0 -389.5 154t-147.5 414zM330 487q0 -190 88 -294q86 -102 237 -103q256 0 416 282.5t160 604.5q0 193 -84 295t-238 102q-254 0 -417 -284 q-162 -281 -162 -603z" />
<glyph unicode="P" horiz-adv-x="1269" d="M-41 0l18 86h27q96 0 139 37q41 35 58 110l213 1004q8 33 8 57q0 82 -148 82h-26l18 86h525q223 0 344 -102q123 -104 122 -293q0 -231 -157.5 -364.5t-468.5 -133.5h-152l-73 -344q-8 -39 -9 -57q0 -82 148 -82h67l-18 -86h-635zM500 666h108q432 0 432 399 q0 299 -299 299h-94z" />
<glyph unicode="Q" horiz-adv-x="1519" d="M106 545q0 354 229.5 647t590.5 293q238 0 385 -148q145 -145 145 -415q0 -309 -190.5 -598t-513.5 -338q8 -180 61 -264t160 -84q76 0 139 18l14 -86q-100 -33 -202 -33q-375 0 -394 451q-199 33 -311.5 182.5t-112.5 374.5zM330 487q0 -190 88 -294q86 -102 237 -103 q256 0 416 282.5t160 604.5q0 193 -84 295t-238 102q-254 0 -417 -284q-162 -281 -162 -603z" />
<glyph unicode="R" horiz-adv-x="1323" d="M-76 0l19 86h26q101 0 142 37q37 35 53 100l215 1014q8 33 8 57q0 82 -147 82h-27l18 86h537q469 0 469 -348q0 -338 -379 -428l148 -438q37 -106 73 -133q39 -29 95 -29h16l-16 -86h-27q-174 0 -250 47q-72 45 -115 193l-118 405h-203l-90 -420q-8 -39 -9 -57 q0 -82 148 -82h68l-19 -86h-635zM481 741h158q184 0 282.5 92.5t98.5 268.5q0 137 -59 198q-61 63 -209 64h-140z" />
<glyph unicode="S" horiz-adv-x="1112" d="M14 272q0 68 45 113q43 43 113 43q0 -156 84 -252t227 -96q139 0 228 72q84 70 84 192q0 98 -47 164q-45 61 -211 157.5t-228 194.5q-63 100 -63 227q0 176 135 287q133 109 362 109q174 0 283 -62q106 -61 107 -159q0 -141 -181 -142q0 121 -57 190.5t-168 69.5 q-125 0 -201 -69q-78 -72 -77 -189q0 -86 43 -151q43 -63 210 -162q164 -96 232 -186q72 -94 72 -213q0 -201 -142 -316q-143 -115 -395 -114q-207 0 -332 83q-123 83 -123 209z" />
<glyph unicode="T" horiz-adv-x="1253" d="M156 1104l86 358h1153l-66 -358h-106q10 88 10 125q0 131 -135 131h-199l-242 -1135q-8 -33 -8 -57q0 -82 148 -82h47l-19 -86h-637l19 86h47q106 0 143 35t54 102l241 1137h-196q-147 0 -205 -168l-29 -88h-106z" />
<glyph unicode="U" horiz-adv-x="1492" d="M197 334q0 80 22 182l152 721q8 33 8 57q0 82 -148 82h-26l18 86h596l-16 -86h-27q-96 0 -139 -36.5t-62 -110.5l-153 -723q-25 -117 -25 -191q0 -213 295 -213q164 0 262.5 74t135.5 246l174 815q8 33 8 57q0 82 -148 82h-26l18 86h514l-16 -86h-27q-96 0 -139 -36.5 t-62 -110.5l-172 -811q-92 -438 -552 -438q-223 0 -344 92t-121 262z" />
<glyph unicode="V" horiz-adv-x="1380" d="M168 1376l18 86h557l-16 -86h-47q-66 0 -107 -28.5t-41 -75.5t5 -70l81 -665q20 -164 21 -336q74 170 166 336l364 651q39 70 39 115q0 74 -114 73h-47l16 86h506l-19 -86h-39q-70 0 -104 -35q-33 -33 -84 -124l-682 -1217h-149l-175 1268q-8 57 -34 84q-25 25 -88 24 h-27z" />
<glyph unicode="W" horiz-adv-x="2138" d="M182 1376l19 86h557l-19 -86h-47q-147 0 -147 -104q0 -33 4 -70l49 -655q14 -174 14 -346q92 217 168 368l430 879h148l67 -887q11 -142 11 -286v-74q92 215 153 336l326 651q39 76 39 115q0 74 -115 73h-49l16 86h500l-18 -86h-39q-63 0 -103 -33q-37 -31 -86 -126 l-604 -1217h-188l-92 1135l-551 -1135h-187l-106 1268q-6 53 -31 82q-25 27 -92 26h-27z" />
<glyph unicode="X" horiz-adv-x="1351" d="M-100 0l18 86h8q66 0 119 35q47 31 123 112l453 494l-220 545q-43 104 -159 104h-27l18 86h555l-18 -86h-47q-96 0 -96 -57q0 -28 37 -123l116 -299l256 295q78 90 78 133q0 51 -98 51h-6l18 86h449l-19 -86h-18q-57 0 -101 -30q-49 -35 -131 -123l-387 -428l246 -600 q47 -109 141 -109h27l-18 -86h-553l18 86h23q63 0 96 20q35 23 35 52q0 45 -39 141l-133 326l-306 -340q-82 -90 -82 -144q0 -55 121 -55h6l-18 -86h-485z" />
<glyph unicode="Y" horiz-adv-x="1280" d="M158 1376l18 86h553l-18 -86h-103q-84 0 -84 -55q0 -41 27 -119l92 -274q49 -147 55 -246q31 55 154 215l195 260q76 104 75 166q0 53 -98 53h-76l19 86h506l-19 -86h-39q-35 0 -78 -33q-35 -27 -108 -122l-477 -625l-80 -371q-8 -33 -8 -57q0 -82 147 -82h47l-18 -86 h-637l18 86h47q106 0 143.5 35t53.5 102l80 377l-238 668q-20 61 -45 86q-23 23 -78 22h-26z" />
<glyph unicode="Z" horiz-adv-x="1236" d="M-35 0l17 82l1030 1278h-477q-150 0 -205 -168l-29 -88h-106l86 358h1011l-16 -84l-1032 -1276h547q152 0 206 168l29 88h107l-86 -358h-1082z" />
<glyph unicode="[" horiz-adv-x="733" d="M10 -262l387 1818h457l-18 -86h-88q-96 0 -140 -36q-45 -39 -59 -111l-291 -1360q-8 -33 -8 -57q0 -82 147 -82h88l-18 -86h-457z" />
<glyph unicode="\" horiz-adv-x="589" d="M231 1556h119l88 -1804h-121z" />
<glyph unicode="]" horiz-adv-x="735" d="M-96 -262l18 86h88q96 0 140 37q41 35 57 110l291 1360q8 33 8 58q0 82 -148 81h-88l19 86h456l-387 -1818h-454z" />
<glyph unicode="^" d="M121 545l432 917h72l430 -917h-137l-330 729l-330 -729h-137z" />
<glyph unicode="_" horiz-adv-x="937" d="M-186 -291l26 121h959l-27 -121h-958z" />
<glyph unicode="`" horiz-adv-x="1181" d="M565 1548l6 21h205q66 -162 137 -301l-6 -27h-78q-153 150 -264 307z" />
<glyph unicode="a" horiz-adv-x="1185" d="M88 354q0 281 176 522.5t434 241.5q138 0 240 -74l90 52h66l-140 -656q-31 -141 -30 -227q0 -104 67 -104q57 0 148 53l37 -60q-147 -123 -289 -122q-160 0 -160 170q0 70 21 159h-13q-147 -330 -383 -329q-123 0 -194 98q-70 96 -70 276zM297 346.5q0 -237.5 129 -237.5 q102 0 213 151q113 154 149 330l76 362q-45 74 -155 74q-172 0 -293 -223q-119 -219 -119 -456.5z" />
<glyph unicode="b" horiz-adv-x="1150" d="M55 -6l271 1272q18 82 18 108q0 96 -143 96h-17l19 86h387l-98 -460q-22 -98 -74 -271h10q152 293 375 293q123 0 190 -94q70 -98 70 -276q0 -283 -176 -527q-174 -242 -434 -241q-147 0 -240 73l-92 -59h-66zM285 145q61 -74 159 -73q176 0 293 227t117 451 q0 240 -129 239q-113 0 -219 -155q-104 -152 -133 -283z" />
<glyph unicode="c" horiz-adv-x="995" d="M88 403q0 267 172 492q172 223 438 223q139 0 219 -55t80 -141q0 -61 -49 -103q-51 -41 -133 -41q0 109 -43 176q-41 66 -115 66q-143 0 -249.5 -213t-106.5 -420q0 -279 225 -278q178 0 295 147q20 -12 21 -51q0 -82 -96.5 -153.5t-258.5 -71.5q-178 0 -288.5 112 t-110.5 311z" />
<glyph unicode="d" horiz-adv-x="1185" d="M88 354q0 281 176 522.5t434 241.5q115 0 201 -49q12 82 23 115l20 98q14 63 14 92q0 96 -143 96h-16l18 86h377l-238 -1116q-31 -141 -30 -227q0 -104 67 -104q57 0 148 53l37 -60q-147 -123 -289 -122q-160 0 -160 170q0 70 21 159h-13q-147 -330 -383 -329 q-123 0 -194 98q-70 96 -70 276zM297 346.5q0 -237.5 129 -237.5q102 0 213 151q113 154 149 330l76 362q-45 74 -155 74q-172 0 -293 -223q-119 -219 -119 -456.5z" />
<glyph unicode="e" horiz-adv-x="1009" d="M88 403q0 267 172 492q172 223 438 223q129 0 201 -61.5t72 -173.5q0 -166 -172 -289t-422 -123h-35q-25 0 -37 2q-4 -37 -4 -86q0 -279 225 -278q175 0 295 147q20 -12 21 -51q0 -82 -96.5 -153.5t-258.5 -71.5q-178 0 -288.5 112t-110.5 311zM324 567h20q184 0 299 88 q117 90 117 227.5t-119 137.5q-98 0 -184 -125q-88 -129 -133 -328z" />
<glyph unicode="f" horiz-adv-x="649" d="M-287 -475l19 94q49 -14 94 -14q96 0 156 86q55 82 102 291l215 999h-186l12 74l197 43l22 112q72 367 389 367q133 0 197 -41q68 -43 67 -111q0 -133 -170 -133q0 190 -104 191q-74 0 -117 -62q-39 -57 -65 -192l-27 -131h227l-22 -117h-230l-213 -997 q-51 -244 -155 -361q-102 -115 -289 -115q-64 1 -119 17z" />
<glyph unicode="g" horiz-adv-x="1138" d="M-72 -225q0 111 90 188q88 76 244 107q-98 49 -98 141q0 61 41 106t153 103q-143 68 -143 242q0 172 131 315q129 141 344 141q129 0 211 -65q98 145 221 145q102 0 103 -94q0 -127 -121 -127q0 74 -57 74q-37 0 -101 -47q45 -63 45 -158q0 -170 -129 -316 q-129 -143 -340 -143q-41 0 -65 4q-145 -57 -146 -129q0 -52 105 -61l196 -21q317 -33 318 -268q0 -190 -143.5 -297t-411.5 -107q-447 1 -447 267zM94 -213q0 -178 289 -178q178 0 274 67q94 68 95 179q0 133 -191 151l-199 19q-18 0 -88 -21q-78 -23 -127 -78 q-53 -59 -53 -139zM403 653q0 -168 142 -168q119 0 188 117q72 119 72 254q0 168 -141 168q-120 0 -191 -117q-70 -115 -70 -254z" />
<glyph unicode="h" horiz-adv-x="1226" d="M90 0l266 1266q18 90 19 108q0 96 -144 96h-16l18 86h377l-80 -376q-41 -184 -81 -340h22q168 276 379 276q219 0 219 -227q0 -66 -37 -225l-53 -242q-27 -119 -27 -215q0 -98 72 -98q59 0 131 47l37 -60q-135 -117 -250 -116q-86 0 -135 55q-51 57 -51 149q0 96 39 277 l47 213q31 123 30 190q0 121 -94 121q-117 0 -235 -156q-121 -160 -152 -305l-110 -524h-191z" />
<glyph unicode="i" horiz-adv-x="622" d="M127 1012l18 86h367l-139 -658q-31 -147 -31 -227q0 -104 68 -104q57 0 147 53l37 -60q-141 -123 -277 -122q-77 0 -122 55q-47 57 -48 139q0 96 46 322l79 376q6 33 7 54q0 86 -125 86h-27zM344 1415q0 66 33 105t90 39q115 0 115 -113q0 -68 -35 -107q-35 -37 -88 -36 q-115 -1 -115 112z" />
<glyph unicode="j" horiz-adv-x="595" d="M-287 -475l19 94q49 -14 94 -14q104 0 162 92q59 92 98 287l188 888q6 33 7 54q0 86 -125 86h-27l18 86h367l-235 -1114q-53 -246 -156 -361t-291 -115q-64 1 -119 17zM346 1415q0 66 33 105t90 39q115 0 115 -113q0 -68 -35 -107q-33 -37 -88 -36q-115 -1 -115 112z" />
<glyph unicode="k" horiz-adv-x="1163" d="M90 0l266 1266q18 90 19 108q0 96 -144 96h-16l18 86h377l-80 -376q-111 -520 -159 -674l323 280q152 133 152 193q0 31 -92 31l18 86h453l-19 -86q-121 0 -329 -191l-185 -170l187 -405q80 -172 208 -172l-18 -86q-172 0 -250 39q-80 40 -135 172l-133 327l-186 -118 l-84 -406h-191z" />
<glyph unicode="l" horiz-adv-x="622" d="M150 174q0 102 45 322l167 786q12 61 13 92q0 96 -144 96h-24l18 86h387l-237 -1116q-31 -147 -31 -227q0 -104 68 -104q57 0 147 53l37 -60q-141 -123 -277 -122q-78 0 -122 55q-47 57 -47 139z" />
<glyph unicode="m" horiz-adv-x="1832" d="M90 0l172 823q12 58 12 92q0 96 -143 97h-16l18 86h379l-55 -258h20q166 276 373 276q219 0 219 -227q0 -16 -4 -49h20q166 276 373 276q219 0 219 -227q0 -66 -37 -225l-53 -242q-27 -129 -26 -215q0 -98 71 -98q59 0 131 47l37 -60q-129 -117 -250 -116q-83 0 -135 55 q-51 53 -51 149.5t39 276.5l35 160q43 197 43 243q0 121 -95 121q-106 0 -217 -135q-113 -139 -157 -281l-33 -147q-20 -88 -37 -219q-23 -170 -22 -203h-195q0 33 27 213q25 164 43 248l47 213q31 123 30 190q0 121 -94 121q-117 0 -235 -156q-121 -160 -152 -305 l-110 -524h-191z" />
<glyph unicode="n" horiz-adv-x="1226" d="M90 0l172 823q12 58 12 92q0 96 -143 97h-16l18 86h379l-55 -258h20q166 276 373 276q219 0 219 -227q0 -66 -37 -225l-53 -242q-27 -119 -27 -215q0 -98 72 -98q59 0 131 47l37 -60q-135 -117 -250 -116q-86 0 -135 55q-51 57 -51 149q0 96 39 277l47 213q31 123 30 190 q0 121 -94 121q-114 0 -233.5 -153.5t-153.5 -307.5l-110 -524h-191z" />
<glyph unicode="o" horiz-adv-x="1175" d="M88 403q0 279 168 496q170 219 442 219q180 0 284.5 -108.5t104.5 -315.5q0 -270 -167 -493q-166 -221 -439 -221q-182 0 -288 112q-105 110 -105 311zM301 362q0 -283 203 -282q168 0 270 201q100 199 100 444q0 285 -200 285q-166 0 -271 -201q-102 -197 -102 -447z " />
<glyph unicode="p" horiz-adv-x="1181" d="M-14 -492l272 1299q18 86 18 108q0 96 -143 97h-16l18 86h363l-49 -273h10q147 293 375 293q125 0 192 -94q68 -95 68 -276q0 -274 -172 -521q-174 -248 -439 -247q-117 0 -200 47q-12 -80 -17 -99l-28 -125q-18 -86 -19 -114q0 -94 143 -95h27l-18 -86h-385zM315 145 q66 -74 162 -73q170 0 289 223t119 455q0 240 -129 239q-104 0 -213 -147q-111 -152 -144 -307z" />
<glyph unicode="q" horiz-adv-x="1146" d="M88 354q0 281 176 522.5t434 241.5q125 0 228 -55l51 29q47 27 51 26h72l-283 -1335q-12 -58 -12 -92q0 -96 141 -97h17l-19 -86h-373l86 410l91 391h-13q-152 -330 -383 -329q-123 0 -194 98q-70 96 -70 276zM297 344q0 -236 129 -235q100 0 213 149q109 145 149 332 l76 362q-45 74 -155 74q-180 0 -295 -225q-117 -228 -117 -457z" />
<glyph unicode="r" horiz-adv-x="956" d="M90 0l172 823q12 58 12 92q0 96 -163 97h-17l19 86h362l-43 -295h21q84 186 161 250q82 66 187 65q168 0 168 -141q0 -156 -170 -156q0 162 -82 162q-94 0 -201 -186q-104 -182 -158 -424l-77 -373h-191z" />
<glyph unicode="s" horiz-adv-x="948" d="M51 211q0 68 37 100q39 35 92 35q0 -126 62 -196q61 -72 172 -72q221 0 221 190q0 72 -47 123t-160 103q-147 70 -197 145q-51 78 -51 172q0 135 109 219q111 86 286 86q150 0 236 -55q84 -53 84 -139q0 -127 -154 -127q0 104 -49 165.5t-135 61.5q-94 0 -145 -49 q-53 -49 -54 -127q0 -68 51.5 -117t157.5 -94q246 -111 246 -318q0 -152 -117 -243q-119 -94 -307 -94q-152 0 -246 63q-92 62 -92 168z" />
<glyph unicode="t" horiz-adv-x="753" d="M141 981l19 82q199 0 313 287h94l-53 -252h248l-25 -117h-248l-124 -584q-25 -117 -25 -176q0 -113 109 -112q86 0 167 45l35 -76q-138 -98 -276 -98q-223 0 -223 239q0 82 20 172l125 590h-156z" />
<glyph unicode="u" horiz-adv-x="1226" d="M117 1012l18 86h381l-135 -613q-41 -193 -41 -247q0 -125 100 -125q102 0 226 151q123 150 159 324l107 510h198l-141 -658q-31 -144 -31 -227q0 -104 68 -104q59 0 131 45l37 -60q-131 -115 -260 -114q-78 0 -125 55q-47 57 -47 139q0 45 10 121h-16 q-109 -180 -199 -248q-88 -66 -197 -65q-219 0 -219 227q0 66 37 225l80 359q18 80 18 122q0 96 -143 97h-16z" />
<glyph unicode="v" horiz-adv-x="1101" d="M35 1012l16 86h307l95 -606q33 -207 47 -363h6q154 147 264 344q113 201 113 315q0 68 -35 113q-34 43 -92 43q0 72 41 119q39 45 98 45q139 0 139 -190q0 -184 -141 -435q-143 -254 -369 -481l-184 -20l-143 921q-18 109 -142 109h-20z" />
<glyph unicode="w" horiz-adv-x="1675" d="M76 1012l28 86h308q6 -433 6 -934h8q262 463 457 915l170 8q43 -539 43 -937h14q176 217 276 405q109 201 109 319q0 96 -88 123q18 121 121 121q109 0 108 -153q0 -295 -514 -963l-202 -22l-31 886q-84 -203 -432 -860l-211 -24l-15 882q0 72 -28 111q-27 37 -107 37 h-20z" />
<glyph unicode="x" horiz-adv-x="1116" d="M-41 0l23 86h26q55 0 98 25q35 20 115 116l262 318l-133 319q-37 90 -65 121q-25 27 -82 27h-27l17 86h272l156 -414l272 414h262l-33 -86h-26q-59 0 -100.5 -29t-112.5 -119l-215 -276l141 -355q37 -94 61.5 -120.5t85.5 -26.5h27l-16 -86h-275l-166 451l-307 -451h-260 z" />
<glyph unicode="y" horiz-adv-x="1079" d="M-332 -455l31 103q74 -23 160 -23q293 0 575 373l-270 905q-18 59 -49 84t-92 25h-21l16 86h299l160 -553q74 -258 86 -371h6q276 420 277 680q0 111 -101 111q0 72 39 110q41 41 95 41q139 0 139 -172q0 -246 -277 -694q-274 -444 -442 -594q-166 -147 -438 -148 q-107 0 -193 37z" />
<glyph unicode="z" horiz-adv-x="1046" d="M-2 0l16 82l697 899h-260q-68 0 -109 -35q-37 -31 -84 -131l-4 -8h-86l82 291h717l-17 -84l-698 -897h364q47 0 88 30.5t87 137.5l20 47h86l-80 -332h-819z" />
<glyph unicode="{" horiz-adv-x="876" d="M139 606v86q242 6 242 215v357q0 293 295 292h135v-88h-61q-168 0 -168 -215v-350q0 -215 -228 -252v-2q227 -39 228 -254v-354q0 -215 168 -215h61v-88h-135q-139 0 -217 78t-78 217v356q0 211 -242 217z" />
<glyph unicode="|" d="M526 -492v2048h123v-2048h-123z" />
<glyph unicode="}" horiz-adv-x="876" d="M129 -174h61q168 0 168 215v354q0 215 228 254v2q-227 37 -228 252v350q0 215 -168 215h-61v88h135q295 0 295 -292v-357q0 -209 242 -215v-86q-242 -6 -242 -217v-356q0 -139 -78 -217t-217 -78h-135v88z" />
<glyph unicode="~" horiz-adv-x="1148" d="M129 551q27 358 258 358q94 0 248 -135q109 -102 168 -102q57 0 84 61q25 55 41 176h123q-39 -358 -258 -358q-96 0 -238 129q-119 109 -176 108q-59 0 -88 -59q-29 -61 -41 -178h-121z" />
<glyph unicode="&#xa1;" horiz-adv-x="681" d="M23 -367l294 1051h95l-152 -1051h-237zM285 954q0 72 36.5 115t98.5 43q127 0 127 -125q0 -72 -37 -115t-98 -43q-127 0 -127 125z" />
<glyph unicode="&#xa2;" d="M172 600q0 248 156 469q154 219 405 244l33 149h102l-32 -151q117 -12 180 -64q66 -53 65 -129q0 -61 -49 -102q-51 -41 -133 -41q0 166 -88 221l-188 -891q169 6 282 148q20 -14 21 -52q0 -80 -88 -149.5t-242 -75.5l-37 -176h-102l39 182q-157 25 -240 135 q-84 113 -84 283zM385 584q0 -211 139 -265l189 893q-137 -25 -234 -231q-94 -202 -94 -397z" />
<glyph unicode="&#xa3;" d="M-2 80l72 41q295 169 295 442q0 55 -15 127h-227l22 103h189q-27 121 -27 206q0 225 135.5 354.5t364.5 129.5q156 0 248 -55.5t92 -145.5q0 -162 -170 -162q0 260 -201 260q-141 0 -215 -96t-74 -272q0 -76 29 -219h348l-22 -103h-312q6 -43 7 -108q0 -238 -258 -389 l2 -9q84 37 157 37q61 0 178 -39q115 -39 160 -39q113 0 205 93l55 -68q-184 -188 -348 -188q-63 0 -188 47q-121 45 -199 45q-119 0 -238 -60l-28 -14z" />
<glyph unicode="&#xa4;" d="M147 379l134 135q-68 98 -68 219q0 125 70 219l-136 135l86 87l134 -136q100 72 221 72q115 0 217 -72l137 138l86 -89l-135 -135q72 -100 72 -219t-72 -219l135 -135l-84 -86l-137 135q-102 -70 -219 -70q-125 0 -219 70l-136 -135zM328 733q0 -106 77.5 -184t182.5 -78 q106 0 184 78t78 184q0 111 -76 187q-78 78 -186 77q-106 0 -185 -77q-75 -76 -75 -187z" />
<glyph unicode="&#xa5;" horiz-adv-x="1103" d="M121 0l18 86h47q104 0 144 37q41 39 53 100l29 139h-287l20 97h287l31 143h-287l21 96h247l-157 570q-14 57 -39 84q-23 25 -84 24h-6l18 86h479l-18 -86h-4q-68 0 -104.5 -12t-36.5 -57q0 -41 24 -131l53 -220q35 -150 43 -249q23 43 107 167l170 250q92 135 92 193 q0 59 -111 59h-6l19 86h417l-18 -86h-18q-47 0 -78 -24.5t-111 -134.5l-360 -519h254l-21 -96h-286l-31 -143h287l-21 -97h-287l-28 -137q-8 -39 -9 -57q0 -82 148 -82h47l-18 -86h-629z" />
<glyph unicode="&#xa6;" d="M526 328h123v-820h-123v820zM526 737v819h123v-819h-123z" />
<glyph unicode="&#xa7;" horiz-adv-x="1112" d="M41 -4q0 66 37 100q39 35 92 35q0 -119 67.5 -192.5t182.5 -73.5q126 0 203 67q78 68 77 174q0 66 -51 125q-51 61 -241 162q-227 123 -228 330q0 168 180 278q-49 83 -49 185q0 166 123 268q125 102 314 102q144 0 233 -61q90 -61 90 -143q0 -74 -37 -109 q-35 -33 -129 -33q0 115 -49 182.5t-145 67.5q-100 0 -170 -55q-72 -55 -72 -154q0 -84 41 -133q47 -57 229 -155q250 -135 250 -318q0 -170 -178 -309q41 -78 41 -152q0 -180 -127 -301q-125 -119 -336 -119q-158 0 -252 64q-96 66 -96 168zM324 799q0 -72 51 -129 q49 -55 186 -131q127 -72 199 -138q76 82 76 156q0 125 -211 238q-150 82 -219 149q-82 -61 -82 -145z" />
<glyph unicode="&#xa8;" horiz-adv-x="1181" d="M412 1397q0 129 110 129q102 0 103 -103q0 -129 -111 -129q-102 1 -102 103zM801 1397q0 129 110 129q102 0 103 -103q0 -129 -111 -129q-102 1 -102 103z" />
<glyph unicode="&#xa9;" horiz-adv-x="1730" d="M129 731q0 311 221 532.5t530.5 221.5t530.5 -221q223 -223 223 -532.5t-221 -530.5t-532.5 -221t-532.5 221q-219 219 -219 530zM242 731q0 -264 186 -450q188 -188 452.5 -188.5t453 188t188.5 450.5q0 264 -188.5 452.5t-452.5 188.5q-266 0 -452.5 -188.5 t-186.5 -452.5zM481 733q0 209 117 332q115 121 322 121q135 0 206 -39q74 -41 74 -107q0 -43 -39 -69.5t-100 -26.5q0 156 -146 156q-266 0 -266 -367q0 -174 70 -272q68 -96 199 -96q172 0 251 139q29 -23 29 -64q0 -66 -84 -114q-82 -49 -223 -50q-195 0 -301 119 q-109 121 -109 338z" />
<glyph unicode="&#xaa;" horiz-adv-x="804" d="M123 1008q0 168 118.5 313t301.5 145q100 0 164 -43l63 29h45l-96 -379q-20 -80 -21 -131q0 -61 41 -61q33 0 88 32l23 -39q-92 -92 -178 -92q-113 0 -113 103q0 61 14 110h-8q-109 -213 -262 -213q-88 0 -133 60q-47 64 -47 166zM301 1012q0 -133 70 -133q55 0 116 86 q61 84 88 182l54 203q-29 41 -90 41q-102 0 -170 -125q-68 -127 -68 -254z" />
<glyph unicode="&#xab;" horiz-adv-x="1052" d="M125 520l14 66l389 356h103l-295 -399l129 -379h-103zM496 520l14 66l389 356h102l-294 -399l129 -379h-103z" />
<glyph unicode="&#xac;" d="M150 672v121h878v-541h-123v420h-755z" />
<glyph unicode="&#xad;" horiz-adv-x="634" d="M29 481l32 154h533l-33 -154h-532z" />
<glyph unicode="&#xae;" horiz-adv-x="1730" d="M129 731q0 311 221 532.5t530.5 221.5t530.5 -221q223 -223 223 -532.5t-221 -530.5t-532.5 -221t-532.5 221q-219 219 -219 530zM242 731q0 -264 186 -450q188 -188 452.5 -188.5t453 188t188.5 450.5q0 264 -188.5 452.5t-452.5 188.5q-266 0 -452.5 -188.5 t-186.5 -452.5zM494 289v69h26q100 0 101 72v600q0 72 -101 72h-26v72h368q352 0 352 -244q0 -164 -186 -225l182 -293q23 -35 41 -43q25 -10 74 -11v-69h-217l-225 381h-109v-240q0 -72 100 -72h29v-69h-409zM774 748h86q100 0 148 40q45 39 45 140q0 92 -45 129 q-46 37 -154 37h-80v-346z" />
<glyph unicode="&#xaf;" horiz-adv-x="937" d="M-10 1556v121h960v-121h-960z" />
<glyph unicode="&#xb0;" horiz-adv-x="817" d="M172 1151q0 131 92 221q94 90 217 90q127 0 219.5 -92t92.5 -219t-91 -217q-92 -92 -221 -92t-219 90t-90 219zM295 1151q0 -78 55.5 -133t130.5 -55q78 0 133.5 55t55.5 133q0 80 -55.5 135t-133.5 55q-76 0 -131 -55t-55 -135z" />
<glyph unicode="&#xb1;" d="M150 0v121h878v-121h-878zM150 672v121h376v378h123v-378h379v-121h-379v-379h-123v379h-376z" />
<glyph unicode="&#xb2;" horiz-adv-x="817" d="M41 586l10 61l318 262q113 94 166 176q55 86 55 197q0 119 -103 119q-61 0 -108 -53q-45 -51 -57 -142q-63 0 -97 27q-35 29 -35 72q0 80 84 127q90 51 228 51q129 0 196 -53q72 -55 72 -142q0 -94 -63.5 -180t-219.5 -211l-245 -195h282q78 0 109 84l16 43h70l-57 -243 h-621z" />
<glyph unicode="&#xb3;" horiz-adv-x="817" d="M80 731q0 111 117 111q0 -78 45 -125q47 -51 120 -51q195 0 195 182q0 68 -49 110.5t-137 42.5h-68l16 84h68q96 0 161.5 61.5t65.5 158t-94 96.5q-135 0 -172 -178q-135 0 -135 86q0 76 84 123q90 51 229 51q131 0 203 -51q74 -51 74 -136q0 -188 -262 -241l-2 -11 q207 -29 206 -188q0 -135 -108 -209t-289 -74q-131 0 -198 43q-70 45 -70 115z" />
<glyph unicode="&#xb4;" horiz-adv-x="1181" d="M502 1241l6 27q121 139 219 301h219l-6 -21q-157 -184 -356 -307h-82z" />
<glyph unicode="&#xb5;" horiz-adv-x="1236" d="M-4 -344q0 90 61 309q92 340 125 496l135 637h193l-135 -641q-23 -113 -23 -189q0 -158 150 -157q104 0 188 90q82 88 113 241l139 656h193l-164 -766q-25 -117 -25 -158q0 -66 60 -65q43 0 112 34l35 -69q-133 -94 -238 -94q-144 0 -153 196h-10q-133 -197 -297 -196 q-166 0 -232 120q-33 -164 -33 -247q0 -147 113 -166q-18 -178 -174 -179q-133 1 -133 148z" />
<glyph unicode="&#xb6;" horiz-adv-x="1263" d="M98 1192q0 365 318 364h780v-86h-27q-98 0 -133 -38.5t-35 -108.5v-1317q0 -72 35 -110q33 -37 133 -37h27v-86h-319v1679h-195v-1679h-320v86h27q98 0 133 39t35 108v785h-145q-314 0 -314 401z" />
<glyph unicode="&#xb7;" horiz-adv-x="585" d="M188 713q0 72 37 114.5t99 42.5q127 0 127 -125q0 -72 -37 -114.5t-99 -42.5q-127 0 -127 125z" />
<glyph unicode="&#xb8;" horiz-adv-x="681" d="M72 -469l22 104q76 -16 137 -16q152 0 152 125q0 102 -131 115l78 159h96l-39 -88q74 -8 119 -57q45 -47 45 -113q0 -119 -86 -186q-84 -66 -240 -66q-75 0 -153 23z" />
<glyph unicode="&#xb9;" horiz-adv-x="817" d="M135 588l15 69h94q84 0 100 78l125 590h-190l14 70h102q143 0 187 78h102l-143 -678q-14 -66 -15 -86q0 -51 72 -52h94l-14 -69h-543z" />
<glyph unicode="&#xba;" horiz-adv-x="811" d="M137 1036q0 162 117 297t303 135q131 0 205 -67.5t74 -183.5q0 -162 -115 -299.5t-301 -137.5q-133 0 -207 68q-76 69 -76 188zM317 1014q0 -152 103 -152q100 0 162 119q61 121 61 260q0 145 -100 145q-98 0 -162 -118.5t-64 -253.5z" />
<glyph unicode="&#xbb;" horiz-adv-x="1052" d="M49 164l299 399l-133 379h102l238 -356l-14 -66l-389 -356h-103zM420 164l299 399l-133 379h102l238 -356l-15 -66l-389 -356h-102z" />
<glyph unicode="&#xbc;" horiz-adv-x="1718" d="M26 588l15 69h94q84 0 100 78l125 590h-190l14 70h102q143 0 187 78h102l-143 -678q-14 -66 -15 -86q0 -51 72 -52h94l-14 -69h-543zM277 0l1032 1462h139l-1028 -1462h-143zM892 260l11 70l501 555h164l-112 -537h196l-18 -88h-197l-18 -84q-8 -33 -8 -55q0 -51 71 -52 h41l-14 -69h-451l15 69h57q84 0 100 78l25 113h-363zM1030 348h243l50 223q23 104 41 160l-43 -59z" />
<glyph unicode="&#xbd;" horiz-adv-x="1718" d="M26 588l15 69h94q84 0 100 78l125 590h-190l14 70h102q143 0 187 78h102l-143 -678q-14 -66 -15 -86q0 -51 72 -52h94l-14 -69h-543zM256 0l1032 1462h139l-1028 -1462h-143zM922 0l10 61l318 262q113 94 166 176q55 86 55 197q0 119 -103 119q-61 0 -108 -53 q-45 -51 -57 -142q-63 0 -97 27q-35 29 -35 72q0 80 84 127q90 51 228 51q129 0 196 -53q72 -55 72 -142q0 -94 -63.5 -180t-219.5 -211l-245 -195h282q78 0 109 84l16 43h70l-57 -243h-621z" />
<glyph unicode="&#xbe;" horiz-adv-x="1718" d="M37 731q0 111 117 111q0 -78 45 -125q47 -51 120 -51q195 0 195 182q0 68 -49 110.5t-137 42.5h-68l16 84h68q96 0 161.5 61.5t65.5 158t-94 96.5q-135 0 -172 -178q-135 0 -135 86q0 76 84 123q90 51 229 51q131 0 203 -51q74 -51 74 -136q0 -188 -262 -241l-2 -11 q207 -29 206 -188q0 -135 -108 -209t-289 -74q-131 0 -198 43q-70 45 -70 115zM332 0l1032 1462h139l-1028 -1462h-143zM913 260l11 70l501 555h164l-112 -537h196l-18 -88h-197l-18 -84q-8 -33 -8 -55q0 -51 71 -52h41l-14 -69h-451l15 69h57q84 0 100 78l25 113h-363z M1051 348h243l50 223q23 104 41 160l-43 -59z" />
<glyph unicode="&#xbf;" horiz-adv-x="1024" d="M2 -49q0 311 504 493l51 238h125l-64 -303q-416 -152 -415 -445q0 -102 53 -161.5t145 -59.5q211 0 254 291q147 0 148 -123q0 -113 -115 -192q-111 -78 -299 -78q-387 0 -387 340zM530 952q0 74 37 117q35 41 99 41q127 0 127 -125q0 -72 -37 -115t-99 -43q-59 0 -94 35 q-33 33 -33 90z" />
<glyph unicode="&#xc0;" horiz-adv-x="1443" d="M-115 0l17 86h39q53 0 92 28.5t98 131.5l713 1216h160l194 -1267q8 -63 35 -86t86 -23h27l-17 -86h-557l16 86h48q147 0 147 104q0 33 -4 70l-33 229h-538l-123 -215q-39 -66 -39 -114q0 -74 114 -74h48l-17 -86h-506zM469 592h463l-51 358q-29 209 -33 324 q-47 -115 -160 -305zM659 1886l6 21h205q66 -162 137 -301l-6 -27h-78q-153 150 -264 307z" />
<glyph unicode="&#xc1;" horiz-adv-x="1443" d="M-115 0l17 86h39q53 0 92 28.5t98 131.5l713 1216h160l194 -1267q8 -63 35 -86t86 -23h27l-17 -86h-557l16 86h48q147 0 147 104q0 33 -4 70l-33 229h-538l-123 -215q-39 -66 -39 -114q0 -74 114 -74h48l-17 -86h-506zM469 592h463l-51 358q-29 209 -33 324 q-47 -115 -160 -305zM832 1579l6 27q121 139 219 301h219l-6 -21q-157 -184 -356 -307h-82z" />
<glyph unicode="&#xc2;" horiz-adv-x="1443" d="M-115 0l17 86h39q53 0 92 28.5t98 131.5l713 1216h160l194 -1267q8 -63 35 -86t86 -23h27l-17 -86h-557l16 86h48q147 0 147 104q0 33 -4 70l-33 229h-538l-123 -215q-39 -66 -39 -114q0 -74 114 -74h48l-17 -86h-506zM469 592h463l-51 358q-29 209 -33 324 q-47 -115 -160 -305zM611 1579l6 27q187 184 270 301h195q27 -115 139 -301l-6 -27h-72q-96 66 -182 184q-150 -125 -262 -184h-88z" />
<glyph unicode="&#xc3;" horiz-adv-x="1443" d="M-115 0l17 86h39q53 0 92 28.5t98 131.5l713 1216h160l194 -1267q8 -63 35 -86t86 -23h27l-17 -86h-557l16 86h48q147 0 147 104q0 33 -4 70l-33 229h-538l-123 -215q-39 -66 -39 -114q0 -74 114 -74h48l-17 -86h-506zM469 592h463l-51 358q-29 209 -33 324 q-47 -115 -160 -305zM545 1600q72 242 268 241q84 0 168 -63q88 -66 125 -66q88 0 123 109h92q-70 -242 -266 -242q-80 0 -170 66q-88 63 -125 63q-88 0 -123 -108h-92z" />
<glyph unicode="&#xc4;" horiz-adv-x="1443" d="M-115 0l17 86h39q53 0 92 28.5t98 131.5l713 1216h160l194 -1267q8 -63 35 -86t86 -23h27l-17 -86h-557l16 86h48q147 0 147 104q0 33 -4 70l-33 229h-538l-123 -215q-39 -66 -39 -114q0 -74 114 -74h48l-17 -86h-506zM469 592h463l-51 358q-29 209 -33 324 q-47 -115 -160 -305zM654 1735q0 129 110 129q102 0 103 -103q0 -129 -111 -129q-102 1 -102 103zM1043 1735q0 129 110 129q102 0 103 -103q0 -129 -111 -129q-102 1 -102 103z" />
<glyph unicode="&#xc5;" horiz-adv-x="1443" d="M-115 0l17 86h39q53 0 92 28.5t98 131.5l713 1216h160l194 -1267q8 -63 35 -86t86 -23h27l-17 -86h-557l16 86h48q147 0 147 104q0 33 -4 70l-33 229h-538l-123 -215q-39 -66 -39 -114q0 -74 114 -74h48l-17 -86h-506zM469 592h463l-51 358q-29 209 -33 324 q-47 -115 -160 -305zM668 1585q0 104 69.5 163.5t176.5 59.5q109 0 178 -59q68 -59 68 -164q0 -106 -70 -164q-72 -59 -176.5 -59t-175.5 59q-70 58 -70 164zM779 1585q0 -123 135 -123t135 123t-135 123t-135 -123z" />
<glyph unicode="&#xc6;" horiz-adv-x="1947" d="M-127 0l29 86h39q53 0 94 28.5t117 131.5l815 1118l-174 12l18 86h1159l-65 -358h-107q10 78 10 119q0 137 -145 137h-344l-117 -545h494l-21 -100h-493l-131 -613h395q174 0 231 168l33 88h107l-91 -358h-1097l16 86h27q106 0 143 35q43 41 55 102l56 266h-463 l-154 -215q-55 -78 -55 -120q0 -68 104 -68h48l-29 -86h-504zM539 592h409l162 768h-39q-96 -166 -260 -391z" />
<glyph unicode="&#xc7;" horiz-adv-x="1282" d="M106 528q0 391 242 672q243 283 602 283q176 0 279 -62q100 -61 100 -166q0 -74 -55 -116.5t-146 -42.5q0 279 -204 278q-252 0 -424 -276q-170 -272 -170 -602q0 -383 364 -383q238 0 379 186q27 -18 27 -68q0 -96 -115 -173.5t-313 -77.5q-266 0 -416 143t-150 405z M334 -469l22 104q76 -16 137 -16q152 0 152 125q0 102 -131 115l78 159h96l-39 -88q74 -8 119 -57q45 -47 45 -113q0 -119 -86 -186q-84 -66 -240 -66q-75 0 -153 23z" />
<glyph unicode="&#xc8;" horiz-adv-x="1275" d="M-43 0l16 86h27q106 0 145 37q37 35 54 100l213 1006q6 28 6 49q0 49 -29 73.5t-115 24.5h-26l18 86h1032l-65 -358h-107l7 63q4 33 4 56q0 137 -146 137h-344l-117 -545h494l-20 -100h-494l-131 -613h395q174 0 232 168l32 88h107l-90 -358h-1098zM585 1886l6 21h205 q66 -162 137 -301l-6 -27h-78q-153 150 -264 307z" />
<glyph unicode="&#xc9;" horiz-adv-x="1275" d="M-43 0l16 86h27q106 0 145 37q37 35 54 100l213 1006q6 28 6 49q0 49 -29 73.5t-115 24.5h-26l18 86h1032l-65 -358h-107l7 63q4 33 4 56q0 137 -146 137h-344l-117 -545h494l-20 -100h-494l-131 -613h395q174 0 232 168l32 88h107l-90 -358h-1098zM719 1579l6 27 q121 139 219 301h219l-6 -21q-157 -184 -356 -307h-82z" />
<glyph unicode="&#xca;" horiz-adv-x="1275" d="M-43 0l16 86h27q106 0 145 37q37 35 54 100l213 1006q6 28 6 49q0 49 -29 73.5t-115 24.5h-26l18 86h1032l-65 -358h-107l7 63q4 33 4 56q0 137 -146 137h-344l-117 -545h494l-20 -100h-494l-131 -613h395q174 0 232 168l32 88h107l-90 -358h-1098zM545 1579l6 27 q187 184 270 301h195q27 -115 139 -301l-6 -27h-72q-96 66 -182 184q-150 -125 -262 -184h-88z" />
<glyph unicode="&#xcb;" horiz-adv-x="1275" d="M-43 0l16 86h27q106 0 145 37q37 35 54 100l213 1006q6 28 6 49q0 49 -29 73.5t-115 24.5h-26l18 86h1032l-65 -358h-107l7 63q4 33 4 56q0 137 -146 137h-344l-117 -545h494l-20 -100h-494l-131 -613h395q174 0 232 168l32 88h107l-90 -358h-1098zM541 1735 q0 129 110 129q102 0 103 -103q0 -129 -111 -129q-102 1 -102 103zM930 1735q0 129 110 129q102 0 103 -103q0 -129 -111 -129q-102 1 -102 103z" />
<glyph unicode="&#xcc;" horiz-adv-x="751" d="M-43 0l16 86h27q170 0 201 147l213 1004q8 33 8 57q0 82 -148 82h-26l18 86h596l-18 -86h-27q-98 0 -141 -37q-41 -35 -58 -110l-212 -1004q-8 -39 -9 -57q0 -82 148 -82h26l-18 -86h-596zM344 1886l6 21h205q66 -162 137 -301l-6 -27h-78q-153 150 -264 307z" />
<glyph unicode="&#xcd;" horiz-adv-x="751" d="M-43 0l16 86h27q170 0 201 147l213 1004q8 33 8 57q0 82 -148 82h-26l18 86h596l-18 -86h-27q-98 0 -141 -37q-41 -35 -58 -110l-212 -1004q-8 -39 -9 -57q0 -82 148 -82h26l-18 -86h-596zM469 1579l6 27q121 139 219 301h219l-6 -21q-157 -184 -356 -307h-82z" />
<glyph unicode="&#xce;" horiz-adv-x="751" d="M-43 0l16 86h27q170 0 201 147l213 1004q8 33 8 57q0 82 -148 82h-26l18 86h596l-18 -86h-27q-98 0 -141 -37q-41 -35 -58 -110l-212 -1004q-8 -39 -9 -57q0 -82 148 -82h26l-18 -86h-596zM275 1579l6 27q187 184 270 301h195q27 -115 139 -301l-6 -27h-72 q-96 66 -182 184q-150 -125 -262 -184h-88z" />
<glyph unicode="&#xcf;" horiz-adv-x="751" d="M-43 0l16 86h27q170 0 201 147l213 1004q8 33 8 57q0 82 -148 82h-26l18 86h596l-18 -86h-27q-98 0 -141 -37q-41 -35 -58 -110l-212 -1004q-8 -39 -9 -57q0 -82 148 -82h26l-18 -86h-596zM301 1735q0 129 110 129q102 0 103 -103q0 -129 -111 -129q-102 1 -102 103z M690 1735q0 129 110 129q102 0 103 -103q0 -129 -111 -129q-102 1 -102 103z" />
<glyph unicode="&#xd0;" horiz-adv-x="1529" d="M-43 0l16 86h27q170 0 201 147l102 482h-199l23 100h197l90 422q8 33 8 57q0 82 -148 82h-26l18 86h615q279 0 430 -145.5t151 -411.5q0 -395 -223 -649q-225 -256 -596 -256h-686zM379 104h219q297 0 467 226q174 229 174 598q0 432 -389 432h-203l-117 -545h388 l-23 -100h-387z" />
<glyph unicode="&#xd1;" horiz-adv-x="1562" d="M-41 0l18 86h27q94 0 137 37q39 33 60 110l213 1004q8 33 8 57q0 82 -148 82h-26l18 86h373l496 -1130l192 905q8 33 8 57q0 82 -147 82h-27l19 86h514l-19 -86h-26q-96 0 -139.5 -36.5t-59.5 -110.5l-260 -1229h-133l-527 1200l-206 -975q-8 -39 -9 -57q0 -82 148 -82 h26l-18 -86h-512zM663 1600q72 242 268 241q84 0 168 -63q88 -66 125 -66q88 0 123 109h92q-70 -242 -266 -242q-80 0 -170 66q-88 63 -125 63q-88 0 -123 -108h-92z" />
<glyph unicode="&#xd2;" horiz-adv-x="1519" d="M106 545q0 354 229.5 647t590.5 293q238 0 385 -148q145 -145 145 -415q0 -348 -227 -648q-227 -297 -586 -297q-242 0 -389.5 154t-147.5 414zM330 487q0 -190 88 -294q86 -102 237 -103q256 0 416 282.5t160 604.5q0 193 -84 295t-238 102q-254 0 -417 -284 q-162 -281 -162 -603zM758 1886l6 21h205q66 -162 137 -301l-6 -27h-78q-153 150 -264 307z" />
<glyph unicode="&#xd3;" horiz-adv-x="1519" d="M106 545q0 354 229.5 647t590.5 293q238 0 385 -148q145 -145 145 -415q0 -348 -227 -648q-227 -297 -586 -297q-242 0 -389.5 154t-147.5 414zM330 487q0 -190 88 -294q86 -102 237 -103q256 0 416 282.5t160 604.5q0 193 -84 295t-238 102q-254 0 -417 -284 q-162 -281 -162 -603zM821 1579l6 27q121 139 219 301h219l-6 -21q-157 -184 -356 -307h-82z" />
<glyph unicode="&#xd4;" horiz-adv-x="1519" d="M106 545q0 354 229.5 647t590.5 293q238 0 385 -148q145 -145 145 -415q0 -348 -227 -648q-227 -297 -586 -297q-242 0 -389.5 154t-147.5 414zM330 487q0 -190 88 -294q86 -102 237 -103q256 0 416 282.5t160 604.5q0 193 -84 295t-238 102q-254 0 -417 -284 q-162 -281 -162 -603zM633 1579l6 27q187 184 270 301h195q27 -115 139 -301l-6 -27h-72q-96 66 -182 184q-150 -125 -262 -184h-88z" />
<glyph unicode="&#xd5;" horiz-adv-x="1519" d="M106 545q0 354 229.5 647t590.5 293q238 0 385 -148q145 -145 145 -415q0 -348 -227 -648q-227 -297 -586 -297q-242 0 -389.5 154t-147.5 414zM330 487q0 -190 88 -294q86 -102 237 -103q256 0 416 282.5t160 604.5q0 193 -84 295t-238 102q-254 0 -417 -284 q-162 -281 -162 -603zM588 1600q72 242 268 241q84 0 168 -63q88 -66 125 -66q88 0 123 109h92q-70 -242 -266 -242q-80 0 -170 66q-88 63 -125 63q-88 0 -123 -108h-92z" />
<glyph unicode="&#xd6;" horiz-adv-x="1519" d="M106 545q0 354 229.5 647t590.5 293q238 0 385 -148q145 -145 145 -415q0 -348 -227 -648q-227 -297 -586 -297q-242 0 -389.5 154t-147.5 414zM330 487q0 -190 88 -294q86 -102 237 -103q256 0 416 282.5t160 604.5q0 193 -84 295t-238 102q-254 0 -417 -284 q-162 -281 -162 -603zM678 1735q0 129 110 129q102 0 103 -103q0 -129 -111 -129q-102 1 -102 103zM1067 1735q0 129 110 129q102 0 103 -103q0 -129 -111 -129q-102 1 -102 103z" />
<glyph unicode="&#xd7;" d="M145 395l340 340l-340 338l86 86l340 -340l340 342l86 -88l-340 -340l340 -340l-86 -86l-340 340l-340 -340z" />
<glyph unicode="&#xd8;" horiz-adv-x="1519" d="M106 545q0 354 229.5 647t590.5 293q166 0 291 -76l106 137h119l-150 -194q164 -152 164 -430q0 -348 -227 -648q-227 -297 -586 -297q-166 0 -289 74l-96 -133h-121l137 191q-168 155 -168 436zM330 487q0 -139 49 -237l751 1038q-83 86 -221 86q-254 0 -417 -284 q-162 -281 -162 -603zM438 168q88 -78 217 -78q256 0 416 282.5t160 604.5q0 129 -43 227z" />
<glyph unicode="&#xd9;" horiz-adv-x="1492" d="M197 334q0 80 22 182l152 721q8 33 8 57q0 82 -148 82h-26l18 86h596l-16 -86h-27q-96 0 -139 -36.5t-62 -110.5l-153 -723q-25 -117 -25 -191q0 -213 295 -213q164 0 262.5 74t135.5 246l174 815q8 33 8 57q0 82 -148 82h-26l18 86h514l-16 -86h-27q-96 0 -139 -36.5 t-62 -110.5l-172 -811q-92 -438 -552 -438q-223 0 -344 92t-121 262zM717 1886l6 21h205q66 -162 137 -301l-6 -27h-78q-153 150 -264 307z" />
<glyph unicode="&#xda;" horiz-adv-x="1492" d="M197 334q0 80 22 182l152 721q8 33 8 57q0 82 -148 82h-26l18 86h596l-16 -86h-27q-96 0 -139 -36.5t-62 -110.5l-153 -723q-25 -117 -25 -191q0 -213 295 -213q164 0 262.5 74t135.5 246l174 815q8 33 8 57q0 82 -148 82h-26l18 86h514l-16 -86h-27q-96 0 -139 -36.5 t-62 -110.5l-172 -811q-92 -438 -552 -438q-223 0 -344 92t-121 262zM858 1579l6 27q121 139 219 301h219l-6 -21q-157 -184 -356 -307h-82z" />
<glyph unicode="&#xdb;" horiz-adv-x="1492" d="M197 334q0 80 22 182l152 721q8 33 8 57q0 82 -148 82h-26l18 86h596l-16 -86h-27q-96 0 -139 -36.5t-62 -110.5l-153 -723q-25 -117 -25 -191q0 -213 295 -213q164 0 262.5 74t135.5 246l174 815q8 33 8 57q0 82 -148 82h-26l18 86h514l-16 -86h-27q-96 0 -139 -36.5 t-62 -110.5l-172 -811q-92 -438 -552 -438q-223 0 -344 92t-121 262zM674 1579l6 27q187 184 270 301h195q27 -115 139 -301l-6 -27h-72q-96 66 -182 184q-150 -125 -262 -184h-88z" />
<glyph unicode="&#xdc;" horiz-adv-x="1492" d="M197 334q0 80 22 182l152 721q8 33 8 57q0 82 -148 82h-26l18 86h596l-16 -86h-27q-96 0 -139 -36.5t-62 -110.5l-153 -723q-25 -117 -25 -191q0 -213 295 -213q164 0 262.5 74t135.5 246l174 815q8 33 8 57q0 82 -148 82h-26l18 86h514l-16 -86h-27q-96 0 -139 -36.5 t-62 -110.5l-172 -811q-92 -438 -552 -438q-223 0 -344 92t-121 262zM672 1735q0 129 110 129q102 0 103 -103q0 -129 -111 -129q-102 1 -102 103zM1061 1735q0 129 110 129q102 0 103 -103q0 -129 -111 -129q-102 1 -102 103z" />
<glyph unicode="&#xdd;" horiz-adv-x="1280" d="M158 1376l18 86h553l-18 -86h-103q-84 0 -84 -55q0 -41 27 -119l92 -274q49 -147 55 -246q31 55 154 215l195 260q76 104 75 166q0 53 -98 53h-76l19 86h506l-19 -86h-39q-35 0 -78 -33q-35 -27 -108 -122l-477 -625l-80 -371q-8 -33 -8 -57q0 -82 147 -82h47l-18 -86 h-637l18 86h47q106 0 143.5 35t53.5 102l80 377l-238 668q-20 61 -45 86q-23 23 -78 22h-26zM764 1579l6 27q121 139 219 301h219l-6 -21q-157 -184 -356 -307h-82z" />
<glyph unicode="&#xde;" horiz-adv-x="1236" d="M-41 0l18 86h27q96 0 139 37q41 35 58 110l213 1004q8 33 8 57q0 82 -148 82h-26l18 86h617l-19 -86h-47q-104 0 -143 -39q-41 -41 -56 -108l-4 -21h121q223 0 344 -102q123 -104 123 -293q0 -231 -157.5 -364.5t-469.5 -133.5h-151l-18 -90q-8 -41 -9 -57q0 -82 148 -82 h47l-19 -86h-614zM444 412h109q432 0 432 399q0 299 -299 299h-94z" />
<glyph unicode="&#xdf;" horiz-adv-x="1282" d="M-279 -475l19 94q49 -14 94 -14q100 0 160 88q53 80 98 289l217 1019h-166l21 97h166l14 61q94 408 512 408q373 0 373 -314q0 -104 -29 -247h-176q-225 0 -225 -168q0 -68 45 -117q45 -47 125 -94q193 -115 192 -308q0 -162 -102 -251q-100 -88 -293 -88q-144 0 -227 55 q-84 55 -84 153q0 59 43 96.5t110 37.5q0 -244 172 -244q88 0 146 53q55 52 55 141q0 137 -156 230q-205 127 -204 293q0 307 407 307q23 109 23 170q0 203 -201 203q-242 0 -307 -287l-258 -1204q-55 -250 -155.5 -363t-289.5 -113q-64 1 -119 17z" />
<glyph unicode="&#xe0;" horiz-adv-x="1185" d="M88 354q0 281 176 522.5t434 241.5q138 0 240 -74l90 52h66l-140 -656q-31 -141 -30 -227q0 -104 67 -104q57 0 148 53l37 -60q-147 -123 -289 -122q-160 0 -160 170q0 70 21 159h-13q-147 -330 -383 -329q-123 0 -194 98q-70 96 -70 276zM297 346.5q0 -237.5 129 -237.5 q102 0 213 151q113 154 149 330l76 362q-45 74 -155 74q-172 0 -293 -223q-119 -219 -119 -456.5zM440 1548l6 21h205q66 -162 137 -301l-6 -27h-78q-153 150 -264 307z" />
<glyph unicode="&#xe1;" horiz-adv-x="1185" d="M88 354q0 281 176 522.5t434 241.5q138 0 240 -74l90 52h66l-140 -656q-31 -141 -30 -227q0 -104 67 -104q57 0 148 53l37 -60q-147 -123 -289 -122q-160 0 -160 170q0 70 21 159h-13q-147 -330 -383 -329q-123 0 -194 98q-70 96 -70 276zM297 346.5q0 -237.5 129 -237.5 q102 0 213 151q113 154 149 330l76 362q-45 74 -155 74q-172 0 -293 -223q-119 -219 -119 -456.5zM631 1241l6 27q121 139 219 301h219l-6 -21q-157 -184 -356 -307h-82z" />
<glyph unicode="&#xe2;" horiz-adv-x="1185" d="M88 354q0 281 176 522.5t434 241.5q138 0 240 -74l90 52h66l-140 -656q-31 -141 -30 -227q0 -104 67 -104q57 0 148 53l37 -60q-147 -123 -289 -122q-160 0 -160 170q0 70 21 159h-13q-147 -330 -383 -329q-123 0 -194 98q-70 96 -70 276zM297 346.5q0 -237.5 129 -237.5 q102 0 213 151q113 154 149 330l76 362q-45 74 -155 74q-172 0 -293 -223q-119 -219 -119 -456.5zM404 1241l6 27q187 184 270 301h195q27 -115 139 -301l-6 -27h-72q-96 66 -182 184q-150 -125 -262 -184h-88z" />
<glyph unicode="&#xe3;" horiz-adv-x="1185" d="M88 354q0 281 176 522.5t434 241.5q138 0 240 -74l90 52h66l-140 -656q-31 -141 -30 -227q0 -104 67 -104q57 0 148 53l37 -60q-147 -123 -289 -122q-160 0 -160 170q0 70 21 159h-13q-147 -330 -383 -329q-123 0 -194 98q-70 96 -70 276zM297 346.5q0 -237.5 129 -237.5 q102 0 213 151q113 154 149 330l76 362q-45 74 -155 74q-172 0 -293 -223q-119 -219 -119 -456.5zM342 1262q72 242 268 241q84 0 168 -63q88 -66 125 -66q88 0 123 109h92q-70 -242 -266 -242q-80 0 -170 66q-88 63 -125 63q-88 0 -123 -108h-92z" />
<glyph unicode="&#xe4;" horiz-adv-x="1185" d="M88 354q0 281 176 522.5t434 241.5q138 0 240 -74l90 52h66l-140 -656q-31 -141 -30 -227q0 -104 67 -104q57 0 148 53l37 -60q-147 -123 -289 -122q-160 0 -160 170q0 70 21 159h-13q-147 -330 -383 -329q-123 0 -194 98q-70 96 -70 276zM297 346.5q0 -237.5 129 -237.5 q102 0 213 151q113 154 149 330l76 362q-45 74 -155 74q-172 0 -293 -223q-119 -219 -119 -456.5zM404 1397q0 129 110 129q102 0 103 -103q0 -129 -111 -129q-102 1 -102 103zM793 1397q0 129 110 129q102 0 103 -103q0 -129 -111 -129q-102 1 -102 103z" />
<glyph unicode="&#xe5;" horiz-adv-x="1185" d="M88 354q0 281 176 522.5t434 241.5q138 0 240 -74l90 52h66l-140 -656q-31 -141 -30 -227q0 -104 67 -104q57 0 148 53l37 -60q-147 -123 -289 -122q-160 0 -160 170q0 70 21 159h-13q-147 -330 -383 -329q-123 0 -194 98q-70 96 -70 276zM297 346.5q0 -237.5 129 -237.5 q102 0 213 151q113 154 149 330l76 362q-45 74 -155 74q-172 0 -293 -223q-119 -219 -119 -456.5zM491 1444q0 104 69.5 163.5t176.5 59.5q109 0 178 -59q68 -59 68 -164q0 -106 -70 -164q-72 -59 -176.5 -59t-175.5 59q-70 58 -70 164zM602 1444q0 -123 135 -123t135 123 t-135 123t-135 -123z" />
<glyph unicode="&#xe6;" horiz-adv-x="1662" d="M88 387q0 279 164 504q166 227 434 227q162 0 313 -127q156 127 355 127q129 0 200.5 -61.5t71.5 -173.5q0 -166 -172 -289t-422 -123h-35q-25 0 -36 2q-4 -16 -5 -86q0 -279 226 -278q172 0 295 147q20 -14 20 -51q0 -82 -96 -153.5t-258 -71.5q-139 0 -244 75 q-100 74 -135 219q-117 -295 -367 -294q-139 0 -225 108q-84 104 -84 299zM297 365q0 -123 45 -189q47 -68 127 -67q100 0 176 100q78 104 105 266q37 229 155 418q-98 133 -209 133q-174 0 -286.5 -217t-112.5 -444zM979 567h20q184 0 299 88q117 90 117 227.5t-119 137.5 q-102 0 -186 -127q-88 -133 -131 -326z" />
<glyph unicode="&#xe7;" horiz-adv-x="995" d="M88 403q0 267 172 492q172 223 438 223q139 0 219 -55t80 -141q0 -61 -49 -103q-51 -41 -133 -41q0 109 -43 176q-41 66 -115 66q-143 0 -249.5 -213t-106.5 -420q0 -279 225 -278q178 0 295 147q20 -12 21 -51q0 -82 -96.5 -153.5t-258.5 -71.5q-178 0 -288.5 112 t-110.5 311zM172 -469l22 104q76 -16 137 -16q152 0 152 125q0 102 -131 115l78 159h96l-39 -88q74 -8 119 -57q45 -47 45 -113q0 -119 -86 -186q-84 -66 -240 -66q-75 0 -153 23z" />
<glyph unicode="&#xe8;" horiz-adv-x="1009" d="M88 403q0 267 172 492q172 223 438 223q129 0 201 -61.5t72 -173.5q0 -166 -172 -289t-422 -123h-35q-25 0 -37 2q-4 -37 -4 -86q0 -279 225 -278q175 0 295 147q20 -12 21 -51q0 -82 -96.5 -153.5t-258.5 -71.5q-178 0 -288.5 112t-110.5 311zM324 567h20q184 0 299 88 q117 90 117 227.5t-119 137.5q-98 0 -184 -125q-88 -129 -133 -328zM456 1548l6 21h205q66 -162 137 -301l-6 -27h-78q-153 150 -264 307z" />
<glyph unicode="&#xe9;" horiz-adv-x="1009" d="M88 403q0 267 172 492q172 223 438 223q129 0 201 -61.5t72 -173.5q0 -166 -172 -289t-422 -123h-35q-25 0 -37 2q-4 -37 -4 -86q0 -279 225 -278q175 0 295 147q20 -12 21 -51q0 -82 -96.5 -153.5t-258.5 -71.5q-178 0 -288.5 112t-110.5 311zM324 567h20q184 0 299 88 q117 90 117 227.5t-119 137.5q-98 0 -184 -125q-88 -129 -133 -328zM608 1241l6 27q121 139 219 301h219l-6 -21q-157 -184 -356 -307h-82z" />
<glyph unicode="&#xea;" horiz-adv-x="1009" d="M88 403q0 267 172 492q172 223 438 223q129 0 201 -61.5t72 -173.5q0 -166 -172 -289t-422 -123h-35q-25 0 -37 2q-4 -37 -4 -86q0 -279 225 -278q175 0 295 147q20 -12 21 -51q0 -82 -96.5 -153.5t-258.5 -71.5q-178 0 -288.5 112t-110.5 311zM324 567h20q184 0 299 88 q117 90 117 227.5t-119 137.5q-98 0 -184 -125q-88 -129 -133 -328zM381 1241l6 27q187 184 270 301h195q27 -115 139 -301l-6 -27h-72q-96 66 -182 184q-150 -125 -262 -184h-88z" />
<glyph unicode="&#xeb;" horiz-adv-x="1009" d="M88 403q0 267 172 492q172 223 438 223q129 0 201 -61.5t72 -173.5q0 -166 -172 -289t-422 -123h-35q-25 0 -37 2q-4 -37 -4 -86q0 -279 225 -278q175 0 295 147q20 -12 21 -51q0 -82 -96.5 -153.5t-258.5 -71.5q-178 0 -288.5 112t-110.5 311zM324 567h20q184 0 299 88 q117 90 117 227.5t-119 137.5q-98 0 -184 -125q-88 -129 -133 -328zM408 1397q0 129 110 129q102 0 103 -103q0 -129 -111 -129q-102 1 -102 103zM797 1397q0 129 110 129q102 0 103 -103q0 -129 -111 -129q-102 1 -102 103z" />
<glyph unicode="&#xec;" horiz-adv-x="622" d="M127 1012l18 86h367l-139 -658q-31 -147 -31 -227q0 -104 68 -104q57 0 147 53l37 -60q-141 -123 -277 -122q-77 0 -122 55q-47 57 -48 139q0 96 46 322l79 376q6 33 7 54q0 86 -125 86h-27zM190 1548l6 21h205q66 -162 137 -301l-6 -27h-78q-153 150 -264 307z" />
<glyph unicode="&#xed;" horiz-adv-x="622" d="M127 1012l18 86h367l-139 -658q-31 -147 -31 -227q0 -104 68 -104q57 0 147 53l37 -60q-141 -123 -277 -122q-77 0 -122 55q-47 57 -48 139q0 96 46 322l79 376q6 33 7 54q0 86 -125 86h-27zM328 1241l6 27q121 139 219 301h219l-6 -21q-157 -184 -356 -307h-82z" />
<glyph unicode="&#xee;" horiz-adv-x="622" d="M127 1012l18 86h367l-139 -658q-31 -147 -31 -227q0 -104 68 -104q57 0 147 53l37 -60q-141 -123 -277 -122q-77 0 -122 55q-47 57 -48 139q0 96 46 322l79 376q6 33 7 54q0 86 -125 86h-27zM74 1241l6 27q187 184 270 301h195q27 -115 139 -301l-6 -27h-72 q-96 66 -182 184q-150 -125 -262 -184h-88z" />
<glyph unicode="&#xef;" horiz-adv-x="622" d="M127 1012l18 86h367l-139 -658q-31 -147 -31 -227q0 -104 68 -104q57 0 147 53l37 -60q-141 -123 -277 -122q-77 0 -122 55q-47 57 -48 139q0 96 46 322l79 376q6 33 7 54q0 86 -125 86h-27zM107 1397q0 129 110 129q102 0 103 -103q0 -129 -111 -129q-102 1 -102 103z M496 1397q0 129 110 129q102 0 103 -103q0 -129 -111 -129q-102 1 -102 103z" />
<glyph unicode="&#xf0;" horiz-adv-x="1181" d="M88 369q0 256 168 462.5t442 206.5q108 0 179 -55q-47 184 -144 291l-293 -150l25 115l199 102q-92 70 -226 115l35 103q178 -45 324 -152l297 154l-27 -117l-201 -103q104 -104 162 -262q59 -162 59 -338q0 -350 -161 -561q-164 -213 -445 -213q-180 0 -286.5 107 t-106.5 295zM301 336q0 -268 203 -268q170 0 270 186t100 410q0 268 -200 268q-170 0 -271 -187q-102 -188 -102 -409z" />
<glyph unicode="&#xf1;" horiz-adv-x="1226" d="M90 0l172 823q12 58 12 92q0 96 -143 97h-16l18 86h379l-55 -258h20q166 276 373 276q219 0 219 -227q0 -66 -37 -225l-53 -242q-27 -119 -27 -215q0 -98 72 -98q59 0 131 47l37 -60q-135 -117 -250 -116q-86 0 -135 55q-51 57 -51 149q0 96 39 277l47 213q31 123 30 190 q0 121 -94 121q-114 0 -233.5 -153.5t-153.5 -307.5l-110 -524h-191zM362 1262q72 242 268 241q84 0 168 -63q88 -66 125 -66q88 0 123 109h92q-70 -242 -266 -242q-80 0 -170 66q-88 63 -125 63q-88 0 -123 -108h-92z" />
<glyph unicode="&#xf2;" horiz-adv-x="1175" d="M88 403q0 279 168 496q170 219 442 219q180 0 284.5 -108.5t104.5 -315.5q0 -270 -167 -493q-166 -221 -439 -221q-182 0 -288 112q-105 110 -105 311zM301 362q0 -283 203 -282q168 0 270 201q100 199 100 444q0 285 -200 285q-166 0 -271 -201q-102 -197 -102 -447z M471 1548l6 21h205q66 -162 137 -301l-6 -27h-78q-153 150 -264 307z" />
<glyph unicode="&#xf3;" horiz-adv-x="1175" d="M88 403q0 279 168 496q170 219 442 219q180 0 284.5 -108.5t104.5 -315.5q0 -270 -167 -493q-166 -221 -439 -221q-182 0 -288 112q-105 110 -105 311zM301 362q0 -283 203 -282q168 0 270 201q100 199 100 444q0 285 -200 285q-166 0 -271 -201q-102 -197 -102 -447z M623 1241l6 27q121 139 219 301h219l-6 -21q-157 -184 -356 -307h-82z" />
<glyph unicode="&#xf4;" horiz-adv-x="1175" d="M88 403q0 279 168 496q170 219 442 219q180 0 284.5 -108.5t104.5 -315.5q0 -270 -167 -493q-166 -221 -439 -221q-182 0 -288 112q-105 110 -105 311zM301 362q0 -283 203 -282q168 0 270 201q100 199 100 444q0 285 -200 285q-166 0 -271 -201q-102 -197 -102 -447z M393 1241l6 27q187 184 270 301h195q27 -115 139 -301l-6 -27h-72q-96 66 -182 184q-150 -125 -262 -184h-88z" />
<glyph unicode="&#xf5;" horiz-adv-x="1175" d="M88 403q0 279 168 496q170 219 442 219q180 0 284.5 -108.5t104.5 -315.5q0 -270 -167 -493q-166 -221 -439 -221q-182 0 -288 112q-105 110 -105 311zM301 362q0 -283 203 -282q168 0 270 201q100 199 100 444q0 285 -200 285q-166 0 -271 -201q-102 -197 -102 -447z M340 1262q72 242 268 241q84 0 168 -63q88 -66 125 -66q88 0 123 109h92q-70 -242 -266 -242q-80 0 -170 66q-88 63 -125 63q-88 0 -123 -108h-92z" />
<glyph unicode="&#xf6;" horiz-adv-x="1175" d="M88 403q0 279 168 496q170 219 442 219q180 0 284.5 -108.5t104.5 -315.5q0 -270 -167 -493q-166 -221 -439 -221q-182 0 -288 112q-105 110 -105 311zM301 362q0 -283 203 -282q168 0 270 201q100 199 100 444q0 285 -200 285q-166 0 -271 -201q-102 -197 -102 -447z M416 1397q0 129 110 129q102 0 103 -103q0 -129 -111 -129q-102 1 -102 103zM805 1397q0 129 110 129q102 0 103 -103q0 -129 -111 -129q-102 1 -102 103z" />
<glyph unicode="&#xf7;" d="M150 672v121h878v-121h-878zM485 344q0 113 104.5 113t104.5 -113t-104.5 -113t-104.5 113zM485 1120.5q0 112.5 104.5 112.5t104.5 -112.5t-104.5 -112.5t-104.5 112.5z" />
<glyph unicode="&#xf8;" horiz-adv-x="1181" d="M10 -82l162 195q-84 113 -84 290q0 279 168 496q170 219 442 219q150 0 244 -74l115 136h119l-166 -203q78 -109 77 -283q0 -274 -167 -497q-166 -221 -439 -222q-141 0 -243 72l-107 -129h-121zM301 362q0 -59 4 -88l533 644q-49 92 -164 92q-166 0 -271 -201 q-102 -197 -102 -447zM338 168q46 -92 166 -92q168 0 268 200q102 205 102 449q0 45 -6 84z" />
<glyph unicode="&#xf9;" horiz-adv-x="1226" d="M117 1012l18 86h381l-135 -613q-41 -193 -41 -247q0 -125 100 -125q102 0 226 151q123 150 159 324l107 510h198l-141 -658q-31 -144 -31 -227q0 -104 68 -104q59 0 131 45l37 -60q-131 -115 -260 -114q-78 0 -125 55q-47 57 -47 139q0 45 10 121h-16 q-109 -180 -199 -248q-88 -66 -197 -65q-219 0 -219 227q0 66 37 225l80 359q18 80 18 122q0 96 -143 97h-16zM485 1548l6 21h205q66 -162 137 -301l-6 -27h-78q-153 150 -264 307z" />
<glyph unicode="&#xfa;" horiz-adv-x="1226" d="M117 1012l18 86h381l-135 -613q-41 -193 -41 -247q0 -125 100 -125q102 0 226 151q123 150 159 324l107 510h198l-141 -658q-31 -144 -31 -227q0 -104 68 -104q59 0 131 45l37 -60q-131 -115 -260 -114q-78 0 -125 55q-47 57 -47 139q0 45 10 121h-16 q-109 -180 -199 -248q-88 -66 -197 -65q-219 0 -219 227q0 66 37 225l80 359q18 80 18 122q0 96 -143 97h-16zM641 1241l6 27q121 139 219 301h219l-6 -21q-157 -184 -356 -307h-82z" />
<glyph unicode="&#xfb;" horiz-adv-x="1226" d="M117 1012l18 86h381l-135 -613q-41 -193 -41 -247q0 -125 100 -125q102 0 226 151q123 150 159 324l107 510h198l-141 -658q-31 -144 -31 -227q0 -104 68 -104q59 0 131 45l37 -60q-131 -115 -260 -114q-78 0 -125 55q-47 57 -47 139q0 45 10 121h-16 q-109 -180 -199 -248q-88 -66 -197 -65q-219 0 -219 227q0 66 37 225l80 359q18 80 18 122q0 96 -143 97h-16zM428 1241l6 27q187 184 270 301h195q27 -115 139 -301l-6 -27h-72q-96 66 -182 184q-150 -125 -262 -184h-88z" />
<glyph unicode="&#xfc;" horiz-adv-x="1226" d="M117 1012l18 86h381l-135 -613q-41 -193 -41 -247q0 -125 100 -125q102 0 226 151q123 150 159 324l107 510h198l-141 -658q-31 -144 -31 -227q0 -104 68 -104q59 0 131 45l37 -60q-131 -115 -260 -114q-78 0 -125 55q-47 57 -47 139q0 45 10 121h-16 q-109 -180 -199 -248q-88 -66 -197 -65q-219 0 -219 227q0 66 37 225l80 359q18 80 18 122q0 96 -143 97h-16zM469 1397q0 129 110 129q102 0 103 -103q0 -129 -111 -129q-102 1 -102 103zM858 1397q0 129 110 129q102 0 103 -103q0 -129 -111 -129q-102 1 -102 103z" />
<glyph unicode="&#xfd;" horiz-adv-x="1079" d="M-332 -455l31 103q74 -23 160 -23q293 0 575 373l-270 905q-18 59 -49 84t-92 25h-21l16 86h299l160 -553q74 -258 86 -371h6q276 420 277 680q0 111 -101 111q0 72 39 110q41 41 95 41q139 0 139 -172q0 -246 -277 -694q-274 -444 -442 -594q-166 -147 -438 -148 q-107 0 -193 37zM529 1241l6 27q121 139 219 301h219l-6 -21q-157 -184 -356 -307h-82z" />
<glyph unicode="&#xfe;" horiz-adv-x="1150" d="M-49 -492l373 1758q18 86 18 108q0 96 -143 96h-17l19 86h377l-105 -491q-18 -80 -61 -240h12q147 293 375 293q125 0 194.5 -94t69.5 -276q0 -274 -172 -521q-174 -248 -440 -247q-119 0 -203 47q-10 -84 -15 -99l-30 -151q-14 -55 -15 -94q0 -88 144 -89h26l-18 -86 h-389zM281 145q63 -74 163 -73q172 0 291 223t119 455q0 115 -35 176q-37 63 -98 63q-106 0 -215 -151q-113 -158 -141 -303z" />
<glyph unicode="&#xff;" horiz-adv-x="1079" d="M-332 -455l31 103q74 -23 160 -23q293 0 575 373l-270 905q-18 59 -49 84t-92 25h-21l16 86h299l160 -553q74 -258 86 -371h6q276 420 277 680q0 111 -101 111q0 72 39 110q41 41 95 41q139 0 139 -172q0 -246 -277 -694q-274 -444 -442 -594q-166 -147 -438 -148 q-107 0 -193 37zM312 1397q0 129 110 129q102 0 103 -103q0 -129 -111 -129q-102 1 -102 103zM701 1397q0 129 110 129q102 0 103 -103q0 -129 -111 -129q-102 1 -102 103z" />
<glyph unicode="&#x100;" horiz-adv-x="1443" d="M-115 0l17 86h39q53 0 92 28.5t98 131.5l713 1216h160l194 -1267q8 -63 35 -86t86 -23h27l-17 -86h-557l16 86h48q147 0 147 104q0 33 -4 70l-33 229h-538l-123 -215q-39 -66 -39 -114q0 -74 114 -74h48l-17 -86h-506zM469 592h463l-51 358q-29 209 -33 324 q-47 -115 -160 -305zM637 1579l26 121h594l-27 -121h-593z" />
<glyph unicode="&#x101;" horiz-adv-x="1185" d="M88 354q0 281 176 522.5t434 241.5q138 0 240 -74l90 52h66l-140 -656q-31 -141 -30 -227q0 -104 67 -104q57 0 148 53l37 -60q-147 -123 -289 -122q-160 0 -160 170q0 70 21 159h-13q-147 -330 -383 -329q-123 0 -194 98q-70 96 -70 276zM297 346.5q0 -237.5 129 -237.5 q102 0 213 151q113 154 149 330l76 362q-45 74 -155 74q-172 0 -293 -223q-119 -219 -119 -456.5zM431 1241l26 121h594l-27 -121h-593z" />
<glyph unicode="&#x102;" horiz-adv-x="1443" d="M-115 0l17 86h39q53 0 92 28.5t98 131.5l713 1216h160l194 -1267q8 -63 35 -86t86 -23h27l-17 -86h-557l16 86h48q147 0 147 104q0 33 -4 70l-33 229h-538l-123 -215q-39 -66 -39 -114q0 -74 114 -74h48l-17 -86h-506zM469 592h463l-51 358q-29 209 -33 324 q-47 -115 -160 -305zM677 1860h95q14 -139 178 -139.5t221 139.5h94q-35 -135 -121 -207q-89 -74 -209 -74q-240 0 -258 281z" />
<glyph unicode="&#x103;" horiz-adv-x="1185" d="M88 354q0 281 176 522.5t434 241.5q138 0 240 -74l90 52h66l-140 -656q-31 -141 -30 -227q0 -104 67 -104q57 0 148 53l37 -60q-147 -123 -289 -122q-160 0 -160 170q0 70 21 159h-13q-147 -330 -383 -329q-123 0 -194 98q-70 96 -70 276zM297 346.5q0 -237.5 129 -237.5 q102 0 213 151q113 154 149 330l76 362q-45 74 -155 74q-172 0 -293 -223q-119 -219 -119 -456.5zM485 1522h95q14 -139 178 -139.5t221 139.5h94q-35 -135 -121 -207q-89 -74 -209 -74q-240 0 -258 281z" />
<glyph unicode="&#x104;" horiz-adv-x="1443" d="M-115 0l17 86h39q53 0 92 28.5t98 131.5l713 1216h160l194 -1267q8 -63 35 -86t86 -23h27l-17 -86h-557l16 86h48q147 0 147 104q0 33 -4 70l-33 229h-538l-123 -215q-39 -66 -39 -114q0 -74 114 -74h48l-17 -86h-506zM469 592h463l-51 358q-29 209 -33 324 q-47 -115 -160 -305zM834 -283q0 102 80 176t225 107h117q-109 -37 -176.5 -104.5t-67.5 -149.5q0 -49 33 -82q29 -29 84 -29q61 0 133 17l-25 -111q-74 -33 -163 -33q-240 0 -240 209z" />
<glyph unicode="&#x105;" horiz-adv-x="1185" d="M88 354q0 281 176 522.5t434 241.5q138 0 240 -74l90 52h66l-140 -656q-31 -141 -30 -227q0 -104 67 -104q57 0 148 53l37 -60q-147 -123 -289 -122q-160 0 -160 170q0 70 21 159h-13q-147 -330 -383 -329q-123 0 -194 98q-70 96 -70 276zM297 346.5q0 -237.5 129 -237.5 q102 0 213 151q113 154 149 330l76 362q-45 74 -155 74q-172 0 -293 -223q-119 -219 -119 -456.5zM559 -283q0 102 80 176t225 107h117q-109 -37 -176.5 -104.5t-67.5 -149.5q0 -49 33 -82q29 -29 84 -29q61 0 133 17l-25 -111q-74 -33 -163 -33q-240 0 -240 209z" />
<glyph unicode="&#x106;" horiz-adv-x="1282" d="M106 528q0 391 242 672q243 283 602 283q176 0 279 -62q100 -61 100 -166q0 -74 -55 -116.5t-146 -42.5q0 279 -204 278q-252 0 -424 -276q-170 -272 -170 -602q0 -383 364 -383q238 0 379 186q27 -18 27 -68q0 -96 -115 -173.5t-313 -77.5q-266 0 -416 143t-150 405z M895 1579l6 27q121 139 219 301h219l-6 -21q-157 -184 -356 -307h-82z" />
<glyph unicode="&#x107;" horiz-adv-x="995" d="M88 403q0 267 172 492q172 223 438 223q139 0 219 -55t80 -141q0 -61 -49 -103q-51 -41 -133 -41q0 109 -43 176q-41 66 -115 66q-143 0 -249.5 -213t-106.5 -420q0 -279 225 -278q178 0 295 147q20 -12 21 -51q0 -82 -96.5 -153.5t-258.5 -71.5q-178 0 -288.5 112 t-110.5 311zM631 1241l6 27q121 139 219 301h219l-6 -21q-157 -184 -356 -307h-82z" />
<glyph unicode="&#x108;" horiz-adv-x="1282" d="M106 528q0 391 242 672q243 283 602 283q176 0 279 -62q100 -61 100 -166q0 -74 -55 -116.5t-146 -42.5q0 279 -204 278q-252 0 -424 -276q-170 -272 -170 -602q0 -383 364 -383q238 0 379 186q27 -18 27 -68q0 -96 -115 -173.5t-313 -77.5q-266 0 -416 143t-150 405z M664 1579l6 27q187 184 270 301h195q27 -115 139 -301l-6 -27h-72q-96 66 -182 184q-150 -125 -262 -184h-88z" />
<glyph unicode="&#x109;" horiz-adv-x="995" d="M88 403q0 267 172 492q172 223 438 223q139 0 219 -55t80 -141q0 -61 -49 -103q-51 -41 -133 -41q0 109 -43 176q-41 66 -115 66q-143 0 -249.5 -213t-106.5 -420q0 -279 225 -278q178 0 295 147q20 -12 21 -51q0 -82 -96.5 -153.5t-258.5 -71.5q-178 0 -288.5 112 t-110.5 311zM426 1241l6 27q187 184 270 301h195q27 -115 139 -301l-6 -27h-72q-96 66 -182 184q-150 -125 -262 -184h-88z" />
<glyph unicode="&#x10a;" horiz-adv-x="1282" d="M106 528q0 391 242 672q243 283 602 283q176 0 279 -62q100 -61 100 -166q0 -74 -55 -116.5t-146 -42.5q0 279 -204 278q-252 0 -424 -276q-170 -272 -170 -602q0 -383 364 -383q238 0 379 186q27 -18 27 -68q0 -96 -115 -173.5t-313 -77.5q-266 0 -416 143t-150 405z M915 1753q0 66 33 105t90 39q115 0 115 -113q0 -68 -35 -107q-35 -37 -88 -36q-115 -1 -115 112z" />
<glyph unicode="&#x10b;" horiz-adv-x="995" d="M88 403q0 267 172 492q172 223 438 223q139 0 219 -55t80 -141q0 -61 -49 -103q-51 -41 -133 -41q0 109 -43 176q-41 66 -115 66q-143 0 -249.5 -213t-106.5 -420q0 -279 225 -278q178 0 295 147q20 -12 21 -51q0 -82 -96.5 -153.5t-258.5 -71.5q-178 0 -288.5 112 t-110.5 311zM647 1415q0 66 33 105t90 39q115 0 115 -113q0 -68 -35 -107q-35 -37 -88 -36q-115 -1 -115 112z" />
<glyph unicode="&#x10c;" horiz-adv-x="1282" d="M106 528q0 391 242 672q243 283 602 283q176 0 279 -62q100 -61 100 -166q0 -74 -55 -116.5t-146 -42.5q0 279 -204 278q-252 0 -424 -276q-170 -272 -170 -602q0 -383 364 -383q238 0 379 186q27 -18 27 -68q0 -96 -115 -173.5t-313 -77.5q-266 0 -416 143t-150 405z M757 1880l6 27h74q90 -70 174 -187q125 109 271 187h86l-7 -27q-154 -151 -270 -301h-194q-48 147 -140 301z" />
<glyph unicode="&#x10d;" horiz-adv-x="995" d="M88 403q0 267 172 492q172 223 438 223q139 0 219 -55t80 -141q0 -61 -49 -103q-51 -41 -133 -41q0 109 -43 176q-41 66 -115 66q-143 0 -249.5 -213t-106.5 -420q0 -279 225 -278q178 0 295 147q20 -12 21 -51q0 -82 -96.5 -153.5t-258.5 -71.5q-178 0 -288.5 112 t-110.5 311zM467 1542l6 27h74q90 -70 174 -187q125 109 271 187h86l-7 -27q-154 -151 -270 -301h-194q-48 147 -140 301z" />
<glyph unicode="&#x10e;" horiz-adv-x="1484" d="M-43 0l16 86h27q170 0 201 147l213 1004q8 33 8 57q0 82 -148 82h-26l18 86h574q279 0 430 -145.5t151 -411.5q0 -395 -223 -649q-225 -256 -596 -256h-645zM379 104h178q297 0 469 227.5t172 596.5q0 432 -389 432h-162zM612 1880l6 27h74q90 -70 174 -187 q125 109 271 187h86l-7 -27q-154 -151 -270 -301h-194q-48 147 -140 301z" />
<glyph unicode="&#x10f;" horiz-adv-x="1185" d="M88 354q0 281 176 522.5t434 241.5q115 0 201 -49q12 82 23 115l20 98q14 63 14 92q0 96 -143 96h-16l18 86h377l-238 -1116q-31 -141 -30 -227q0 -104 67 -104q57 0 148 53l37 -60q-147 -123 -289 -122q-160 0 -160 170q0 70 21 159h-13q-147 -330 -383 -329 q-123 0 -194 98q-70 96 -70 276zM297 346.5q0 -237.5 129 -237.5q102 0 213 151q113 154 149 330l76 362q-45 74 -155 74q-172 0 -293 -223q-119 -219 -119 -456.5zM1215 1229l4 26l121 301h178l-4 -20q-94 -152 -230 -307h-69z" />
<glyph unicode="&#x110;" horiz-adv-x="1529" d="M-43 0l16 86h27q170 0 201 147l102 482h-199l23 100h197l90 422q8 33 8 57q0 82 -148 82h-26l18 86h615q279 0 430 -145.5t151 -411.5q0 -395 -223 -649q-225 -256 -596 -256h-686zM379 104h219q297 0 467 226q174 229 174 598q0 432 -389 432h-203l-117 -545h388 l-23 -100h-387z" />
<glyph unicode="&#x111;" horiz-adv-x="1181" d="M88 373q0 268 162 485q164 219 426 219q102 0 192 -47q4 20 9 37l8 41q8 41 14 68l8 38h-350l18 97h353l4 20q6 25 6 43q0 96 -145 96h-17l19 86h376l-53 -245h187l-19 -97h-188l-164 -774q-31 -147 -31 -227q0 -104 68 -104q66 0 147 53l37 -60q-141 -123 -276 -122 q-145 0 -156 210h-10q-82 -131 -150 -170q-72 -41 -166 -40q-141 0 -225 106.5t-84 286.5zM297 352q0 -244 172 -243q101 0 172 86t98 221l103 504q-59 66 -156 65q-168 0 -278 -211q-111 -213 -111 -422z" />
<glyph unicode="&#x112;" horiz-adv-x="1275" d="M-43 0l16 86h27q106 0 145 37q37 35 54 100l213 1006q6 28 6 49q0 49 -29 73.5t-115 24.5h-26l18 86h1032l-65 -358h-107l7 63q4 33 4 56q0 137 -146 137h-344l-117 -545h494l-20 -100h-494l-131 -613h395q174 0 232 168l32 88h107l-90 -358h-1098zM539 1579l26 121h594 l-27 -121h-593z" />
<glyph unicode="&#x113;" horiz-adv-x="1009" d="M88 403q0 267 172 492q172 223 438 223q129 0 201 -61.5t72 -173.5q0 -166 -172 -289t-422 -123h-35q-25 0 -37 2q-4 -37 -4 -86q0 -279 225 -278q175 0 295 147q20 -12 21 -51q0 -82 -96.5 -153.5t-258.5 -71.5q-178 0 -288.5 112t-110.5 311zM324 567h20q184 0 299 88 q117 90 117 227.5t-119 137.5q-98 0 -184 -125q-88 -129 -133 -328zM412 1241l26 121h594l-27 -121h-593z" />
<glyph unicode="&#x114;" horiz-adv-x="1275" d="M-43 0l16 86h27q106 0 145 37q37 35 54 100l213 1006q6 28 6 49q0 49 -29 73.5t-115 24.5h-26l18 86h1032l-65 -358h-107l7 63q4 33 4 56q0 137 -146 137h-344l-117 -545h494l-20 -100h-494l-131 -613h395q174 0 232 168l32 88h107l-90 -358h-1098zM565 1860h95 q14 -139 178 -139.5t221 139.5h94q-35 -135 -121 -207q-89 -74 -209 -74q-240 0 -258 281z" />
<glyph unicode="&#x115;" horiz-adv-x="1009" d="M88 403q0 267 172 492q172 223 438 223q129 0 201 -61.5t72 -173.5q0 -166 -172 -289t-422 -123h-35q-25 0 -37 2q-4 -37 -4 -86q0 -279 225 -278q175 0 295 147q20 -12 21 -51q0 -82 -96.5 -153.5t-258.5 -71.5q-178 0 -288.5 112t-110.5 311zM324 567h20q184 0 299 88 q117 90 117 227.5t-119 137.5q-98 0 -184 -125q-88 -129 -133 -328zM434 1522h95q14 -139 178 -139.5t221 139.5h94q-35 -135 -121 -207q-89 -74 -209 -74q-240 0 -258 281z" />
<glyph unicode="&#x116;" horiz-adv-x="1275" d="M-43 0l16 86h27q106 0 145 37q37 35 54 100l213 1006q6 28 6 49q0 49 -29 73.5t-115 24.5h-26l18 86h1032l-65 -358h-107l7 63q4 33 4 56q0 137 -146 137h-344l-117 -545h494l-20 -100h-494l-131 -613h395q174 0 232 168l32 88h107l-90 -358h-1098zM727 1724q0 66 33 105 t90 39q115 0 115 -113q0 -68 -35 -107q-35 -37 -88 -36q-115 -1 -115 112z" />
<glyph unicode="&#x117;" horiz-adv-x="1009" d="M88 403q0 267 172 492q172 223 438 223q129 0 201 -61.5t72 -173.5q0 -166 -172 -289t-422 -123h-35q-25 0 -37 2q-4 -37 -4 -86q0 -279 225 -278q175 0 295 147q20 -12 21 -51q0 -82 -96.5 -153.5t-258.5 -71.5q-178 0 -288.5 112t-110.5 311zM324 567h20q184 0 299 88 q117 90 117 227.5t-119 137.5q-98 0 -184 -125q-88 -129 -133 -328zM608 1415q0 66 33 105t90 39q115 0 115 -113q0 -68 -35 -107q-35 -37 -88 -36q-115 -1 -115 112z" />
<glyph unicode="&#x118;" horiz-adv-x="1275" d="M-43 0l16 86h27q106 0 145 37q37 35 54 100l213 1006q6 28 6 49q0 49 -29 73.5t-115 24.5h-26l18 86h1032l-65 -358h-107l7 63q4 33 4 56q0 137 -146 137h-344l-117 -545h494l-20 -100h-494l-131 -613h395q174 0 232 168l32 88h107l-90 -358h-1098zM530 -283 q0 102 80 176t225 107h117q-109 -37 -176.5 -104.5t-67.5 -149.5q0 -49 33 -82q29 -29 84 -29q61 0 133 17l-25 -111q-74 -33 -163 -33q-240 0 -240 209z" />
<glyph unicode="&#x119;" horiz-adv-x="1009" d="M88 403q0 267 172 492q172 223 438 223q129 0 201 -61.5t72 -173.5q0 -166 -172 -289t-422 -123h-35q-25 0 -37 2q-4 -37 -4 -86q0 -279 225 -278q175 0 295 147q20 -12 21 -51q0 -82 -96.5 -153.5t-258.5 -71.5q-178 0 -288.5 112t-110.5 311zM324 567h20q184 0 299 88 q117 90 117 227.5t-119 137.5q-98 0 -184 -125q-88 -129 -133 -328zM291 -252q0 102 80 176t225 107h117q-109 -37 -176.5 -104.5t-67.5 -149.5q0 -49 33 -82q29 -29 84 -29q61 0 133 17l-25 -111q-74 -33 -163 -33q-240 0 -240 209z" />
<glyph unicode="&#x11a;" horiz-adv-x="1275" d="M-43 0l16 86h27q106 0 145 37q37 35 54 100l213 1006q6 28 6 49q0 49 -29 73.5t-115 24.5h-26l18 86h1032l-65 -358h-107l7 63q4 33 4 56q0 137 -146 137h-344l-117 -545h494l-20 -100h-494l-131 -613h395q174 0 232 168l32 88h107l-90 -358h-1098zM571 1880l6 27h74 q90 -70 174 -187q125 109 271 187h86l-7 -27q-154 -151 -270 -301h-194q-48 147 -140 301z" />
<glyph unicode="&#x11b;" horiz-adv-x="1009" d="M88 403q0 267 172 492q172 223 438 223q129 0 201 -61.5t72 -173.5q0 -166 -172 -289t-422 -123h-35q-25 0 -37 2q-4 -37 -4 -86q0 -279 225 -278q175 0 295 147q20 -12 21 -51q0 -82 -96.5 -153.5t-258.5 -71.5q-178 0 -288.5 112t-110.5 311zM324 567h20q184 0 299 88 q117 90 117 227.5t-119 137.5q-98 0 -184 -125q-88 -129 -133 -328zM475 1542l6 27h74q90 -70 174 -187q125 109 271 187h86l-7 -27q-154 -151 -270 -301h-194q-48 147 -140 301z" />
<glyph unicode="&#x11c;" horiz-adv-x="1460" d="M106 528q0 406 250 680.5t631 274.5q205 0 318 -62q115 -61 114 -159q0 -76 -61.5 -119t-155.5 -43q0 132 -67 203q-68 72 -191 71q-252 0 -434 -262q-180 -260 -180 -616q0 -399 395 -400q111 0 231 29l68 326q8 33 8 57q0 82 -147 82h-19l19 86h545l-19 -86h-8 q-84 0 -121 -37q-39 -39 -53 -111l-78 -368q-215 -94 -463 -94q-283 0 -432.5 143t-149.5 405zM664 1579l6 27q187 184 270 301h195q27 -115 139 -301l-6 -27h-72q-96 66 -182 184q-150 -125 -262 -184h-88z" />
<glyph unicode="&#x11d;" horiz-adv-x="1138" d="M-72 -225q0 111 90 188q88 76 244 107q-98 49 -98 141q0 61 41 106t153 103q-143 68 -143 242q0 172 131 315q129 141 344 141q129 0 211 -65q98 145 221 145q102 0 103 -94q0 -127 -121 -127q0 74 -57 74q-37 0 -101 -47q45 -63 45 -158q0 -170 -129 -316 q-129 -143 -340 -143q-41 0 -65 4q-145 -57 -146 -129q0 -52 105 -61l196 -21q317 -33 318 -268q0 -190 -143.5 -297t-411.5 -107q-447 1 -447 267zM94 -213q0 -178 289 -178q178 0 274 67q94 68 95 179q0 133 -191 151l-199 19q-18 0 -88 -21q-78 -23 -127 -78 q-53 -59 -53 -139zM403 653q0 -168 142 -168q119 0 188 117q72 119 72 254q0 168 -141 168q-120 0 -191 -117q-70 -115 -70 -254zM379 1241l6 27q187 184 270 301h195q27 -115 139 -301l-6 -27h-72q-96 66 -182 184q-150 -125 -262 -184h-88z" />
<glyph unicode="&#x11e;" horiz-adv-x="1460" d="M106 528q0 406 250 680.5t631 274.5q205 0 318 -62q115 -61 114 -159q0 -76 -61.5 -119t-155.5 -43q0 132 -67 203q-68 72 -191 71q-252 0 -434 -262q-180 -260 -180 -616q0 -399 395 -400q111 0 231 29l68 326q8 33 8 57q0 82 -147 82h-19l19 86h545l-19 -86h-8 q-84 0 -121 -37q-39 -39 -53 -111l-78 -368q-215 -94 -463 -94q-283 0 -432.5 143t-149.5 405zM702 1860h95q14 -139 178 -139.5t221 139.5h94q-35 -135 -121 -207q-89 -74 -209 -74q-240 0 -258 281z" />
<glyph unicode="&#x11f;" horiz-adv-x="1138" d="M-72 -225q0 111 90 188q88 76 244 107q-98 49 -98 141q0 61 41 106t153 103q-143 68 -143 242q0 172 131 315q129 141 344 141q129 0 211 -65q98 145 221 145q102 0 103 -94q0 -127 -121 -127q0 74 -57 74q-37 0 -101 -47q45 -63 45 -158q0 -170 -129 -316 q-129 -143 -340 -143q-41 0 -65 4q-145 -57 -146 -129q0 -52 105 -61l196 -21q317 -33 318 -268q0 -190 -143.5 -297t-411.5 -107q-447 1 -447 267zM94 -213q0 -178 289 -178q178 0 274 67q94 68 95 179q0 133 -191 151l-199 19q-18 0 -88 -21q-78 -23 -127 -78 q-53 -59 -53 -139zM403 653q0 -168 142 -168q119 0 188 117q72 119 72 254q0 168 -141 168q-120 0 -191 -117q-70 -115 -70 -254zM450 1522h95q14 -139 178 -139.5t221 139.5h94q-35 -135 -121 -207q-89 -74 -209 -74q-240 0 -258 281z" />
<glyph unicode="&#x120;" horiz-adv-x="1460" d="M106 528q0 406 250 680.5t631 274.5q205 0 318 -62q115 -61 114 -159q0 -76 -61.5 -119t-155.5 -43q0 132 -67 203q-68 72 -191 71q-252 0 -434 -262q-180 -260 -180 -616q0 -399 395 -400q111 0 231 29l68 326q8 33 8 57q0 82 -147 82h-19l19 86h545l-19 -86h-8 q-84 0 -121 -37q-39 -39 -53 -111l-78 -368q-215 -94 -463 -94q-283 0 -432.5 143t-149.5 405zM911 1753q0 66 33 105t90 39q115 0 115 -113q0 -68 -35 -107q-35 -37 -88 -36q-115 -1 -115 112z" />
<glyph unicode="&#x121;" horiz-adv-x="1138" d="M-72 -225q0 111 90 188q88 76 244 107q-98 49 -98 141q0 61 41 106t153 103q-143 68 -143 242q0 172 131 315q129 141 344 141q129 0 211 -65q98 145 221 145q102 0 103 -94q0 -127 -121 -127q0 74 -57 74q-37 0 -101 -47q45 -63 45 -158q0 -170 -129 -316 q-129 -143 -340 -143q-41 0 -65 4q-145 -57 -146 -129q0 -52 105 -61l196 -21q317 -33 318 -268q0 -190 -143.5 -297t-411.5 -107q-447 1 -447 267zM94 -213q0 -178 289 -178q178 0 274 67q94 68 95 179q0 133 -191 151l-199 19q-18 0 -88 -21q-78 -23 -127 -78 q-53 -59 -53 -139zM403 653q0 -168 142 -168q119 0 188 117q72 119 72 254q0 168 -141 168q-120 0 -191 -117q-70 -115 -70 -254zM633 1415q0 66 33 105t90 39q115 0 115 -113q0 -68 -35 -107q-35 -37 -88 -36q-115 -1 -115 112z" />
<glyph unicode="&#x122;" horiz-adv-x="1460" d="M106 528q0 406 250 680.5t631 274.5q205 0 318 -62q115 -61 114 -159q0 -76 -61.5 -119t-155.5 -43q0 132 -67 203q-68 72 -191 71q-252 0 -434 -262q-180 -260 -180 -616q0 -399 395 -400q111 0 231 29l68 326q8 33 8 57q0 82 -147 82h-19l19 86h545l-19 -86h-8 q-84 0 -121 -37q-39 -39 -53 -111l-78 -368q-215 -94 -463 -94q-283 0 -432.5 143t-149.5 405zM473 -453l4 27l41 96q45 106 80 205h178l-4 -20q-111 -170 -229 -308h-70z" />
<glyph unicode="&#x123;" horiz-adv-x="1138" d="M-72 -225q0 111 90 188q88 76 244 107q-98 49 -98 141q0 61 41 106t153 103q-143 68 -143 242q0 172 131 315q129 141 344 141q129 0 211 -65q98 145 221 145q102 0 103 -94q0 -127 -121 -127q0 74 -57 74q-37 0 -101 -47q45 -63 45 -158q0 -170 -129 -316 q-129 -143 -340 -143q-41 0 -65 4q-145 -57 -146 -129q0 -52 105 -61l196 -21q317 -33 318 -268q0 -190 -143.5 -297t-411.5 -107q-447 1 -447 267zM94 -213q0 -178 289 -178q178 0 274 67q94 68 95 179q0 133 -191 151l-199 19q-18 0 -88 -21q-78 -23 -127 -78 q-53 -59 -53 -139zM403 653q0 -168 142 -168q119 0 188 117q72 119 72 254q0 168 -141 168q-120 0 -191 -117q-70 -115 -70 -254zM624 1241l4 21q94 152 230 307h69l-4 -27l-43 -96q-33 -78 -78 -205h-178z" />
<glyph unicode="&#x124;" horiz-adv-x="1622" d="M-43 0l16 86h27q98 0 141 37t60 110l213 1004q8 33 8 57q0 82 -148 82h-26l18 86h596l-18 -86h-27q-98 0 -141 -37q-41 -35 -58 -110l-88 -414h666l90 422q8 33 8 57q0 82 -147 82h-27l19 86h596l-19 -86h-26q-98 0 -142 -37q-41 -35 -57 -110l-213 -1004q-8 -33 -8 -57 q0 -82 147 -82h27l-19 -86h-596l17 86h26q98 0 142 37q45 39 59 110l101 480h-666l-102 -488q-8 -39 -9 -57q0 -82 148 -82h26l-18 -86h-596zM733 1579l6 27q187 184 270 301h195q27 -115 139 -301l-6 -27h-72q-96 66 -182 184q-150 -125 -262 -184h-88z" />
<glyph unicode="&#x125;" horiz-adv-x="1226" d="M90 0l266 1266q18 90 19 108q0 96 -144 96h-16l18 86h377l-80 -376q-41 -184 -81 -340h22q168 276 379 276q219 0 219 -227q0 -66 -37 -225l-53 -242q-27 -119 -27 -215q0 -98 72 -98q59 0 131 47l37 -60q-135 -117 -250 -116q-86 0 -135 55q-51 57 -51 149q0 96 39 277 l47 213q31 123 30 190q0 121 -94 121q-117 0 -235 -156q-121 -160 -152 -305l-110 -524h-191zM508 1634l6 27q187 184 270 301h195q27 -115 139 -301l-6 -27h-72q-96 66 -182 184q-150 -125 -262 -184h-88z" />
<glyph unicode="&#x126;" horiz-adv-x="1622" d="M-43 0l16 86h27q98 0 141 37t60 110l166 789h-193l19 100h196l25 115q8 33 8 57q0 82 -148 82h-26l18 86h596l-18 -86h-27q-98 0 -141 -37q-41 -35 -58 -110l-22 -107h666l24 115q8 33 8 57q0 82 -147 82h-27l19 86h596l-19 -86h-26q-98 0 -142 -37q-41 -35 -57 -110 l-23 -107h193l-19 -100h-196l-168 -797q-8 -33 -8 -57q0 -82 147 -82h27l-19 -86h-596l17 86h26q96 0 139.5 37t61.5 110l101 480h-666l-102 -488q-8 -39 -9 -57q0 -82 148 -82h26l-18 -86h-596zM530 815h666l43 207h-666z" />
<glyph unicode="&#x127;" horiz-adv-x="1226" d="M90 0l254 1214h-184l18 97h187q10 51 10 63q0 96 -144 96h-16l18 86h377l-53 -245h350l-18 -97h-352l-7 -34q-57 -270 -90 -381h23q166 276 379 276q219 0 219 -227q0 -57 -25 -170l-12 -55l-45 -201q-27 -115 -27 -215q0 -98 72 -98q59 0 131 47l37 -60 q-135 -117 -250 -116q-86 0 -135 55q-51 57 -51 149q0 96 39 277l39 172q31 123 30 190q0 121 -94 121q-117 0 -235 -156q-121 -160 -152 -305l-102 -483h-191z" />
<glyph unicode="&#x128;" horiz-adv-x="751" d="M-43 0l16 86h27q170 0 201 147l213 1004q8 33 8 57q0 82 -148 82h-26l18 86h596l-18 -86h-27q-98 0 -141 -37q-41 -35 -58 -110l-212 -1004q-8 -39 -9 -57q0 -82 148 -82h26l-18 -86h-596zM221 1600q72 242 268 241q84 0 168 -63q88 -66 125 -66q88 0 123 109h92 q-70 -242 -266 -242q-80 0 -170 66q-88 63 -125 63q-88 0 -123 -108h-92z" />
<glyph unicode="&#x129;" horiz-adv-x="622" d="M127 1012l18 86h367l-139 -658q-31 -147 -31 -227q0 -104 68 -104q57 0 147 53l37 -60q-141 -123 -277 -122q-77 0 -122 55q-47 57 -48 139q0 96 46 322l79 376q6 33 7 54q0 86 -125 86h-27zM35 1262q72 242 268 241q84 0 168 -63q88 -66 125 -66q88 0 123 109h92 q-70 -242 -266 -242q-80 0 -170 66q-88 63 -125 63q-88 0 -123 -108h-92z" />
<glyph unicode="&#x12a;" horiz-adv-x="751" d="M-43 0l16 86h27q170 0 201 147l213 1004q8 33 8 57q0 82 -148 82h-26l18 86h596l-18 -86h-27q-98 0 -141 -37q-41 -35 -58 -110l-212 -1004q-8 -39 -9 -57q0 -82 148 -82h26l-18 -86h-596zM285 1579l26 121h594l-27 -121h-593z" />
<glyph unicode="&#x12b;" horiz-adv-x="622" d="M127 1012l18 86h367l-139 -658q-31 -147 -31 -227q0 -104 68 -104q57 0 147 53l37 -60q-141 -123 -277 -122q-77 0 -122 55q-47 57 -48 139q0 96 46 322l79 376q6 33 7 54q0 86 -125 86h-27zM113 1241l26 121h594l-27 -121h-593z" />
<glyph unicode="&#x12c;" horiz-adv-x="751" d="M-43 0l16 86h27q170 0 201 147l213 1004q8 33 8 57q0 82 -148 82h-26l18 86h596l-18 -86h-27q-98 0 -141 -37q-41 -35 -58 -110l-212 -1004q-8 -39 -9 -57q0 -82 148 -82h26l-18 -86h-596zM319 1860h95q14 -139 178 -139.5t221 139.5h94q-35 -135 -121 -207 q-89 -74 -209 -74q-240 0 -258 281z" />
<glyph unicode="&#x12d;" horiz-adv-x="622" d="M127 1012l18 86h367l-139 -658q-31 -147 -31 -227q0 -104 68 -104q57 0 147 53l37 -60q-141 -123 -277 -122q-77 0 -122 55q-47 57 -48 139q0 96 46 322l79 376q6 33 7 54q0 86 -125 86h-27zM147 1522h95q14 -139 178 -139.5t221 139.5h94q-35 -135 -121 -207 q-89 -74 -209 -74q-240 0 -258 281z" />
<glyph unicode="&#x12e;" horiz-adv-x="751" d="M-43 0l16 86h27q170 0 201 147l213 1004q8 33 8 57q0 82 -148 82h-26l18 86h596l-18 -86h-27q-98 0 -141 -37q-41 -35 -58 -110l-212 -1004q-8 -39 -9 -57q0 -82 148 -82h26l-18 -86h-596zM47 -283q0 102 80 176t225 107h117q-109 -37 -176.5 -104.5t-67.5 -149.5 q0 -49 33 -82q29 -29 84 -29q61 0 133 17l-25 -111q-74 -33 -163 -33q-240 0 -240 209z" />
<glyph unicode="&#x12f;" horiz-adv-x="622" d="M127 1012l18 86h367l-139 -658q-31 -147 -31 -227q0 -104 68 -104q57 0 147 53l37 -60q-141 -123 -277 -122q-77 0 -122 55q-47 57 -48 139q0 96 46 322l79 376q6 33 7 54q0 86 -125 86h-27zM344 1415q0 66 33 105t90 39q115 0 115 -113q0 -68 -35 -107q-35 -37 -88 -36 q-115 -1 -115 112zM0 -283q0 102 80 176t225 107h117q-109 -37 -176.5 -104.5t-67.5 -149.5q0 -49 33 -82q29 -29 84 -29q61 0 133 17l-25 -111q-74 -33 -163 -33q-240 0 -240 209z" />
<glyph unicode="&#x130;" horiz-adv-x="751" d="M-43 0l16 86h27q170 0 201 147l213 1004q8 33 8 57q0 82 -148 82h-26l18 86h596l-18 -86h-27q-98 0 -141 -37q-41 -35 -58 -110l-212 -1004q-8 -39 -9 -57q0 -82 148 -82h26l-18 -86h-596zM504 1753q0 66 33 105t90 39q115 0 115 -113q0 -68 -35 -107q-35 -37 -88 -36 q-115 -1 -115 112z" />
<glyph unicode="&#x131;" horiz-adv-x="622" d="M127 1012l18 86h367l-139 -658q-31 -147 -31 -227q0 -104 68 -104q57 0 147 53l37 -60q-141 -123 -277 -122q-77 0 -122 55q-47 57 -48 139q0 96 46 322l79 376q6 33 7 54q0 86 -125 86h-27z" />
<glyph unicode="&#x132;" horiz-adv-x="1423" d="M-43 0l16 86h27q170 0 201 147l213 1004q8 33 8 57q0 82 -148 82h-26l18 86h596l-18 -86h-27q-98 0 -141 -37q-41 -35 -58 -110l-212 -1004q-8 -39 -9 -57q0 -82 148 -82h26l-18 -86h-596zM377 -469l28 92q51 -18 133 -18q119 0 185 90q68 92 108 287l266 1255q8 39 9 57 q0 82 -148 82h-26l18 86h596l-18 -86h-27q-98 0 -141 -37q-41 -35 -58 -110l-266 -1245q-55 -248 -172 -363q-115 -113 -320 -113q-87 0 -167 23z" />
<glyph unicode="&#x133;" horiz-adv-x="1218" d="M127 1012l18 86h367l-139 -658q-31 -147 -31 -227q0 -104 68 -104q57 0 147 53l37 -60q-141 -123 -277 -122q-77 0 -122 55q-47 57 -48 139q0 96 46 322l79 376q6 33 7 54q0 86 -125 86h-27zM344 1415q0 66 33 105t90 39q115 0 115 -113q0 -68 -35 -107q-35 -37 -88 -36 q-115 -1 -115 112zM336 -475l19 94q49 -14 94 -14q104 0 162 92q59 92 98 287l188 888q6 33 7 54q0 86 -125 86h-27l18 86h367l-235 -1114q-53 -246 -156 -361t-291 -115q-64 1 -119 17zM969 1415q0 66 33 105t90 39q115 0 115 -113q0 -68 -35 -107q-33 -37 -88 -36 q-115 -1 -115 112z" />
<glyph unicode="&#x134;" horiz-adv-x="729" d="M-317 -469l28 92q51 -18 133 -18q119 0 185 90q68 92 108 287l266 1255q8 39 9 57q0 82 -148 82h-26l18 86h596l-18 -86h-27q-98 0 -141 -37q-41 -35 -58 -110l-266 -1245q-55 -248 -172 -363q-115 -113 -320 -113q-87 0 -167 23zM266 1579l6 27q187 184 270 301h195 q27 -115 139 -301l-6 -27h-72q-96 66 -182 184q-150 -125 -262 -184h-88z" />
<glyph unicode="&#x135;" horiz-adv-x="595" d="M-287 -475l19 94q49 -14 94 -14q104 0 162 92q59 92 98 287l188 888q6 33 7 54q0 86 -125 86h-27l18 86h367l-235 -1114q-53 -246 -156 -361t-291 -115q-64 1 -119 17zM70 1241l6 27q187 184 270 301h195q27 -115 139 -301l-6 -27h-72q-96 66 -182 184 q-150 -125 -262 -184h-88z" />
<glyph unicode="&#x136;" horiz-adv-x="1433" d="M-43 0l16 86h27q98 0 141 37t60 110l213 1004q8 33 8 57q0 82 -148 82h-26l18 86h596l-18 -86h-27q-98 0 -141 -37q-41 -35 -58 -110l-88 -414l-36 -151l528 485q154 141 154 184q0 45 -91 45l17 84h452l-16 -84q-57 0 -118.5 -34.5t-196.5 -157.5l-373 -338l248 -598 q68 -164 194 -164h6l-18 -86h-29q-164 0 -241.5 33t-126.5 157l-199 506l-211 -147l-67 -324q-8 -39 -9 -57q0 -82 148 -82h26l-18 -86h-596zM487 -453l4 27l41 96q45 106 80 205h178l-4 -20q-111 -170 -229 -308h-70z" />
<glyph unicode="&#x137;" horiz-adv-x="1163" d="M90 0l266 1266q18 90 19 108q0 96 -144 96h-16l18 86h377l-80 -376q-111 -520 -159 -674l323 280q152 133 152 193q0 31 -92 31l18 86h453l-19 -86q-121 0 -329 -191l-185 -170l187 -405q80 -172 208 -172l-18 -86q-172 0 -250 39q-80 40 -135 172l-133 327l-186 -118 l-84 -406h-191zM354 -453l4 27l41 96q45 106 80 205h178l-4 -20q-111 -170 -229 -308h-70z" />
<glyph unicode="&#x138;" horiz-adv-x="1163" d="M90 0l170 807q18 90 19 108q0 96 -144 97h-16l18 86h377l-55 -254q-43 -193 -88 -338l323 280q152 133 152 193q0 31 -92 31l18 86h453l-19 -86q-121 0 -329 -191l-185 -170l187 -405q80 -172 208 -172l-18 -86q-176 0 -256 43t-129 168l-133 327l-186 -118l-84 -406 h-191z" />
<glyph unicode="&#x139;" horiz-adv-x="1275" d="M-41 0l18 86h27q94 0 137 37q39 33 60 110l213 1004q8 33 8 57q0 82 -148 82h-26l18 86h596l-18 -86h-27q-94 0 -139 -35q-41 -33 -57 -104l-242 -1135h403q158 0 219 185l54 153h106l-106 -440h-1096zM578 1579l6 27q121 139 219 301h219l-6 -21q-157 -184 -356 -307 h-82z" />
<glyph unicode="&#x13a;" horiz-adv-x="622" d="M150 174q0 102 45 322l167 786q12 61 13 92q0 96 -144 96h-24l18 86h387l-237 -1116q-31 -147 -31 -227q0 -104 68 -104q57 0 147 53l37 -60q-141 -123 -277 -122q-78 0 -122 55q-47 57 -47 139zM469 1636l6 27q121 139 219 301h219l-6 -21q-157 -184 -356 -307h-82z" />
<glyph unicode="&#x13b;" horiz-adv-x="1275" d="M-41 0l18 86h27q94 0 137 37q39 33 60 110l213 1004q8 33 8 57q0 82 -148 82h-26l18 86h596l-18 -86h-27q-94 0 -139 -35q-41 -33 -57 -104l-242 -1135h403q158 0 219 185l54 153h106l-106 -440h-1096zM376 -453l4 27l41 96q45 106 80 205h178l-4 -20 q-111 -170 -229 -308h-70z" />
<glyph unicode="&#x13c;" horiz-adv-x="622" d="M150 174q0 102 45 322l167 786q12 61 13 92q0 96 -144 96h-24l18 86h387l-237 -1116q-31 -147 -31 -227q0 -104 68 -104q57 0 147 53l37 -60q-141 -123 -277 -122q-78 0 -122 55q-47 57 -47 139zM141 -453l4 27l41 96q45 106 80 205h178l-4 -20q-111 -170 -229 -308h-70z " />
<glyph unicode="&#x13d;" horiz-adv-x="1275" d="M-41 0l18 86h27q94 0 137 37q39 33 60 110l213 1004q8 33 8 57q0 82 -148 82h-26l18 86h596l-18 -86h-27q-94 0 -139 -35q-41 -33 -57 -104l-242 -1135h403q158 0 219 185l54 153h106l-106 -440h-1096zM914 1137l4 26l121 301h178l-4 -20q-94 -152 -230 -307h-69z" />
<glyph unicode="&#x13e;" horiz-adv-x="622" d="M150 174q0 102 45 322l167 786q12 61 13 92q0 96 -144 96h-24l18 86h387l-237 -1116q-31 -147 -31 -227q0 -104 68 -104q57 0 147 53l37 -60q-141 -123 -277 -122q-78 0 -122 55q-47 57 -47 139zM658 1229l4 26l121 301h178l-4 -20q-94 -152 -230 -307h-69z" />
<glyph unicode="&#x13f;" horiz-adv-x="1275" d="M-41 0l18 86h27q94 0 137 37q39 33 60 110l213 1004q8 33 8 57q0 82 -148 82h-26l18 86h596l-18 -86h-27q-94 0 -139 -35q-41 -33 -57 -104l-242 -1135h403q158 0 219 185l54 153h106l-106 -440h-1096zM786 772q0 66 33 105t90 39q115 0 115 -113q0 -68 -35 -107 q-35 -37 -88 -36q-115 -1 -115 112z" />
<glyph unicode="&#x140;" horiz-adv-x="808" d="M150 174q0 102 45 322l167 786q12 61 13 92q0 96 -144 96h-24l18 86h387l-237 -1116q-31 -147 -31 -227q0 -104 68 -104q57 0 147 53l37 -60q-141 -123 -277 -122q-78 0 -122 55q-47 57 -47 139zM618 702q0 66 33 105t90 39q115 0 115 -113q0 -68 -35 -107 q-35 -37 -88 -36q-115 -1 -115 112z" />
<glyph unicode="&#x141;" horiz-adv-x="1275" d="M-41 0l18 86h27q94 0 137 37q39 33 60 110l73 349l-221 -113l25 115l221 112l115 541q8 33 8 57q0 82 -148 82h-26l18 86h596l-18 -86h-27q-100 0 -139 -37q-43 -39 -57 -102l-91 -422l357 186l-25 -118l-356 -185l-127 -596h403q158 0 219 185l54 153h106l-106 -440 h-1096z" />
<glyph unicode="&#x142;" horiz-adv-x="663" d="M16 469l25 115l192 100l140 647q6 25 6 45q0 94 -146 94h-26l18 86h387l-163 -763l219 112l-25 -119l-219 -110l-49 -236q-31 -151 -31 -227q0 -104 68 -104q57 0 147 53l37 -60q-141 -123 -277 -122q-78 0 -122 55q-47 57 -47 139q0 102 45 322l14 69z" />
<glyph unicode="&#x143;" horiz-adv-x="1562" d="M-41 0l18 86h27q94 0 137 37q39 33 60 110l213 1004q8 33 8 57q0 82 -148 82h-26l18 86h373l496 -1130l192 905q8 33 8 57q0 82 -147 82h-27l19 86h514l-19 -86h-26q-96 0 -139.5 -36.5t-59.5 -110.5l-260 -1229h-133l-527 1200l-206 -975q-8 -39 -9 -57q0 -82 148 -82 h26l-18 -86h-512zM934 1579l6 27q121 139 219 301h219l-6 -21q-157 -184 -356 -307h-82z" />
<glyph unicode="&#x144;" horiz-adv-x="1226" d="M90 0l172 823q12 58 12 92q0 96 -143 97h-16l18 86h379l-55 -258h20q166 276 373 276q219 0 219 -227q0 -66 -37 -225l-53 -242q-27 -119 -27 -215q0 -98 72 -98q59 0 131 47l37 -60q-135 -117 -250 -116q-86 0 -135 55q-51 57 -51 149q0 96 39 277l47 213q31 123 30 190 q0 121 -94 121q-114 0 -233.5 -153.5t-153.5 -307.5l-110 -524h-191zM680 1241l6 27q121 139 219 301h219l-6 -21q-157 -184 -356 -307h-82z" />
<glyph unicode="&#x145;" horiz-adv-x="1562" d="M-41 0l18 86h27q94 0 137 37q39 33 60 110l213 1004q8 33 8 57q0 82 -148 82h-26l18 86h373l496 -1130l192 905q8 33 8 57q0 82 -147 82h-27l19 86h514l-19 -86h-26q-96 0 -139.5 -36.5t-59.5 -110.5l-260 -1229h-133l-527 1200l-206 -975q-8 -39 -9 -57q0 -82 148 -82 h26l-18 -86h-512zM487 -453l4 27l41 96q45 106 80 205h178l-4 -20q-111 -170 -229 -308h-70z" />
<glyph unicode="&#x146;" horiz-adv-x="1226" d="M90 0l172 823q12 58 12 92q0 96 -143 97h-16l18 86h379l-55 -258h20q166 276 373 276q219 0 219 -227q0 -66 -37 -225l-53 -242q-27 -119 -27 -215q0 -98 72 -98q59 0 131 47l37 -60q-135 -117 -250 -116q-86 0 -135 55q-51 57 -51 149q0 96 39 277l47 213q31 123 30 190 q0 121 -94 121q-114 0 -233.5 -153.5t-153.5 -307.5l-110 -524h-191zM352 -453l4 27l41 96q45 106 80 205h178l-4 -20q-111 -170 -229 -308h-70z" />
<glyph unicode="&#x147;" horiz-adv-x="1562" d="M-41 0l18 86h27q94 0 137 37q39 33 60 110l213 1004q8 33 8 57q0 82 -148 82h-26l18 86h373l496 -1130l192 905q8 33 8 57q0 82 -147 82h-27l19 86h514l-19 -86h-26q-96 0 -139.5 -36.5t-59.5 -110.5l-260 -1229h-133l-527 1200l-206 -975q-8 -39 -9 -57q0 -82 148 -82 h26l-18 -86h-512zM768 1880l6 27h74q90 -70 174 -187q125 109 271 187h86l-7 -27q-154 -151 -270 -301h-194q-48 147 -140 301z" />
<glyph unicode="&#x148;" horiz-adv-x="1226" d="M90 0l172 823q12 58 12 92q0 96 -143 97h-16l18 86h379l-55 -258h20q166 276 373 276q219 0 219 -227q0 -66 -37 -225l-53 -242q-27 -119 -27 -215q0 -98 72 -98q59 0 131 47l37 -60q-135 -117 -250 -116q-86 0 -135 55q-51 57 -51 149q0 96 39 277l47 213q31 123 30 190 q0 121 -94 121q-114 0 -233.5 -153.5t-153.5 -307.5l-110 -524h-191zM479 1542l6 27h74q90 -70 174 -187q125 109 271 187h86l-7 -27q-154 -151 -270 -301h-194q-48 147 -140 301z" />
<glyph unicode="&#x149;" horiz-adv-x="1501" d="M366 0l172 823q12 58 12 92q0 96 -143 97h-16l18 86h379l-55 -258h20q166 276 373 276q219 0 219 -227q0 -66 -37 -225l-53 -242q-27 -119 -27 -215q0 -98 72 -98q59 0 131 47l37 -60q-135 -117 -250 -116q-86 0 -135 55q-51 57 -51 149q0 96 39 277l47 213 q31 123 30 190q0 121 -94 121q-114 0 -233.5 -153.5t-153.5 -307.5l-110 -524h-191zM14 901l8 86q209 46 209 172q0 35 -66 78q-68 43 -67 104q0 53 35 89q33 33 92 32q68 0 115 -47q45 -45 45 -121q0 -147 -97 -254q-92 -102 -274 -139z" />
<glyph unicode="&#x14a;" horiz-adv-x="1622" d="M-41 0l18 86h27q94 0 137 37q39 33 60 110l213 1004q8 33 8 57q0 82 -148 82h-26l18 86h361l565 -1153l197 928q8 33 8 57q0 82 -148 82h-26l18 86h514l-18 -86h-27q-98 0 -141 -37q-41 -35 -58 -110l-264 -1245q-55 -256 -164 -365q-111 -111 -299 -111q-78 0 -145 23 l25 92q53 -18 112 -18q123 0 215 98q94 100 133 285l-594 1212l-206 -975q-8 -39 -9 -57q0 -82 148 -82h26l-18 -86h-512z" />
<glyph unicode="&#x14b;" horiz-adv-x="1150" d="M90 0l172 823q12 58 12 92q0 96 -143 97h-16l18 86h379l-55 -258h20q170 276 373 276q219 0 219 -227q0 -72 -37 -232l-145 -673q-55 -252 -158 -363q-104 -113 -289 -113q-63 0 -118 17l18 94q49 -14 94 -14q102 0 161.5 92t98.5 287l135 630q43 201 43 250 q0 121 -94 121q-114 0 -233.5 -153.5t-153.5 -307.5l-110 -524h-191z" />
<glyph unicode="&#x14c;" horiz-adv-x="1519" d="M106 545q0 354 229.5 647t590.5 293q238 0 385 -148q145 -145 145 -415q0 -348 -227 -648q-227 -297 -586 -297q-242 0 -389.5 154t-147.5 414zM330 487q0 -190 88 -294q86 -102 237 -103q256 0 416 282.5t160 604.5q0 193 -84 295t-238 102q-254 0 -417 -284 q-162 -281 -162 -603zM656 1579l26 121h594l-27 -121h-593z" />
<glyph unicode="&#x14d;" horiz-adv-x="1175" d="M88 403q0 279 168 496q170 219 442 219q180 0 284.5 -108.5t104.5 -315.5q0 -270 -167 -493q-166 -221 -439 -221q-182 0 -288 112q-105 110 -105 311zM301 362q0 -283 203 -282q168 0 270 201q100 199 100 444q0 285 -200 285q-166 0 -271 -201q-102 -197 -102 -447z M428 1241l26 121h594l-27 -121h-593z" />
<glyph unicode="&#x14e;" horiz-adv-x="1519" d="M106 545q0 354 229.5 647t590.5 293q238 0 385 -148q145 -145 145 -415q0 -348 -227 -648q-227 -297 -586 -297q-242 0 -389.5 154t-147.5 414zM330 487q0 -190 88 -294q86 -102 237 -103q256 0 416 282.5t160 604.5q0 193 -84 295t-238 102q-254 0 -417 -284 q-162 -281 -162 -603zM698 1860h95q14 -139 178 -139.5t221 139.5h94q-35 -135 -121 -207q-89 -74 -209 -74q-240 0 -258 281z" />
<glyph unicode="&#x14f;" horiz-adv-x="1175" d="M88 403q0 279 168 496q170 219 442 219q180 0 284.5 -108.5t104.5 -315.5q0 -270 -167 -493q-166 -221 -439 -221q-182 0 -288 112q-105 110 -105 311zM301 362q0 -283 203 -282q168 0 270 201q100 199 100 444q0 285 -200 285q-166 0 -271 -201q-102 -197 -102 -447z M469 1522h95q14 -139 178 -139.5t221 139.5h94q-35 -135 -121 -207q-89 -74 -209 -74q-240 0 -258 281z" />
<glyph unicode="&#x150;" horiz-adv-x="1519" d="M106 545q0 354 229.5 647t590.5 293q238 0 385 -148q145 -145 145 -415q0 -348 -227 -648q-227 -297 -586 -297q-242 0 -389.5 154t-147.5 414zM330 487q0 -190 88 -294q86 -102 237 -103q256 0 416 282.5t160 604.5q0 193 -84 295t-238 102q-254 0 -417 -284 q-162 -281 -162 -603zM709 1579l6 27q115 137 219 301h219l-6 -21q-145 -164 -348 -307h-90zM1077 1579l6 27q100 113 219 301h220l-7 -21q-4 -12 -120 -121q-123 -113 -228 -186h-90z" />
<glyph unicode="&#x151;" horiz-adv-x="1175" d="M88 403q0 279 168 496q170 219 442 219q180 0 284.5 -108.5t104.5 -315.5q0 -270 -167 -493q-166 -221 -439 -221q-182 0 -288 112q-105 110 -105 311zM301 362q0 -283 203 -282q168 0 270 201q100 199 100 444q0 285 -200 285q-166 0 -271 -201q-102 -197 -102 -447z M426 1241l6 27q115 137 219 301h219l-6 -21q-145 -164 -348 -307h-90zM794 1241l6 27q100 113 219 301h220l-7 -21q-4 -12 -120 -121q-123 -113 -228 -186h-90z" />
<glyph unicode="&#x152;" horiz-adv-x="1968" d="M106 545q0 354 229.5 647t590.5 293q98 0 217 -23h850l-66 -358h-106q10 78 10 119q0 133 -145 137h-345l-116 -545h493l-20 -100h-494l-131 -613h395q174 0 232 168l33 88h106l-90 -358h-881l-69 -12q-66 -10 -156 -11q-242 0 -389.5 154t-147.5 414zM330 487 q0 -190 88 -294q86 -102 237 -103q131 0 217 35l256 1208q-117 41 -219 41q-254 0 -417 -284q-162 -281 -162 -603z" />
<glyph unicode="&#x153;" horiz-adv-x="1765" d="M88 403q0 276 168 500q170 225 442 225q248 0 344 -204q172 195 414 194q129 0 201 -61.5t72 -173.5q0 -92 -62 -181q-63 -92 -170 -145q-117 -59 -194 -70q-100 -14 -240 -14q-6 -46 -6 -86q0 -279 227 -278q175 0 295 147q20 -14 20 -51q0 -82 -96 -153.5t-258 -71.5 q-240 0 -344 186q-168 -199 -420 -199q-184 0 -288.5 116.5t-104.5 319.5zM301 362q0 -295 203 -294q168 0 268 204q102 209 102 453q0 295 -200 295q-166 0 -271 -205q-102 -203 -102 -453zM1081 567h21q184 0 299 88q117 89 117 228q0 137 -119 137q-100 0 -187 -127 q-84 -123 -131 -326z" />
<glyph unicode="&#x154;" horiz-adv-x="1323" d="M-76 0l19 86h26q101 0 142 37q37 35 53 100l215 1014q8 33 8 57q0 82 -147 82h-27l18 86h537q469 0 469 -348q0 -338 -379 -428l148 -438q37 -106 73 -133q39 -29 95 -29h16l-16 -86h-27q-174 0 -250 47q-72 45 -115 193l-118 405h-203l-90 -420q-8 -39 -9 -57 q0 -82 148 -82h68l-19 -86h-635zM481 741h158q184 0 282.5 92.5t98.5 268.5q0 137 -59 198q-61 63 -209 64h-140zM723 1579l6 27q121 139 219 301h219l-6 -21q-157 -184 -356 -307h-82z" />
<glyph unicode="&#x155;" horiz-adv-x="956" d="M90 0l172 823q12 58 12 92q0 96 -163 97h-17l19 86h362l-43 -295h21q84 186 161 250q82 66 187 65q168 0 168 -141q0 -156 -170 -156q0 162 -82 162q-94 0 -201 -186q-104 -182 -158 -424l-77 -373h-191zM535 1241l6 27q121 139 219 301h219l-6 -21q-157 -184 -356 -307 h-82z" />
<glyph unicode="&#x156;" horiz-adv-x="1323" d="M-76 0l19 86h26q101 0 142 37q37 35 53 100l215 1014q8 33 8 57q0 82 -147 82h-27l18 86h537q469 0 469 -348q0 -338 -379 -428l148 -438q37 -106 73 -133q39 -29 95 -29h16l-16 -86h-27q-174 0 -250 47q-72 45 -115 193l-118 405h-203l-90 -420q-8 -39 -9 -57 q0 -82 148 -82h68l-19 -86h-635zM481 741h158q184 0 282.5 92.5t98.5 268.5q0 137 -59 198q-61 63 -209 64h-140zM438 -453l4 27l41 96q45 106 80 205h178l-4 -20q-111 -170 -229 -308h-70z" />
<glyph unicode="&#x157;" horiz-adv-x="956" d="M90 0l172 823q12 58 12 92q0 96 -163 97h-17l19 86h362l-43 -295h21q84 186 161 250q82 66 187 65q168 0 168 -141q0 -156 -170 -156q0 162 -82 162q-94 0 -201 -186q-104 -182 -158 -424l-77 -373h-191zM-23 -453l4 27l41 96q45 106 80 205h178l-4 -20 q-111 -170 -229 -308h-70z" />
<glyph unicode="&#x158;" horiz-adv-x="1323" d="M-76 0l19 86h26q101 0 142 37q37 35 53 100l215 1014q8 33 8 57q0 82 -147 82h-27l18 86h537q469 0 469 -348q0 -338 -379 -428l148 -438q37 -106 73 -133q39 -29 95 -29h16l-16 -86h-27q-174 0 -250 47q-72 45 -115 193l-118 405h-203l-90 -420q-8 -39 -9 -57 q0 -82 148 -82h68l-19 -86h-635zM481 741h158q184 0 282.5 92.5t98.5 268.5q0 137 -59 198q-61 63 -209 64h-140zM547 1880l6 27h74q90 -70 174 -187q125 109 271 187h86l-7 -27q-154 -151 -270 -301h-194q-48 147 -140 301z" />
<glyph unicode="&#x159;" horiz-adv-x="956" d="M90 0l172 823q12 58 12 92q0 96 -163 97h-17l19 86h362l-43 -295h21q84 186 161 250q82 66 187 65q168 0 168 -141q0 -156 -170 -156q0 162 -82 162q-94 0 -201 -186q-104 -182 -158 -424l-77 -373h-191zM348 1542l6 27h74q90 -70 174 -187q125 109 271 187h86l-7 -27 q-154 -151 -270 -301h-194q-48 147 -140 301z" />
<glyph unicode="&#x15a;" horiz-adv-x="1112" d="M14 272q0 68 45 113q43 43 113 43q0 -156 84 -252t227 -96q139 0 228 72q84 70 84 192q0 98 -47 164q-45 61 -211 157.5t-228 194.5q-63 100 -63 227q0 176 135 287q133 109 362 109q174 0 283 -62q106 -61 107 -159q0 -141 -181 -142q0 121 -57 190.5t-168 69.5 q-125 0 -201 -69q-78 -72 -77 -189q0 -86 43 -151q43 -63 210 -162q164 -96 232 -186q72 -94 72 -213q0 -201 -142 -316q-143 -115 -395 -114q-207 0 -332 83q-123 83 -123 209zM705 1579l6 27q121 139 219 301h219l-6 -21q-157 -184 -356 -307h-82z" />
<glyph unicode="&#x15b;" horiz-adv-x="948" d="M51 211q0 68 37 100q39 35 92 35q0 -126 62 -196q61 -72 172 -72q221 0 221 190q0 72 -47 123t-160 103q-147 70 -197 145q-51 78 -51 172q0 135 109 219q111 86 286 86q150 0 236 -55q84 -53 84 -139q0 -127 -154 -127q0 104 -49 165.5t-135 61.5q-94 0 -145 -49 q-53 -49 -54 -127q0 -68 51.5 -117t157.5 -94q246 -111 246 -318q0 -152 -117 -243q-119 -94 -307 -94q-152 0 -246 63q-92 62 -92 168zM557 1241l6 27q121 139 219 301h219l-6 -21q-157 -184 -356 -307h-82z" />
<glyph unicode="&#x15c;" horiz-adv-x="1112" d="M14 272q0 68 45 113q43 43 113 43q0 -156 84 -252t227 -96q139 0 228 72q84 70 84 192q0 98 -47 164q-45 61 -211 157.5t-228 194.5q-63 100 -63 227q0 176 135 287q133 109 362 109q174 0 283 -62q106 -61 107 -159q0 -141 -181 -142q0 121 -57 190.5t-168 69.5 q-125 0 -201 -69q-78 -72 -77 -189q0 -86 43 -151q43 -63 210 -162q164 -96 232 -186q72 -94 72 -213q0 -201 -142 -316q-143 -115 -395 -114q-207 0 -332 83q-123 83 -123 209zM477 1579l6 27q187 184 270 301h195q27 -115 139 -301l-6 -27h-72q-96 66 -182 184 q-150 -125 -262 -184h-88z" />
<glyph unicode="&#x15d;" horiz-adv-x="948" d="M51 211q0 68 37 100q39 35 92 35q0 -126 62 -196q61 -72 172 -72q221 0 221 190q0 72 -47 123t-160 103q-147 70 -197 145q-51 78 -51 172q0 135 109 219q111 86 286 86q150 0 236 -55q84 -53 84 -139q0 -127 -154 -127q0 104 -49 165.5t-135 61.5q-94 0 -145 -49 q-53 -49 -54 -127q0 -68 51.5 -117t157.5 -94q246 -111 246 -318q0 -152 -117 -243q-119 -94 -307 -94q-152 0 -246 63q-92 62 -92 168zM334 1241l6 27q187 184 270 301h195q27 -115 139 -301l-6 -27h-72q-96 66 -182 184q-150 -125 -262 -184h-88z" />
<glyph unicode="&#x15e;" horiz-adv-x="1112" d="M14 272q0 68 45 113q43 43 113 43q0 -156 84 -252t227 -96q139 0 228 72q84 70 84 192q0 98 -47 164q-45 61 -211 157.5t-228 194.5q-63 100 -63 227q0 176 135 287q133 109 362 109q174 0 283 -62q106 -61 107 -159q0 -141 -181 -142q0 121 -57 190.5t-168 69.5 q-125 0 -201 -69q-78 -72 -77 -189q0 -86 43 -151q43 -63 210 -162q164 -96 232 -186q72 -94 72 -213q0 -201 -142 -316q-143 -115 -395 -114q-207 0 -332 83q-123 83 -123 209zM164 -469l22 104q76 -16 137 -16q152 0 152 125q0 102 -131 115l78 159h96l-39 -88 q74 -8 119 -57q45 -47 45 -113q0 -119 -86 -186q-84 -66 -240 -66q-75 0 -153 23z" />
<glyph unicode="&#x15f;" horiz-adv-x="948" d="M51 211q0 68 37 100q39 35 92 35q0 -126 62 -196q61 -72 172 -72q221 0 221 190q0 72 -47 123t-160 103q-147 70 -197 145q-51 78 -51 172q0 135 109 219q111 86 286 86q150 0 236 -55q84 -53 84 -139q0 -127 -154 -127q0 104 -49 165.5t-135 61.5q-94 0 -145 -49 q-53 -49 -54 -127q0 -68 51.5 -117t157.5 -94q246 -111 246 -318q0 -152 -117 -243q-119 -94 -307 -94q-152 0 -246 63q-92 62 -92 168zM92 -469l22 104q76 -16 137 -16q152 0 152 125q0 102 -131 115l78 159h96l-39 -88q74 -8 119 -57q45 -47 45 -113q0 -119 -86 -186 q-84 -66 -240 -66q-75 0 -153 23z" />
<glyph unicode="&#x160;" horiz-adv-x="1112" d="M14 272q0 68 45 113q43 43 113 43q0 -156 84 -252t227 -96q139 0 228 72q84 70 84 192q0 98 -47 164q-45 61 -211 157.5t-228 194.5q-63 100 -63 227q0 176 135 287q133 109 362 109q174 0 283 -62q106 -61 107 -159q0 -141 -181 -142q0 121 -57 190.5t-168 69.5 q-125 0 -201 -69q-78 -72 -77 -189q0 -86 43 -151q43 -63 210 -162q164 -96 232 -186q72 -94 72 -213q0 -201 -142 -316q-143 -115 -395 -114q-207 0 -332 83q-123 83 -123 209zM544 1880l6 27h74q90 -70 174 -187q125 109 271 187h86l-7 -27q-154 -151 -270 -301h-194 q-48 147 -140 301z" />
<glyph unicode="&#x161;" horiz-adv-x="948" d="M51 211q0 68 37 100q39 35 92 35q0 -126 62 -196q61 -72 172 -72q221 0 221 190q0 72 -47 123t-160 103q-147 70 -197 145q-51 78 -51 172q0 135 109 219q111 86 286 86q150 0 236 -55q84 -53 84 -139q0 -127 -154 -127q0 104 -49 165.5t-135 61.5q-94 0 -145 -49 q-53 -49 -54 -127q0 -68 51.5 -117t157.5 -94q246 -111 246 -318q0 -152 -117 -243q-119 -94 -307 -94q-152 0 -246 63q-92 62 -92 168zM358 1542l6 27h74q90 -70 174 -187q125 109 271 187h86l-7 -27q-154 -151 -270 -301h-194q-48 147 -140 301z" />
<glyph unicode="&#x162;" horiz-adv-x="1253" d="M156 1104l86 358h1153l-66 -358h-106q10 88 10 125q0 131 -135 131h-199l-242 -1135q-8 -33 -8 -57q0 -82 148 -82h47l-19 -86h-637l19 86h47q106 0 143 35t54 102l241 1137h-196q-147 0 -205 -168l-29 -88h-106zM301 -453l4 27l41 96q45 106 80 205h178l-4 -20 q-111 -170 -229 -308h-70z" />
<glyph unicode="&#x163;" horiz-adv-x="753" d="M141 981l19 82q199 0 313 287h94l-53 -252h248l-25 -117h-248l-124 -584q-25 -117 -25 -176q0 -113 109 -112q86 0 167 45l35 -76q-138 -98 -276 -98q-223 0 -223 239q0 82 20 172l125 590h-156zM153 -453l4 27l41 96q45 106 80 205h178l-4 -20q-111 -170 -229 -308h-70z " />
<glyph unicode="&#x164;" horiz-adv-x="1253" d="M156 1104l86 358h1153l-66 -358h-106q10 88 10 125q0 131 -135 131h-199l-242 -1135q-8 -33 -8 -57q0 -82 148 -82h47l-19 -86h-637l19 86h47q106 0 143 35t54 102l241 1137h-196q-147 0 -205 -168l-29 -88h-106zM577 1880l6 27h74q90 -70 174 -187q125 109 271 187h86 l-7 -27q-154 -151 -270 -301h-194q-48 147 -140 301z" />
<glyph unicode="&#x165;" horiz-adv-x="753" d="M141 981l19 82q199 0 313 287h94l-53 -252h248l-25 -117h-248l-124 -584q-25 -117 -25 -176q0 -113 109 -112q86 0 167 45l35 -76q-138 -98 -276 -98q-223 0 -223 239q0 82 20 172l125 590h-156zM705 1229l4 26l121 301h178l-4 -20q-94 -152 -230 -307h-69z" />
<glyph unicode="&#x166;" horiz-adv-x="1253" d="M156 1104l86 358h1153l-66 -358h-106q10 88 10 125q0 127 -135 131h-199l-125 -588h344l-18 -100h-348l-95 -447q-8 -33 -8 -57q0 -82 148 -82h47l-19 -86h-637l19 86h47q98 0 137 33q41 35 60 104l94 449h-340l18 100h344l125 588h-196q-147 0 -205 -168l-29 -88h-106z " />
<glyph unicode="&#x167;" horiz-adv-x="753" d="M76 596l18 96h142l61 289h-156l19 82q199 0 313 287h94l-53 -252h248l-25 -117h-248l-61 -289h246l-19 -96h-247l-43 -199q-25 -117 -25 -176q0 -113 109 -112q86 0 167 45l35 -76q-138 -98 -276 -98q-223 0 -223 239q0 88 20 172l43 205h-139z" />
<glyph unicode="&#x168;" horiz-adv-x="1492" d="M197 334q0 80 22 182l152 721q8 33 8 57q0 82 -148 82h-26l18 86h596l-16 -86h-27q-96 0 -139 -36.5t-62 -110.5l-153 -723q-25 -117 -25 -191q0 -213 295 -213q164 0 262.5 74t135.5 246l174 815q8 33 8 57q0 82 -148 82h-26l18 86h514l-16 -86h-27q-96 0 -139 -36.5 t-62 -110.5l-172 -811q-92 -438 -552 -438q-223 0 -344 92t-121 262zM629 1600q72 242 268 241q84 0 168 -63q88 -66 125 -66q88 0 123 109h92q-70 -242 -266 -242q-80 0 -170 66q-88 63 -125 63q-88 0 -123 -108h-92z" />
<glyph unicode="&#x169;" horiz-adv-x="1226" d="M117 1012l18 86h381l-135 -613q-41 -193 -41 -247q0 -125 100 -125q102 0 226 151q123 150 159 324l107 510h198l-141 -658q-31 -144 -31 -227q0 -104 68 -104q59 0 131 45l37 -60q-131 -115 -260 -114q-78 0 -125 55q-47 57 -47 139q0 45 10 121h-16 q-109 -180 -199 -248q-88 -66 -197 -65q-219 0 -219 227q0 66 37 225l80 359q18 80 18 122q0 96 -143 97h-16zM369 1262q72 242 268 241q84 0 168 -63q88 -66 125 -66q88 0 123 109h92q-70 -242 -266 -242q-80 0 -170 66q-88 63 -125 63q-88 0 -123 -108h-92z" />
<glyph unicode="&#x16a;" horiz-adv-x="1492" d="M197 334q0 80 22 182l152 721q8 33 8 57q0 82 -148 82h-26l18 86h596l-16 -86h-27q-96 0 -139 -36.5t-62 -110.5l-153 -723q-25 -117 -25 -191q0 -213 295 -213q164 0 262.5 74t135.5 246l174 815q8 33 8 57q0 82 -148 82h-26l18 86h514l-16 -86h-27q-96 0 -139 -36.5 t-62 -110.5l-172 -811q-92 -438 -552 -438q-223 0 -344 92t-121 262zM666 1579l26 121h594l-27 -121h-593z" />
<glyph unicode="&#x16b;" horiz-adv-x="1226" d="M117 1012l18 86h381l-135 -613q-41 -193 -41 -247q0 -125 100 -125q102 0 226 151q123 150 159 324l107 510h198l-141 -658q-31 -144 -31 -227q0 -104 68 -104q59 0 131 45l37 -60q-131 -115 -260 -114q-78 0 -125 55q-47 57 -47 139q0 45 10 121h-16 q-109 -180 -199 -248q-88 -66 -197 -65q-219 0 -219 227q0 66 37 225l80 359q18 80 18 122q0 96 -143 97h-16zM447 1241l26 121h594l-27 -121h-593z" />
<glyph unicode="&#x16c;" horiz-adv-x="1492" d="M197 334q0 80 22 182l152 721q8 33 8 57q0 82 -148 82h-26l18 86h596l-16 -86h-27q-96 0 -139 -36.5t-62 -110.5l-153 -723q-25 -117 -25 -191q0 -213 295 -213q164 0 262.5 74t135.5 246l174 815q8 33 8 57q0 82 -148 82h-26l18 86h514l-16 -86h-27q-96 0 -139 -36.5 t-62 -110.5l-172 -811q-92 -438 -552 -438q-223 0 -344 92t-121 262zM708 1860h95q14 -139 178 -139.5t221 139.5h94q-35 -135 -121 -207q-89 -74 -209 -74q-240 0 -258 281z" />
<glyph unicode="&#x16d;" horiz-adv-x="1226" d="M117 1012l18 86h381l-135 -613q-41 -193 -41 -247q0 -125 100 -125q102 0 226 151q123 150 159 324l107 510h198l-141 -658q-31 -144 -31 -227q0 -104 68 -104q59 0 131 45l37 -60q-131 -115 -260 -114q-78 0 -125 55q-47 57 -47 139q0 45 10 121h-16 q-109 -180 -199 -248q-88 -66 -197 -65q-219 0 -219 227q0 66 37 225l80 359q18 80 18 122q0 96 -143 97h-16zM483 1522h95q14 -139 178 -139.5t221 139.5h94q-35 -135 -121 -207q-89 -74 -209 -74q-240 0 -258 281z" />
<glyph unicode="&#x16e;" horiz-adv-x="1492" d="M197 334q0 80 22 182l152 721q8 33 8 57q0 82 -148 82h-26l18 86h596l-16 -86h-27q-96 0 -139 -36.5t-62 -110.5l-153 -723q-25 -117 -25 -191q0 -213 295 -213q164 0 262.5 74t135.5 246l174 815q8 33 8 57q0 82 -148 82h-26l18 86h514l-16 -86h-27q-96 0 -139 -36.5 t-62 -110.5l-172 -811q-92 -438 -552 -438q-223 0 -344 92t-121 262zM758 1782q0 104 69.5 163.5t176.5 59.5q109 0 178 -59q68 -59 68 -164q0 -106 -70 -164q-72 -59 -176.5 -59t-175.5 59q-70 58 -70 164zM869 1782q0 -123 135 -123t135 123t-135 123t-135 -123z" />
<glyph unicode="&#x16f;" horiz-adv-x="1226" d="M117 1012l18 86h381l-135 -613q-41 -193 -41 -247q0 -125 100 -125q102 0 226 151q123 150 159 324l107 510h198l-141 -658q-31 -144 -31 -227q0 -104 68 -104q59 0 131 45l37 -60q-131 -115 -260 -114q-78 0 -125 55q-47 57 -47 139q0 45 10 121h-16 q-109 -180 -199 -248q-88 -66 -197 -65q-219 0 -219 227q0 66 37 225l80 359q18 80 18 122q0 96 -143 97h-16zM504 1444q0 104 69.5 163.5t176.5 59.5q109 0 178 -59q68 -59 68 -164q0 -106 -70 -164q-72 -59 -176.5 -59t-175.5 59q-70 58 -70 164zM615 1444 q0 -123 135 -123t135 123t-135 123t-135 -123z" />
<glyph unicode="&#x170;" horiz-adv-x="1492" d="M197 334q0 80 22 182l152 721q8 33 8 57q0 82 -148 82h-26l18 86h596l-16 -86h-27q-96 0 -139 -36.5t-62 -110.5l-153 -723q-25 -117 -25 -191q0 -213 295 -213q164 0 262.5 74t135.5 246l174 815q8 33 8 57q0 82 -148 82h-26l18 86h514l-16 -86h-27q-96 0 -139 -36.5 t-62 -110.5l-172 -811q-92 -438 -552 -438q-223 0 -344 92t-121 262zM670 1579l6 27q115 137 219 301h219l-6 -21q-145 -164 -348 -307h-90zM1038 1579l6 27q100 113 219 301h220l-7 -21q-4 -12 -120 -121q-123 -113 -228 -186h-90z" />
<glyph unicode="&#x171;" horiz-adv-x="1226" d="M117 1012l18 86h381l-135 -613q-41 -193 -41 -247q0 -125 100 -125q102 0 226 151q123 150 159 324l107 510h198l-141 -658q-31 -144 -31 -227q0 -104 68 -104q59 0 131 45l37 -60q-131 -115 -260 -114q-78 0 -125 55q-47 57 -47 139q0 45 10 121h-16 q-109 -180 -199 -248q-88 -66 -197 -65q-219 0 -219 227q0 66 37 225l80 359q18 80 18 122q0 96 -143 97h-16zM435 1241l6 27q115 137 219 301h219l-6 -21q-145 -164 -348 -307h-90zM803 1241l6 27q100 113 219 301h220l-7 -21q-4 -12 -120 -121q-123 -113 -228 -186h-90z " />
<glyph unicode="&#x172;" horiz-adv-x="1492" d="M197 334q0 80 22 182l152 721q8 33 8 57q0 82 -148 82h-26l18 86h596l-16 -86h-27q-96 0 -139 -36.5t-62 -110.5l-153 -723q-25 -117 -25 -191q0 -213 295 -213q164 0 262.5 74t135.5 246l174 815q8 33 8 57q0 82 -148 82h-26l18 86h514l-16 -86h-27q-96 0 -139 -36.5 t-62 -110.5l-172 -811q-92 -438 -552 -438q-223 0 -344 92t-121 262zM422 -283q0 102 80 176t225 107h117q-109 -37 -176.5 -104.5t-67.5 -149.5q0 -49 33 -82q29 -29 84 -29q61 0 133 17l-25 -111q-74 -33 -163 -33q-240 0 -240 209z" />
<glyph unicode="&#x173;" horiz-adv-x="1226" d="M117 1012l18 86h381l-135 -613q-41 -193 -41 -247q0 -125 100 -125q102 0 226 151q123 150 159 324l107 510h198l-141 -658q-31 -144 -31 -227q0 -104 68 -104q59 0 131 45l37 -60q-131 -115 -260 -114q-78 0 -125 55q-47 57 -47 139q0 45 10 121h-16 q-109 -180 -199 -248q-88 -66 -197 -65q-219 0 -219 227q0 66 37 225l80 359q18 80 18 122q0 96 -143 97h-16zM616 -283q0 102 80 176t225 107h117q-109 -37 -176.5 -104.5t-67.5 -149.5q0 -49 33 -82q29 -29 84 -29q61 0 133 17l-25 -111q-74 -33 -163 -33q-240 0 -240 209 z" />
<glyph unicode="&#x174;" horiz-adv-x="2138" d="M182 1376l19 86h557l-19 -86h-47q-147 0 -147 -104q0 -33 4 -70l49 -655q14 -174 14 -346q92 217 168 368l430 879h148l67 -887q11 -142 11 -286v-74q92 215 153 336l326 651q39 76 39 115q0 74 -115 73h-49l16 86h500l-18 -86h-39q-63 0 -103 -33q-37 -31 -86 -126 l-604 -1217h-188l-92 1135l-551 -1135h-187l-106 1268q-6 53 -31 82q-25 27 -92 26h-27zM985 1579l6 27q187 184 270 301h195q27 -115 139 -301l-6 -27h-72q-96 66 -182 184q-150 -125 -262 -184h-88z" />
<glyph unicode="&#x175;" horiz-adv-x="1675" d="M76 1012l28 86h308q6 -433 6 -934h8q262 463 457 915l170 8q43 -539 43 -937h14q176 217 276 405q109 201 109 319q0 96 -88 123q18 121 121 121q109 0 108 -153q0 -295 -514 -963l-202 -22l-31 886q-84 -203 -432 -860l-211 -24l-15 882q0 72 -28 111q-27 37 -107 37 h-20zM688 1241l6 27q187 184 270 301h195q27 -115 139 -301l-6 -27h-72q-96 66 -182 184q-150 -125 -262 -184h-88z" />
<glyph unicode="&#x176;" horiz-adv-x="1280" d="M158 1376l18 86h553l-18 -86h-103q-84 0 -84 -55q0 -41 27 -119l92 -274q49 -147 55 -246q31 55 154 215l195 260q76 104 75 166q0 53 -98 53h-76l19 86h506l-19 -86h-39q-35 0 -78 -33q-35 -27 -108 -122l-477 -625l-80 -371q-8 -33 -8 -57q0 -82 147 -82h47l-18 -86 h-637l18 86h47q106 0 143.5 35t53.5 102l80 377l-238 668q-20 61 -45 86q-23 23 -78 22h-26zM545 1579l6 27q187 184 270 301h195q27 -115 139 -301l-6 -27h-72q-96 66 -182 184q-150 -125 -262 -184h-88z" />
<glyph unicode="&#x177;" horiz-adv-x="1079" d="M-332 -455l31 103q74 -23 160 -23q293 0 575 373l-270 905q-18 59 -49 84t-92 25h-21l16 86h299l160 -553q74 -258 86 -371h6q276 420 277 680q0 111 -101 111q0 72 39 110q41 41 95 41q139 0 139 -172q0 -246 -277 -694q-274 -444 -442 -594q-166 -147 -438 -148 q-107 0 -193 37zM332 1241l6 27q187 184 270 301h195q27 -115 139 -301l-6 -27h-72q-96 66 -182 184q-150 -125 -262 -184h-88z" />
<glyph unicode="&#x178;" horiz-adv-x="1280" d="M158 1376l18 86h553l-18 -86h-103q-84 0 -84 -55q0 -41 27 -119l92 -274q49 -147 55 -246q31 55 154 215l195 260q76 104 75 166q0 53 -98 53h-76l19 86h506l-19 -86h-39q-35 0 -78 -33q-35 -27 -108 -122l-477 -625l-80 -371q-8 -33 -8 -57q0 -82 147 -82h47l-18 -86 h-637l18 86h47q106 0 143.5 35t53.5 102l80 377l-238 668q-20 61 -45 86q-23 23 -78 22h-26zM582 1735q0 129 110 129q102 0 103 -103q0 -129 -111 -129q-102 1 -102 103zM971 1735q0 129 110 129q102 0 103 -103q0 -129 -111 -129q-102 1 -102 103z" />
<glyph unicode="&#x179;" horiz-adv-x="1236" d="M-35 0l17 82l1030 1278h-477q-150 0 -205 -168l-29 -88h-106l86 358h1011l-16 -84l-1032 -1276h547q152 0 206 168l29 88h107l-86 -358h-1082zM740 1579l6 27q121 139 219 301h219l-6 -21q-157 -184 -356 -307h-82z" />
<glyph unicode="&#x17a;" horiz-adv-x="1046" d="M-2 0l16 82l697 899h-260q-68 0 -109 -35q-37 -31 -84 -131l-4 -8h-86l82 291h717l-17 -84l-698 -897h364q47 0 88 30.5t87 137.5l20 47h86l-80 -332h-819zM553 1241l6 27q121 139 219 301h219l-6 -21q-157 -184 -356 -307h-82z" />
<glyph unicode="&#x17b;" horiz-adv-x="1236" d="M-35 0l17 82l1030 1278h-477q-150 0 -205 -168l-29 -88h-106l86 358h1011l-16 -84l-1032 -1276h547q152 0 206 168l29 88h107l-86 -358h-1082zM706 1753q0 66 33 105t90 39q115 0 115 -113q0 -68 -35 -107q-35 -37 -88 -36q-115 -1 -115 112z" />
<glyph unicode="&#x17c;" horiz-adv-x="1046" d="M-2 0l16 82l697 899h-260q-68 0 -109 -35q-37 -31 -84 -131l-4 -8h-86l82 291h717l-17 -84l-698 -897h364q47 0 88 30.5t87 137.5l20 47h86l-80 -332h-819zM549 1415q0 66 33 105t90 39q115 0 115 -113q0 -68 -35 -107q-35 -37 -88 -36q-115 -1 -115 112z" />
<glyph unicode="&#x17d;" horiz-adv-x="1236" d="M-35 0l17 82l1030 1278h-477q-150 0 -205 -168l-29 -88h-106l86 358h1011l-16 -84l-1032 -1276h547q152 0 206 168l29 88h107l-86 -358h-1082zM512 1880l6 27h74q90 -70 174 -187q125 109 271 187h86l-7 -27q-154 -151 -270 -301h-194q-48 147 -140 301z" />
<glyph unicode="&#x17e;" horiz-adv-x="1046" d="M-2 0l16 82l697 899h-260q-68 0 -109 -35q-37 -31 -84 -131l-4 -8h-86l82 291h717l-17 -84l-698 -897h364q47 0 88 30.5t87 137.5l20 47h86l-80 -332h-819zM405 1542l6 27h74q90 -70 174 -187q125 109 271 187h86l-7 -27q-154 -151 -270 -301h-194q-48 147 -140 301z" />
<glyph unicode="&#x17f;" horiz-adv-x="612" d="M-287 -475l19 94q49 -14 94 -14q100 0 160 88q53 80 98 289l260 1228q78 367 389 367q133 0 197 -41q68 -43 67 -111q0 -133 -170 -133q0 190 -104 191q-68 0 -109 -53q-43 -55 -73 -201l-265 -1245q-53 -248 -153 -361q-102 -115 -291 -115q-64 1 -119 17z" />
<glyph unicode="&#x192;" d="M-82 -477l19 96q57 -14 94 -14q102 0 162 88q55 82 96 289l162 833h-207l18 96h207l39 205q72 367 389 367q133 0 197 -41q68 -43 67 -111q0 -133 -170 -133q0 190 -104 191q-77 0 -117 -62q-41 -63 -65 -192l-43 -224h268l-19 -96h-268l-162 -831q-49 -250 -151 -361 q-104 -115 -293 -115q-64 1 -119 15z" />
<glyph unicode="&#x1f0;" horiz-adv-x="595" d="M-287 -475l19 94q49 -14 94 -14q104 0 162 92q59 92 98 287l188 888q6 33 7 54q0 86 -125 86h-27l18 86h367l-235 -1114q-53 -246 -156 -361t-291 -115q-64 1 -119 17zM180 1542l6 27h74q90 -70 174 -187q125 109 271 187h86l-7 -27q-154 -151 -270 -301h-194 q-48 147 -140 301z" />
<glyph unicode="&#x1fa;" horiz-adv-x="1443" d="M-115 0l17 86h39q63 0 98 29q31 25 92 116l664 1008q-123 59 -123 199q0 102 67 164q66 59 178.5 59t178.5 -59q68 -61 67 -164q0 -154 -145 -209l180 -1045q10 -55 35 -78q23 -20 86 -20h27l-17 -86h-557l16 86h48q66 0 106.5 24.5t40.5 69.5q0 31 -4 64l-29 186h-553 l-112 -174q-39 -59 -39 -102q0 -68 114 -68h48l-17 -86h-506zM469 532h465l-49 320q-31 200 -37 295q-49 -96 -115 -199zM782 1438q0 -117 123 -123h13q135 0 135 123t-135.5 123t-135.5 -123zM881 1700l6 20q121 115 219 242h219l-6 -16q-156 -147 -356 -246h-82z" />
<glyph unicode="&#x1fb;" horiz-adv-x="1185" d="M88 354q0 281 176 522.5t434 241.5q138 0 240 -74l90 52h66l-140 -656q-31 -141 -30 -227q0 -104 67 -104q57 0 148 53l37 -60q-147 -123 -289 -122q-160 0 -160 170q0 70 21 159h-13q-147 -330 -383 -329q-123 0 -194 98q-70 96 -70 276zM297 346.5q0 -237.5 129 -237.5 q102 0 213 151q113 154 149 330l76 362q-45 74 -155 74q-172 0 -293 -223q-119 -219 -119 -456.5zM518 1419.5q0 106.5 72 165.5q70 57 174 57t174 -57q72 -59 72 -165.5t-72 -166.5q-70 -57 -174.5 -57t-173.5 57q-72 60 -72 166.5zM629 1419.5q0 -65.5 41 -94.5t94 -29 t94 29t41 94.5t-41 94t-94 28.5t-94 -28.5t-41 -94zM717 1700l6 20q72 68 113 115q74 84 106 127h219l-6 -16q-20 -20 -68 -58q-72 -57 -88 -67q-74 -51 -102 -68q-61 -35 -98 -53h-82z" />
<glyph unicode="&#x1fc;" horiz-adv-x="1947" d="M-127 0l29 86h39q53 0 94 28.5t117 131.5l815 1118l-174 12l18 86h1159l-65 -358h-107q10 78 10 119q0 137 -145 137h-344l-117 -545h494l-21 -100h-493l-131 -613h395q174 0 231 168l33 88h107l-91 -358h-1097l16 86h27q106 0 143 35q43 41 55 102l56 266h-463 l-154 -215q-55 -78 -55 -120q0 -68 104 -68h48l-29 -86h-504zM539 592h409l162 768h-39q-96 -166 -260 -391zM1317 1579l6 27q121 139 219 301h219l-6 -21q-157 -184 -356 -307h-82z" />
<glyph unicode="&#x1fd;" horiz-adv-x="1662" d="M88 387q0 279 164 504q166 227 434 227q162 0 313 -127q156 127 355 127q129 0 200.5 -61.5t71.5 -173.5q0 -166 -172 -289t-422 -123h-35q-25 0 -36 2q-4 -16 -5 -86q0 -279 226 -278q172 0 295 147q20 -14 20 -51q0 -82 -96 -153.5t-258 -71.5q-139 0 -244 75 q-100 74 -135 219q-117 -295 -367 -294q-139 0 -225 108q-84 104 -84 299zM297 365q0 -123 45 -189q47 -68 127 -67q100 0 176 100q78 104 105 266q37 229 155 418q-98 133 -209 133q-174 0 -286.5 -217t-112.5 -444zM979 567h20q184 0 299 88q117 90 117 227.5t-119 137.5 q-102 0 -186 -127q-88 -133 -131 -326zM916 1241l6 27q121 139 219 301h219l-6 -21q-157 -184 -356 -307h-82z" />
<glyph unicode="&#x1fe;" horiz-adv-x="1519" d="M106 545q0 354 229.5 647t590.5 293q166 0 291 -76l106 137h119l-150 -194q164 -152 164 -430q0 -348 -227 -648q-227 -297 -586 -297q-166 0 -289 74l-96 -133h-121l137 191q-168 155 -168 436zM330 487q0 -139 49 -237l751 1038q-83 86 -221 86q-254 0 -417 -284 q-162 -281 -162 -603zM438 168q88 -78 217 -78q256 0 416 282.5t160 604.5q0 129 -43 227zM821 1579l6 27q121 139 219 301h219l-6 -21q-157 -184 -356 -307h-82z" />
<glyph unicode="&#x1ff;" horiz-adv-x="1181" d="M10 -82l162 195q-84 113 -84 290q0 279 168 496q170 219 442 219q150 0 244 -74l115 136h119l-166 -203q78 -109 77 -283q0 -274 -167 -497q-166 -221 -439 -222q-141 0 -243 72l-107 -129h-121zM301 362q0 -59 4 -88l533 644q-49 92 -164 92q-166 0 -271 -201 q-102 -197 -102 -447zM338 168q46 -92 166 -92q168 0 268 200q102 205 102 449q0 45 -6 84zM623 1241l6 27q121 139 219 301h219l-6 -21q-157 -184 -356 -307h-82z" />
<glyph unicode="&#x218;" horiz-adv-x="1112" d="M14 272q0 68 45 113q43 43 113 43q0 -156 84 -252t227 -96q139 0 228 72q84 70 84 192q0 98 -47 164q-45 61 -211 157.5t-228 194.5q-63 100 -63 227q0 176 135 287q133 109 362 109q174 0 283 -62q106 -61 107 -159q0 -141 -181 -142q0 121 -57 190.5t-168 69.5 q-125 0 -201 -69q-78 -72 -77 -189q0 -86 43 -151q43 -63 210 -162q164 -96 232 -186q72 -94 72 -213q0 -201 -142 -316q-143 -115 -395 -114q-207 0 -332 83q-123 83 -123 209zM276 -453l4 27l41 96q45 106 80 205h178l-4 -20q-111 -170 -229 -308h-70z" />
<glyph unicode="&#x219;" horiz-adv-x="948" d="M51 211q0 68 37 100q39 35 92 35q0 -126 62 -196q61 -72 172 -72q221 0 221 190q0 72 -47 123t-160 103q-147 70 -197 145q-51 78 -51 172q0 135 109 219q111 86 286 86q150 0 236 -55q84 -53 84 -139q0 -127 -154 -127q0 104 -49 165.5t-135 61.5q-94 0 -145 -49 q-53 -49 -54 -127q0 -68 51.5 -117t157.5 -94q246 -111 246 -318q0 -152 -117 -243q-119 -94 -307 -94q-152 0 -246 63q-92 62 -92 168zM200 -453l4 27l41 96q45 106 80 205h178l-4 -20q-111 -170 -229 -308h-70z" />
<glyph unicode="&#x2bc;" horiz-adv-x="512" d="M168 901l8 86q209 46 209 172q0 35 -66 78q-68 43 -67 104q0 53 35 89q33 33 92 32q68 0 115 -47q45 -45 45 -121q0 -147 -97 -254q-92 -102 -274 -139z" />
<glyph unicode="&#x2c6;" horiz-adv-x="1181" d="M375 1241l6 27q187 184 270 301h195q27 -115 139 -301l-6 -27h-72q-96 66 -182 184q-150 -125 -262 -184h-88z" />
<glyph unicode="&#x2c7;" horiz-adv-x="1181" d="M481 1542l6 27h74q90 -70 174 -187q125 109 271 187h86l-7 -27q-154 -151 -270 -301h-194q-48 147 -140 301z" />
<glyph unicode="&#x2c9;" horiz-adv-x="1024" d="M365 1241l26 121h594l-27 -121h-593z" />
<glyph unicode="&#x2d8;" horiz-adv-x="1181" d="M317 1522h95q14 -139 178 -139.5t221 139.5h94q-35 -135 -121 -207q-89 -74 -209 -74q-240 0 -258 281z" />
<glyph unicode="&#x2d9;" horiz-adv-x="622" d="M344 1415q0 66 33 105t90 39q115 0 115 -113q0 -68 -35 -107q-35 -37 -88 -36q-115 -1 -115 112z" />
<glyph unicode="&#x2da;" horiz-adv-x="681" d="M258 1444q0 104 69.5 163.5t176.5 59.5q109 0 178 -59q68 -59 68 -164q0 -106 -70 -164q-72 -59 -176.5 -59t-175.5 59q-70 58 -70 164zM369 1444q0 -123 135 -123t135 123t-135 123t-135 -123z" />
<glyph unicode="&#x2db;" horiz-adv-x="1024" d="M340 -283q0 102 80 176t225 107h117q-109 -37 -176.5 -104.5t-67.5 -149.5q0 -49 33 -82q29 -29 84 -29q61 0 133 17l-25 -111q-74 -33 -163 -33q-240 0 -240 209z" />
<glyph unicode="&#x2dc;" horiz-adv-x="1181" d="M344 1262q72 242 268 241q84 0 168 -63q88 -66 125 -66q88 0 123 109h92q-70 -242 -266 -242q-80 0 -170 66q-88 63 -125 63q-88 0 -123 -108h-92z" />
<glyph unicode="&#x2dd;" horiz-adv-x="1181" d="M193 1241l6 27q115 137 219 301h219l-6 -21q-145 -164 -348 -307h-90zM561 1241l6 27q100 113 219 301h220l-7 -21q-4 -12 -120 -121q-123 -113 -228 -186h-90z" />
<glyph unicode="&#x2f3;" horiz-adv-x="681" d="M-49 -348q0 53 18 96q16 41 54 70q35 29 77.5 43t96 14t96.5 -14.5t78 -42.5q37 -29 53 -70q18 -43 18 -96t-18 -96q-16 -41 -53 -70q-35 -29 -78 -43t-96.5 -14t-96.5 14t-77 43q-37 29 -54 70q-18 43 -18 96zM61 -348q0 -37 11 -58q10 -18 30 -36q20 -16 43 -23 q25 -6 51.5 -6t51.5 6q23 6 43 23q20 18 31 36q10 20 10 57.5t-10 57.5q-10 18 -31 37q-20 16 -43 23q-25 6 -51.5 6t-51.5 -6q-23 -6 -43 -23q-20 -18 -30 -37q-11 -20 -11 -57z" />
<glyph unicode="&#x384;" horiz-adv-x="1181" d="M471 1241l4 27q98 162 143 301h185l-4 -21q-4 -20 -82 -116q-80 -98 -178 -191h-68z" />
<glyph unicode="&#x385;" horiz-adv-x="1181" d="M283 1382q0 115 98 115q92 0 92 -92q0 -115 -98 -115q-92 0 -92 92zM514 1389l4 26q92 156 144 301h184l-4 -20q-4 -20 -80 -115q-78 -96 -180 -192h-68zM715 1382q0 115 98 115q92 0 92 -92q0 -115 -98 -115q-92 0 -92 92z" />
<glyph unicode="&#x386;" horiz-adv-x="1443" d="M-115 0l17 86h39q53 0 92 28.5t98 131.5l713 1216h160l194 -1267q8 -63 35 -86t86 -23h27l-17 -86h-557l16 86h48q147 0 147 104q0 33 -4 70l-33 229h-538l-123 -215q-39 -66 -39 -114q0 -74 114 -74h48l-17 -86h-506zM469 592h463l-51 358q-29 209 -33 324 q-47 -115 -160 -305zM233 1137l4 27q98 162 143 301h185l-4 -21q-4 -20 -82 -116q-80 -98 -178 -191h-68z" />
<glyph unicode="&#x387;" horiz-adv-x="585" d="M188 713q0 72 37 114.5t99 42.5q127 0 127 -125q0 -72 -37 -114.5t-99 -42.5q-127 0 -127 125z" />
<glyph unicode="&#x388;" horiz-adv-x="1441" d="M123 0l16 86h27q106 0 145 37q37 35 54 100l213 1006q6 28 6 49q0 49 -29 73.5t-115 24.5h-26l18 86h1032l-65 -358h-107l7 63q4 33 4 56q0 137 -146 137h-344l-117 -545h494l-20 -100h-494l-131 -613h395q174 0 232 168l32 88h107l-90 -358h-1098zM55 1137l4 27 q98 162 143 301h185l-4 -21q-4 -20 -82 -116q-80 -98 -178 -191h-68z" />
<glyph unicode="&#x389;" horiz-adv-x="1785" d="M119 0l16 86h27q98 0 141 37t60 110l213 1004q8 33 8 57q0 82 -148 82h-26l18 86h596l-18 -86h-27q-98 0 -141 -37q-41 -35 -58 -110l-88 -414h666l90 422q8 33 8 57q0 82 -147 82h-27l19 86h596l-19 -86h-26q-98 0 -142 -37q-41 -35 -57 -110l-213 -1004q-8 -33 -8 -57 q0 -82 147 -82h27l-19 -86h-596l17 86h26q98 0 142 37q45 39 59 110l101 480h-666l-102 -488q-8 -39 -9 -57q0 -82 148 -82h26l-18 -86h-596zM51 1137l4 27q98 162 143 301h185l-4 -21q-4 -20 -82 -116q-80 -98 -178 -191h-68z" />
<glyph unicode="&#x38a;" horiz-adv-x="911" d="M119 0l16 86h27q170 0 201 147l213 1004q8 33 8 57q0 82 -148 82h-26l18 86h596l-18 -86h-27q-98 0 -141 -37q-41 -35 -58 -110l-212 -1004q-8 -39 -9 -57q0 -82 148 -82h26l-18 -86h-596zM51 1137l4 27q98 162 143 301h185l-4 -21q-4 -20 -82 -116q-80 -98 -178 -191 h-68z" />
<glyph unicode="&#x38c;" horiz-adv-x="1519" d="M106 545q0 354 229.5 647t590.5 293q238 0 385 -148q145 -145 145 -415q0 -348 -227 -648q-227 -297 -586 -297q-242 0 -389.5 154t-147.5 414zM330 487q0 -190 88 -294q86 -102 237 -103q256 0 416 282.5t160 604.5q0 193 -84 295t-238 102q-254 0 -417 -284 q-162 -281 -162 -603zM8 1137l4 27q98 162 143 301h185l-4 -21q-4 -20 -82 -116q-80 -98 -178 -191h-68z" />
<glyph unicode="&#x38e;" horiz-adv-x="1529" d="M408 1376l18 86h553l-18 -86h-103q-84 0 -84 -55q0 -41 27 -119l92 -274q49 -147 55 -246q31 55 154 215l195 260q76 104 75 166q0 53 -98 53h-76l19 86h506l-19 -86h-39q-35 0 -78 -33q-35 -27 -108 -122l-477 -625l-80 -371q-8 -33 -8 -57q0 -82 147 -82h47l-18 -86 h-637l18 86h47q106 0 143.5 35t53.5 102l80 377l-238 668q-20 61 -45 86q-23 23 -78 22h-26zM53 1137l4 27q98 162 143 301h185l-4 -21q-4 -20 -82 -116q-80 -98 -178 -191h-68z" />
<glyph unicode="&#x38f;" horiz-adv-x="1540" d="M-12 0l28 358h107v-67q0 -74 37 -101q35 -27 129 -26h194l35 180q-172 37 -266 160q-96 125 -96 299q0 274 200 479q201 203 568 203q258 0 403 -125q147 -127 148 -342q0 -260 -150 -440q-151 -181 -448 -234l-43 -180h194q94 0 141 26q53 29 82 101l29 67h106l-92 -358 h-608l92 428q264 31 367 219q106 195 106 379q0 168 -90 258t-262 90q-274 0 -397 -192q-121 -190 -121 -424q0 -135 68 -226q68 -89 190 -104l-78 -428h-573zM-33 1137l4 27q98 162 143 301h185l-4 -21q-4 -20 -82 -116q-80 -98 -178 -191h-68z" />
<glyph unicode="&#x390;" horiz-adv-x="681" d="M152 219q0 82 20 172l150 707h192l-149 -701q-25 -117 -25 -176q0 -113 109 -112q72 0 153 41l35 -76q-131 -94 -279 -94q-206 -1 -206 239zM195 1382q0 115 98 115q92 0 92 -92q0 -115 -98 -115q-92 0 -92 92zM426 1389l4 26q92 156 144 301h184l-4 -20q-4 -20 -80 -115 q-78 -96 -180 -192h-68zM627 1382q0 115 98 115q92 0 92 -92q0 -115 -98 -115q-92 0 -92 92z" />
<glyph unicode="&#x391;" horiz-adv-x="1443" d="M-115 0l17 86h39q53 0 92 28.5t98 131.5l713 1216h160l194 -1267q8 -63 35 -86t86 -23h27l-17 -86h-557l16 86h48q147 0 147 104q0 33 -4 70l-33 229h-538l-123 -215q-39 -66 -39 -114q0 -74 114 -74h48l-17 -86h-506zM469 592h463l-51 358q-29 209 -33 324 q-47 -115 -160 -305z" />
<glyph unicode="&#x392;" horiz-adv-x="1337" d="M-43 0l16 86h27q170 0 201 147l213 1004q8 33 8 57q0 82 -148 82h-26l18 86h531q479 0 479 -307q0 -305 -334 -381l-2 -8q250 -49 250 -299q0 -225 -151.5 -346t-438.5 -121h-643zM379 102h199q391 0 391 379q0 233 -287 234h-172zM530 817h158q365 0 365 311 q0 231 -283 232h-123z" />
<glyph unicode="&#x393;" horiz-adv-x="1148" d="M-41 0l18 86h25q168 0 199 147l211 996q10 51 10 65q0 82 -148 82h-26l18 86h1018l-63 -358h-107q10 98 10 119q0 80 -41 108.5t-127 28.5h-309l-241 -1135q-8 -39 -9 -57q0 -82 148 -82h67l-18 -86h-635z" />
<glyph unicode="&#x394;" horiz-adv-x="1243" d="M-74 0l23 109l764 1353h178l176 -1339l-25 -123h-1116zM102 137h750l-94 803q-31 260 -31 334q-51 -119 -162 -316z" />
<glyph unicode="&#x395;" horiz-adv-x="1275" d="M-43 0l16 86h27q106 0 145 37q37 35 54 100l213 1006q6 28 6 49q0 49 -29 73.5t-115 24.5h-26l18 86h1032l-65 -358h-107l7 63q4 33 4 56q0 137 -146 137h-344l-117 -545h494l-20 -100h-494l-131 -613h395q174 0 232 168l32 88h107l-90 -358h-1098z" />
<glyph unicode="&#x396;" horiz-adv-x="1236" d="M-35 0l17 82l1030 1278h-477q-150 0 -205 -168l-29 -88h-106l86 358h1011l-16 -84l-1032 -1276h547q152 0 206 168l29 88h107l-86 -358h-1082z" />
<glyph unicode="&#x397;" horiz-adv-x="1622" d="M-43 0l16 86h27q98 0 141 37t60 110l213 1004q8 33 8 57q0 82 -148 82h-26l18 86h596l-18 -86h-27q-98 0 -141 -37q-41 -35 -58 -110l-88 -414h666l90 422q8 33 8 57q0 82 -147 82h-27l19 86h596l-19 -86h-26q-98 0 -142 -37q-41 -35 -57 -110l-213 -1004q-8 -33 -8 -57 q0 -82 147 -82h27l-19 -86h-596l17 86h26q98 0 142 37q45 39 59 110l101 480h-666l-102 -488q-8 -39 -9 -57q0 -82 148 -82h26l-18 -86h-596z" />
<glyph unicode="&#x398;" horiz-adv-x="1519" d="M106 545q0 354 229.5 647t590.5 293q238 0 385 -148q145 -145 145 -415q0 -348 -227 -648q-227 -297 -586 -297q-242 0 -389.5 154t-147.5 414zM330 487q0 -190 88 -294q86 -102 237 -103q256 0 416 282.5t160 604.5q0 193 -84 295t-238 102q-254 0 -417 -284 q-162 -281 -162 -603zM446 561l80 369h86l2 -39q4 -63 45 -78q45 -16 105 -16h51q152 0 195 94l18 39h86l-80 -369h-86l-2 39q-2 84 -153 94h-52q-84 0 -125 -22q-37 -20 -65 -72l-19 -39h-86z" />
<glyph unicode="&#x399;" horiz-adv-x="751" d="M-43 0l16 86h27q170 0 201 147l213 1004q8 33 8 57q0 82 -148 82h-26l18 86h596l-18 -86h-27q-98 0 -141 -37q-41 -35 -58 -110l-212 -1004q-8 -39 -9 -57q0 -82 148 -82h26l-18 -86h-596z" />
<glyph unicode="&#x39a;" horiz-adv-x="1433" d="M-43 0l16 86h27q98 0 141 37t60 110l213 1004q8 33 8 57q0 82 -148 82h-26l18 86h596l-18 -86h-27q-98 0 -141 -37q-41 -35 -58 -110l-88 -414l-36 -151l528 485q154 141 154 184q0 45 -91 45l17 84h452l-16 -84q-57 0 -118.5 -34.5t-196.5 -157.5l-373 -338l248 -598 q68 -164 194 -164h6l-18 -86h-29q-164 0 -241.5 33t-126.5 157l-199 506l-211 -147l-67 -324q-8 -39 -9 -57q0 -82 148 -82h26l-18 -86h-596z" />
<glyph unicode="&#x39b;" horiz-adv-x="1380" d="M-115 0l19 86h39q63 0 94 29q35 33 92 131l682 1216h150l174 -1267q6 -47 30 -80q23 -29 92 -29h27l-18 -86h-564l19 86h47q147 0 147 111q0 31 -4 63l-84 672q-20 152 -20 330q-57 -135 -166 -330l-365 -658q-39 -72 -38 -112q0 -76 116 -76h47l-18 -86h-498z" />
<glyph unicode="&#x39c;" horiz-adv-x="1918" d="M-41 0l18 86h27q101 0 141 37q37 35 54 100l215 1014q8 33 8 57q0 82 -148 82h-26l18 86h465l174 -1167l670 1167h457l-19 -86h-26q-98 0 -142 -37q-41 -35 -57 -110l-213 -1004q-8 -33 -8 -57q0 -82 147 -82h27l-19 -86h-544l18 86h6q88 0 121 33q37 37 53 96l234 1094 l-748 -1309h-110l-199 1309l-229 -1084q-8 -39 -9 -57q0 -82 148 -82h26l-18 -86h-512z" />
<glyph unicode="&#x39d;" horiz-adv-x="1562" d="M-41 0l18 86h27q94 0 137 37q39 33 60 110l213 1004q8 33 8 57q0 82 -148 82h-26l18 86h373l496 -1130l192 905q8 33 8 57q0 82 -147 82h-27l19 86h514l-19 -86h-26q-96 0 -139.5 -36.5t-59.5 -110.5l-260 -1229h-133l-527 1200l-206 -975q-8 -39 -9 -57q0 -82 148 -82 h26l-18 -86h-512z" />
<glyph unicode="&#x39e;" horiz-adv-x="1271" d="M-23 0l72 403h107q-4 -70 -4 -90q0 -125 139 -125h526q156 0 205 154l20 61h107l-94 -403h-1078zM256 1083l90 379h957l-70 -379h-107q6 76 7 97q0 119 -142 118h-403q-150 0 -205 -153l-21 -62h-106zM309 559l82 389h86l2 -39q3 -52 37 -73q33 -20 113 -21h112 q152 0 195 94l18 39h86l-82 -389h-86l-2 39q-2 84 -155 94h-113q-88 0 -127 -22q-37 -20 -61 -72l-19 -39h-86z" />
<glyph unicode="&#x39f;" horiz-adv-x="1519" d="M106 545q0 354 229.5 647t590.5 293q238 0 385 -148q145 -145 145 -415q0 -348 -227 -648q-227 -297 -586 -297q-242 0 -389.5 154t-147.5 414zM330 487q0 -190 88 -294q86 -102 237 -103q256 0 416 282.5t160 604.5q0 193 -84 295t-238 102q-254 0 -417 -284 q-162 -281 -162 -603z" />
<glyph unicode="&#x3a0;" horiz-adv-x="1562" d="M-43 0l16 86h27q98 0 141 37t60 110l213 1004q8 33 8 57q0 82 -148 82h-26l18 86h1407l-18 -86h-27q-96 0 -139 -37q-45 -39 -59 -110l-213 -1004q-8 -39 -9 -57q0 -82 148 -82h26l-18 -86h-596l18 86h27q96 0 139 37q41 35 60 110l239 1127h-604l-241 -1135 q-8 -39 -9 -57q0 -82 148 -82h26l-18 -86h-596z" />
<glyph unicode="&#x3a1;" horiz-adv-x="1269" d="M-41 0l18 86h27q96 0 139 37q41 35 58 110l213 1004q8 33 8 57q0 82 -148 82h-26l18 86h525q223 0 344 -102q123 -104 122 -293q0 -231 -157.5 -364.5t-468.5 -133.5h-152l-73 -344q-8 -39 -9 -57q0 -82 148 -82h67l-18 -86h-635zM500 666h108q432 0 432 399 q0 299 -299 299h-94z" />
<glyph unicode="&#x3a3;" horiz-adv-x="1236" d="M-72 0l13 66l575 661l-248 676l13 59h960l-65 -358h-107l6 61q4 53 4 58q0 135 -145 135h-422l197 -545l-15 -35l-512 -590h582q162 0 233 195l23 61h106l-104 -444h-1094z" />
<glyph unicode="&#x3a4;" horiz-adv-x="1253" d="M156 1104l86 358h1153l-66 -358h-106q10 88 10 125q0 131 -135 131h-199l-242 -1135q-8 -33 -8 -57q0 -82 148 -82h47l-19 -86h-637l19 86h47q106 0 143 35t54 102l241 1137h-196q-147 0 -205 -168l-29 -88h-106z" />
<glyph unicode="&#x3a5;" horiz-adv-x="1280" d="M158 1376l18 86h553l-18 -86h-103q-84 0 -84 -55q0 -41 27 -119l92 -274q49 -147 55 -246q31 55 154 215l195 260q76 104 75 166q0 53 -98 53h-76l19 86h506l-19 -86h-39q-35 0 -78 -33q-35 -27 -108 -122l-477 -625l-80 -371q-8 -33 -8 -57q0 -82 147 -82h47l-18 -86 h-637l18 86h47q106 0 143.5 35t53.5 102l80 377l-238 668q-20 61 -45 86q-23 23 -78 22h-26z" />
<glyph unicode="&#x3a6;" horiz-adv-x="1566" d="M74 690q0 231 157.5 364.5t468.5 133.5h99l10 49q8 35 8 57q0 82 -151 82h-27l18 86h592l-18 -86h-23q-102 0 -145 -37q-41 -35 -57 -110l-9 -41h64q227 0 348 -103q123 -104 123 -292q0 -231 -160 -365q-162 -133 -471 -133h-94l-14 -70q-8 -41 -9 -57q0 -82 152 -82h22 l-18 -86h-590l19 86h26q170 0 201 147l12 62h-67q-221 0 -344 104.5t-123 290.5zM291 692q0 -299 299 -299h41l147 699h-55q-432 -1 -432 -400zM827 391h52q436 0 436 400q0 299 -303 299h-37z" />
<glyph unicode="&#x3a7;" horiz-adv-x="1351" d="M-100 0l18 86h8q66 0 119 35q47 31 123 112l453 494l-220 545q-43 104 -159 104h-27l18 86h555l-18 -86h-47q-96 0 -96 -57q0 -28 37 -123l116 -299l256 295q78 90 78 133q0 51 -98 51h-6l18 86h449l-19 -86h-18q-57 0 -101 -30q-49 -35 -131 -123l-387 -428l246 -600 q47 -109 141 -109h27l-18 -86h-553l18 86h23q63 0 96 20q35 23 35 52q0 45 -39 141l-133 326l-306 -340q-82 -90 -82 -144q0 -55 121 -55h6l-18 -86h-485z" />
<glyph unicode="&#x3a8;" horiz-adv-x="1695" d="M186 1376l19 86h397l-102 -483q-23 -113 -23 -172q0 -201 268 -201h31l135 631q8 39 9 57q0 82 -148 82h-27l19 86h584l-19 -86h-26q-96 0 -140 -37q-45 -39 -59 -110l-133 -623h49q164 0 250 74t135 299l102 483h371l-18 -86q-96 0 -140 -37q-45 -39 -59 -110l-53 -254 q-53 -246 -197 -354q-147 -111 -391 -111h-70l-59 -285q-8 -35 -8 -57q0 -82 147 -82h27l-19 -86h-583l16 86h27q98 0 141 37q45 39 59 110l58 277h-68q-410 0 -409 311q0 65 18 154l55 262q8 33 8 57q0 82 -147 82h-27z" />
<glyph unicode="&#x3a9;" horiz-adv-x="1540" d="M-12 0l28 358h107v-67q0 -74 37 -101q35 -27 129 -26h194l35 180q-172 37 -266 160q-96 125 -96 299q0 274 200 479q201 203 568 203q258 0 403 -125q147 -127 148 -342q0 -260 -150 -440q-151 -181 -448 -234l-43 -180h194q94 0 141 26q53 29 82 101l29 67h106l-92 -358 h-608l92 428q264 31 367 219q106 195 106 379q0 168 -90 258t-262 90q-274 0 -397 -192q-121 -190 -121 -424q0 -135 68 -226q68 -89 190 -104l-78 -428h-573z" />
<glyph unicode="&#x3aa;" horiz-adv-x="751" d="M-43 0l16 86h27q170 0 201 147l213 1004q8 33 8 57q0 82 -148 82h-26l18 86h596l-18 -86h-27q-98 0 -141 -37q-41 -35 -58 -110l-212 -1004q-8 -39 -9 -57q0 -82 148 -82h26l-18 -86h-596zM301 1735q0 129 110 129q102 0 103 -103q0 -129 -111 -129q-102 1 -102 103z M690 1735q0 129 110 129q102 0 103 -103q0 -129 -111 -129q-102 1 -102 103z" />
<glyph unicode="&#x3ab;" horiz-adv-x="1280" d="M158 1376l18 86h553l-18 -86h-103q-84 0 -84 -55q0 -41 27 -119l92 -274q49 -147 55 -246q31 55 154 215l195 260q76 104 75 166q0 53 -98 53h-76l19 86h506l-19 -86h-39q-35 0 -78 -33q-35 -27 -108 -122l-477 -625l-80 -371q-8 -33 -8 -57q0 -82 147 -82h47l-18 -86 h-637l18 86h47q106 0 143.5 35t53.5 102l80 377l-238 668q-20 61 -45 86q-23 23 -78 22h-26zM582 1735q0 129 110 129q102 0 103 -103q0 -129 -111 -129q-102 1 -102 103zM971 1735q0 129 110 129q102 0 103 -103q0 -129 -111 -129q-102 1 -102 103z" />
<glyph unicode="&#x3ac;" horiz-adv-x="1228" d="M84 358q0 319 162 541q160 219 385 219q217 0 260 -215h12q72 137 152 195h147q-117 -150 -186 -404l-60 -225q-33 -127 -32 -229q0 -117 94 -117q39 0 104 41l37 -66q-119 -109 -233 -108q-168 0 -187 217h-8q-145 -227 -346 -227q-135 0 -219 102q-82 100 -82 276z M291 365q0 -254 168 -254q213 0 340 479l32 129q4 18 -8 96q-12 86 -53 129q-43 47 -119 47q-150 0 -254 -190q-106 -194 -106 -436zM653 1241l4 27q98 162 143 301h185l-4 -21q-4 -20 -82 -116q-80 -98 -178 -191h-68z" />
<glyph unicode="&#x3ad;" horiz-adv-x="1015" d="M61 266q0 215 293 305l2 11q-150 63 -149 221q0 150 121 231.5t334 81.5q158 0 245 -47q86 -45 86 -129q0 -139 -176 -139q0 221 -178 221q-119 0 -178 -66q-61 -68 -62 -170q0 -82 41 -122q39 -39 97 -39l38 10q84 20 125 20q78 0 78 -55q0 -98 -127 -98q-74 0 -164 30 q-96 -20 -161 -90q-63 -66 -64 -159q0 -174 227 -174q201 0 365 151q23 -16 23 -51q0 -94 -113 -161.5t-301 -67.5q-402 -1 -402 286zM616 1241l4 27q98 162 143 301h185l-4 -21q-4 -20 -82 -116q-80 -98 -178 -191h-68z" />
<glyph unicode="&#x3ae;" horiz-adv-x="1210" d="M88 0l148 694q33 160 32 342v33q0 20 -2 29h117q33 -41 41 -203h12q162 223 359 223q279 0 278 -264q0 -55 -16 -137l-183 -860q-33 -160 -32 -236q0 -88 8 -113h-197q-8 23 -8 78q0 102 41 295l180 846q12 61 13 94q0 166 -158 166q-231 0 -315 -391l-125 -596h-193z M692 1241l4 27q98 162 143 301h185l-4 -21q-4 -20 -82 -116q-80 -98 -178 -191h-68z" />
<glyph unicode="&#x3af;" horiz-adv-x="681" d="M152 219q0 82 20 172l150 707h192l-149 -701q-25 -117 -25 -176q0 -113 109 -112q72 0 153 41l35 -76q-131 -94 -279 -94q-206 -1 -206 239zM383 1241l4 27q98 162 143 301h185l-4 -21q-4 -20 -82 -116q-80 -98 -178 -191h-68z" />
<glyph unicode="&#x3b0;" horiz-adv-x="1212" d="M117 1012l18 86h381l-141 -641q-16 -68 -17 -129q0 -217 209 -217q180 0 299 198q117 197 117 457q0 193 -143 213q18 141 131 141q72 0 114 -71q43 -70 43 -195q0 -346 -167 -608q-170 -266 -439 -266q-174 0 -266 86t-92 241q0 72 14 127l80 359q18 80 18 122 q0 96 -143 97h-16zM480 1382q0 115 98 115q92 0 92 -92q0 -115 -98 -115q-92 0 -92 92zM711 1389l4 26q92 156 144 301h184l-4 -20q-4 -20 -80 -115q-78 -96 -180 -192h-68zM912 1382q0 115 98 115q92 0 92 -92q0 -115 -98 -115q-92 0 -92 92z" />
<glyph unicode="&#x3b1;" horiz-adv-x="1228" d="M84 358q0 319 162 541q160 219 385 219q217 0 260 -215h12q72 137 152 195h147q-117 -150 -186 -404l-60 -225q-33 -127 -32 -229q0 -117 94 -117q39 0 104 41l37 -66q-119 -109 -233 -108q-168 0 -187 217h-8q-145 -227 -346 -227q-135 0 -219 102q-82 100 -82 276z M291 365q0 -254 168 -254q213 0 340 479l32 129q4 18 -8 96q-12 86 -53 129q-43 47 -119 47q-150 0 -254 -190q-106 -194 -106 -436z" />
<glyph unicode="&#x3b2;" horiz-adv-x="1222" d="M-16 -494l352 1659q82 397 483 398q180 0 281 -80q102 -80 102 -221q0 -291 -340 -385v-9q236 -94 236 -336q0 -252 -137 -401q-139 -152 -367 -151q-188 0 -297 92l-121 -566h-192zM324 197q117 -111 262 -111q152 0 233 119q84 121 84 327q0 219 -162 281 q-80 -29 -129 -29q-72 0 -71 58q0 84 125 84q70 0 116 -17q100 33 164 127q61 92 62 213q0 100 -54 160q-55 61 -145 61q-113 0 -178.5 -69.5t-102.5 -243.5z" />
<glyph unicode="&#x3b3;" horiz-adv-x="1107" d="M49 1010q127 94 232 94q127 0 170 -209q47 -227 61 -713q162 133 272 350q109 211 109 351q0 92 -76 112q27 123 137 123q113 0 113 -125q0 -193 -176 -481q-180 -295 -379 -451q-33 -248 -113 -403q-76 -150 -170 -150q-68 0 -67 78q0 174 176 424q-25 563 -61.5 764 t-110.5 201q-41 0 -88 -27z" />
<glyph unicode="&#x3b4;" horiz-adv-x="1181" d="M82 367q0 424 522 569q-168 131 -168 293q0 156 113 248q111 90 289 90q154 0 245 -56q90 -53 91 -131q0 -70 -48 -112q-45 -43 -125 -43q0 248 -186 248q-90 0 -147.5 -57.5t-57.5 -145.5q0 -121 201 -273q256 -188 256 -413q0 -264 -166 -434t-405 -170 q-193 0 -303.5 104.5t-110.5 282.5zM276 371q0 -139 64 -211q66 -74 174 -74q158 0 256 127q98 126 98 332q0 199 -192 336q-193 -55 -295 -189q-105 -135 -105 -321z" />
<glyph unicode="&#x3b5;" horiz-adv-x="1015" d="M61 266q0 215 293 305l2 11q-150 63 -149 221q0 150 121 231.5t334 81.5q158 0 245 -47q86 -45 86 -129q0 -139 -176 -139q0 221 -178 221q-119 0 -178 -66q-61 -68 -62 -170q0 -82 41 -122q39 -39 97 -39l38 10q84 20 125 20q78 0 78 -55q0 -98 -127 -98q-74 0 -164 30 q-96 -20 -161 -90q-63 -66 -64 -159q0 -174 227 -174q201 0 365 151q23 -16 23 -51q0 -94 -113 -161.5t-301 -67.5q-402 -1 -402 286z" />
<glyph unicode="&#x3b6;" horiz-adv-x="944" d="M96 295q0 201 162 504q162 301 485 551q-194 31 -325 166l71 73q144 -141 345 -159q145 92 249 92q84 0 84 -60q0 -131 -329 -131q-236 -211 -389 -491q-154 -279 -154 -490q0 -76 45 -119q51 -47 211 -86q119 -29 170 -73q53 -47 53 -125q0 -117 -90 -217 q-89 -98 -252 -142l-31 99q195 53 195 182q0 53 -45 82q-43 28 -166 55q-289 65 -289 289z" />
<glyph unicode="&#x3b7;" horiz-adv-x="1210" d="M88 0l148 694q33 160 32 342v33q0 20 -2 29h117q33 -41 41 -203h12q162 223 359 223q279 0 278 -264q0 -55 -16 -137l-183 -860q-33 -160 -32 -236q0 -88 8 -113h-197q-8 23 -8 78q0 102 41 295l180 846q12 61 13 94q0 166 -158 166q-231 0 -315 -391l-125 -596h-193z " />
<glyph unicode="&#x3b8;" d="M113 508q0 399 174 727q176 330 458 330q184 0 275 -133q94 -137 94 -385q0 -377 -178 -721q-180 -346 -471 -346q-166 0 -260 137q-92 135 -92 391zM293 387.5q0 -149.5 49 -225.5q49 -78 129 -78q250 0 395 657h-532q-41 -204 -41 -353.5zM354 838h531q35 199 35 331 q0 291 -183 291q-238 1 -383 -622z" />
<glyph unicode="&#x3b9;" horiz-adv-x="681" d="M152 219q0 82 20 172l150 707h192l-149 -701q-25 -117 -25 -176q0 -113 109 -112q72 0 153 41l35 -76q-131 -94 -279 -94q-206 -1 -206 239z" />
<glyph unicode="&#x3ba;" horiz-adv-x="1185" d="M90 0l170 807q18 90 19 108q0 96 -144 97h-16l18 86h377l-84 -389q-25 -115 -55 -211l184 252q176 240 258 301q88 66 191 65q82 0 127 -37t45 -98q0 -133 -158 -133q0 127 -86 127q-49 0 -117 -62q-66 -59 -194 -241l245 -436q59 -104 101 -134q43 -31 102 -30h23 l-21 -86h-20q-141 0 -224 32q-76 31 -155 175l-178 321l-133 -117l-84 -397h-191z" />
<glyph unicode="&#x3bb;" horiz-adv-x="1095" d="M-57 0l708 1063q-10 180 -45 278q-37 100 -127 101q-92 0 -162 -88q-23 18 -22 76q0 66 47 106.5t131 40.5q133 0 199 -90q66 -88 84 -287l55 -717q14 -188 68 -293q51 -104 125 -104h10l-15 -86h-47q-137 0 -188 59q-53 63 -72 303q-20 270 -20 486h-6 q-53 -139 -172 -328l-336 -520h-215z" />
<glyph unicode="&#x3bc;" horiz-adv-x="1236" d="M-4 -344q0 90 61 309q92 340 125 496l135 637h193l-135 -641q-23 -113 -23 -189q0 -158 150 -157q104 0 188 90q82 88 113 241l139 656h193l-164 -766q-25 -117 -25 -158q0 -66 60 -65q43 0 112 34l35 -69q-133 -94 -238 -94q-144 0 -153 196h-10q-133 -197 -297 -196 q-166 0 -232 120q-33 -164 -33 -247q0 -147 113 -166q-18 -178 -174 -179q-133 1 -133 148z" />
<glyph unicode="&#x3bd;" horiz-adv-x="1132" d="M49 1018q115 86 223.5 86t151.5 -150q41 -145 94 -772q166 143 285 354.5t119 340.5q0 98 -80 118q23 123 137 123q113 0 113 -133q0 -199 -195 -500q-197 -303 -440 -485h-109q-55 645 -94 807q-39 168 -104 168q-39 0 -74 -21z" />
<glyph unicode="&#x3be;" horiz-adv-x="962" d="M84 307q0 172 135 326q139 158 367 241l2 11q-283 70 -283 225q0 145 297 287q-190 25 -297 119l70 73q125 -96 325 -119q147 90 281 91q76 0 76 -50q0 -133 -363 -133q-201 -123 -200 -260q0 -127 200 -180q109 55 189 55q76 0 75 -53q0 -106 -190 -106q-43 0 -94 10 q-145 -53 -262 -195q-119 -143 -119 -280q0 -80 57 -129q57 -47 240 -95q129 -31 180 -78t51 -120q0 -115 -90 -215q-89 -98 -252 -142l-30 99q195 55 194 180q0 59 -51 88q-47 27 -162 49q-346 68 -346 301z" />
<glyph unicode="&#x3bf;" horiz-adv-x="1175" d="M88 403q0 279 168 496q170 219 442 219q180 0 284.5 -108.5t104.5 -315.5q0 -270 -167 -493q-166 -221 -439 -221q-182 0 -288 112q-105 110 -105 311zM301 362q0 -283 203 -282q168 0 270 201q100 199 100 444q0 285 -200 285q-166 0 -271 -201q-102 -197 -102 -447z " />
<glyph unicode="&#x3c0;" horiz-adv-x="1280" d="M-23 25l25 84q98 0 158 69q57 68 110 219l179 531h-87q-129 0 -176 -129h-86q35 168 103 233q70 66 192 66h934l-37 -170h-219q-57 -164 -108 -404q-49 -229 -50 -321q0 -94 84 -94q41 0 107 30l33 -63q-119 -92 -230 -92q-162 0 -161 174q0 104 65 344q59 217 143 426 h-391l-151 -582q-61 -240 -131 -299q-66 -57 -174 -57q-75 0 -132 35z" />
<glyph unicode="&#x3c1;" horiz-adv-x="1247" d="M-18 -492l233 1092q59 270 188 393q131 125 351 125q188 0 297 -110q106 -109 106 -316q0 -319 -153.5 -515.5t-378.5 -196.5q-205 0 -336 96q-6 -28 -13 -74q-6 -49 -18 -102l-84 -392h-192zM319 186q127 -100 293 -100q147 0 248 168t101 438q0 317 -218 318 q-129 0 -208 -95q-78 -92 -127 -315z" />
<glyph unicode="&#x3c2;" horiz-adv-x="968" d="M88 403q0 267 172 492q172 223 438 223q137 0 220 -57q80 -55 79 -139q0 -61 -49 -103q-51 -41 -133 -41q0 109 -43 176q-41 66 -115 66q-141 0 -249 -209q-106 -207 -107 -399q0 -98 51 -156q49 -55 195 -96q129 -37 178 -86t49 -125q0 -117 -90 -217q-89 -98 -252 -142 l-31 99q195 53 195 182q0 61 -49 92q-55 35 -162 57q-297 74 -297 383z" />
<glyph unicode="&#x3c3;" horiz-adv-x="1236" d="M88 430q0 324 203 496t538 172h500l-35 -170h-327q123 -166 123 -361q0 -268 -149.5 -430t-410.5 -162q-203 0 -323 123q-119 121 -119 332zM281 406q0 -154 73 -240q76 -88 199 -88q164 0 254 147q88 145 88 422q0 172 -45 281h-33q-246 0 -391 -131t-145 -391z" />
<glyph unicode="&#x3c4;" horiz-adv-x="1011" d="M94 754q70 344 336 344h643l-35 -170h-362q-176 -512 -176 -707q0 -113 108 -112q72 0 154 41l35 -76q-127 -94 -279 -94q-207 0 -207 194q0 221 260 754h-182q-166 0 -209 -174h-86z" />
<glyph unicode="&#x3c5;" horiz-adv-x="1212" d="M117 1012l18 86h381l-141 -641q-16 -68 -17 -129q0 -217 209 -217q180 0 299 198q117 197 117 457q0 193 -143 213q18 141 131 141q72 0 114 -71q43 -70 43 -195q0 -346 -167 -608q-170 -266 -439 -266q-174 0 -266 86t-92 241q0 72 14 127l80 359q18 80 18 122 q0 96 -143 97h-16z" />
<glyph unicode="&#x3c6;" horiz-adv-x="1378" d="M88 444q0 262 170 457q172 197 487 215l95 440h123l-95 -440q203 -18 310 -137q109 -121 108 -326q0 -258 -170 -458q-168 -199 -491 -218l-99 -469h-123l101 472q-197 18 -307 141q-109 120 -109 323zM297 403q0 -285 227 -323l197 926q-203 -25 -315 -193 q-109 -162 -109 -410zM647 80q207 20 320 192q111 169 110 412q0 287 -233 322z" />
<glyph unicode="&#x3c7;" horiz-adv-x="1079" d="M-240 -492l658 871l-70 422q-31 184 -115 184q-61 0 -112 -27l-25 66q111 80 217 80q74 0 111 -45q35 -43 53 -197l43 -350l393 586h226l-580 -803l78 -477q23 -127 47 -158q27 -33 64 -33q57 0 112 27l21 -66q-111 -80 -213 -80q-74 0 -107 52q-35 55 -53 196l-51 404 l-453 -652h-244z" />
<glyph unicode="&#x3c8;" horiz-adv-x="1449" d="M117 1012l18 86h375l-141 -672q-10 -43 -11 -96q0 -201 244 -219l309 1445h123l-307 -1439q219 31 346 207t127 432q0 170 -113 231q28 123 123 123q133 0 133 -229q0 -346 -169.5 -606.5t-475.5 -290.5l-100 -476h-123l100 474q-195 6 -305 94q-106 86 -106 231 q0 68 14 127l76 363q23 109 22 118q0 96 -143 97h-16z" />
<glyph unicode="&#x3c9;" horiz-adv-x="1564" d="M88 358q0 225 108.5 424t307.5 336l71 -67q-289 -341 -288 -701q0 -125 43 -192.5t110 -67.5q176 0 262 250q-10 82 -10 158q0 127 39 196q41 72 103 72q74 0 73 -100q0 -138 -110 -338q12 -109 61 -174q49 -63 125 -64q156 0 229 207q74 206 74 412q0 182 -59 342 l100 67q150 -188 150 -475q0 -262 -123 -462.5t-363 -200.5q-205 0 -254 210h-8q-113 -211 -328 -210q-141 0 -227 102q-86 101 -86 276z" />
<glyph unicode="&#x3ca;" horiz-adv-x="681" d="M152 219q0 82 20 172l150 707h192l-149 -701q-25 -117 -25 -176q0 -113 109 -112q72 0 153 41l35 -76q-131 -94 -279 -94q-206 -1 -206 239zM203 1397q0 129 110 129q102 0 103 -103q0 -129 -111 -129q-102 1 -102 103zM592 1397q0 129 110 129q102 0 103 -103 q0 -129 -111 -129q-102 1 -102 103z" />
<glyph unicode="&#x3cb;" horiz-adv-x="1212" d="M117 1012l18 86h381l-141 -641q-16 -68 -17 -129q0 -217 209 -217q180 0 299 198q117 197 117 457q0 193 -143 213q18 141 131 141q72 0 114 -71q43 -70 43 -195q0 -346 -167 -608q-170 -266 -439 -266q-174 0 -266 86t-92 241q0 72 14 127l80 359q18 80 18 122 q0 96 -143 97h-16zM492 1397q0 129 110 129q102 0 103 -103q0 -129 -111 -129q-102 1 -102 103zM881 1397q0 129 110 129q102 0 103 -103q0 -129 -111 -129q-102 1 -102 103z" />
<glyph unicode="&#x3cc;" horiz-adv-x="1175" d="M88 403q0 279 168 496q170 219 442 219q180 0 284.5 -108.5t104.5 -315.5q0 -270 -167 -493q-166 -221 -439 -221q-182 0 -288 112q-105 110 -105 311zM301 362q0 -283 203 -282q168 0 270 201q100 199 100 444q0 285 -200 285q-166 0 -271 -201q-102 -197 -102 -447z M684 1241l4 27q98 162 143 301h185l-4 -21q-4 -20 -82 -116q-80 -98 -178 -191h-68z" />
<glyph unicode="&#x3cd;" horiz-adv-x="1212" d="M117 1012l18 86h381l-141 -641q-16 -68 -17 -129q0 -217 209 -217q180 0 299 198q117 197 117 457q0 193 -143 213q18 141 131 141q72 0 114 -71q43 -70 43 -195q0 -346 -167 -608q-170 -266 -439 -266q-174 0 -266 86t-92 241q0 72 14 127l80 359q18 80 18 122 q0 96 -143 97h-16zM674 1241l4 27q98 162 143 301h185l-4 -21q-4 -20 -82 -116q-80 -98 -178 -191h-68z" />
<glyph unicode="&#x3ce;" horiz-adv-x="1564" d="M88 358q0 225 108.5 424t307.5 336l71 -67q-289 -341 -288 -701q0 -125 43 -192.5t110 -67.5q176 0 262 250q-10 82 -10 158q0 127 39 196q41 72 103 72q74 0 73 -100q0 -138 -110 -338q12 -109 61 -174q49 -63 125 -64q156 0 229 207q74 206 74 412q0 182 -59 342 l100 67q150 -188 150 -475q0 -262 -123 -462.5t-363 -200.5q-205 0 -254 210h-8q-113 -211 -328 -210q-141 0 -227 102q-86 101 -86 276zM840 1241l4 27q98 162 143 301h185l-4 -21q-4 -20 -82 -116q-80 -98 -178 -191h-68z" />
<glyph unicode="&#x3d1;" horiz-adv-x="1236" d="M74 750l18 86h137q55 0 88 -9q31 -8 58 -26q20 -14 31 -39q8 -18 8 -51q0 -31 -17 -93l-13 -51t-22 -71q-27 -96 -34 -127q-16 -70 -17 -111q0 -35 11 -70q8 -29 32 -53q27 -27 56 -37q33 -12 82 -12q172 0 290 199q119 201 174 589q-150 2 -258 35q-104 31 -168 82 q-68 55 -94 117q-29 68 -28 129q0 70 26 135q25 59 72 104.5t115 65.5q72 23 153 23q111 0 182 -33q78 -37 123 -98q45 -63 68 -158q23 -96 22 -211q0 -33 -2 -51q0 -8 -1 -26.5t-3 -26.5h144l-17 -87h-137q-23 -147 -47 -239q-35 -129 -72 -213q-41 -92 -100 -182 q-51 -76 -127 -140q-70 -57 -156 -88q-92 -33 -186 -32q-96 0 -162 24q-74 29 -106 62q-43 43 -60 90q-18 53 -18 108q0 20 8 74q6 43 18 84l25 84l23 78q14 43 18 61q8 37 8 39q0 31 -18 49q-16 16 -62 17h-65zM588 1243q0 -55 18.5 -104t63.5 -88q47 -41 118 -62 q84 -25 181 -24q4 37 4 57v51q0 104 -15 170q-16 74 -43 119q-33 53 -63 72q-39 23 -78 22q-43 0 -80 -16q-35 -16 -59 -43q-20 -25 -35 -68q-12 -39 -12 -86z" />
<glyph unicode="&#x3d2;" horiz-adv-x="1310" d="M160 1378l18 84h105q66 0 118 -14q49 -12 82 -43q35 -31 60 -84q27 -57 49 -127q25 -78 41 -137q16 -61 31 -135q18 -94 22 -125q16 -104 16 -111l72 137l76 138l76 129q49 82 69 112q59 90 105 137q47 49 92 82q43 31 86 43q37 10 86 11q61 0 96 -27q39 -29 39 -92 q0 -29 -10 -60q-10 -27 -27 -45q-25 -25 -39 -30q-25 -10 -45 -11q-6 41 -24 72q-16 29 -62 29q-25 0 -51 -11q-29 -10 -57 -36q-29 -25 -68 -78q-49 -63 -88 -129l-51 -80l-59 -100q-51 -88 -64 -113q-51 -96 -59 -115q-18 -39 -47 -112q-23 -57 -31 -101l-45 -211 q-3 -12 -6 -30q-2 -12 -2 -27q0 -25 12 -41q16 -20 29 -27q18 -8 47 -12q18 -2 59 -2h47l-18 -86h-637l18 86h47q25 0 66 4q31 3 55 19q35 20 47 41q20 31 29 73l39 180q4 20 8 58q2 20 2 63q0 80 -6 123t-23 125q-18 88 -28 123q-2 4 -14.5 47t-20.5 64l-33 94l-27 71 q-16 45 -32 76q-20 39 -43 66q-31 35 -51 47q-31 18 -68 18h-8z" />
<glyph unicode="&#x3d6;" horiz-adv-x="1902" d="M92 754q25 100 53 157q35 63 76 107q43 43 96 61q52 18 111 19h1264q41 0 80 14q29 10 55 37q23 23 39 55q10 23 22 68h86q-25 -100 -53 -158q-37 -70 -76 -106q-47 -45 -96 -62q-53 -18 -113 -18h-80q2 -4 23 -56q10 -27 20 -65q6 -25 15 -78q6 -41 6 -82 q0 -86 -12 -170q-12 -90 -39 -158q-29 -78 -68 -137q-37 -57 -96 -106q-57 -47 -127 -72q-71 -25 -160 -24q-49 0 -94 16q-37 12 -72 45q-29 27 -47 65q-18 41 -24 84h-9q-20 -37 -59 -84q-31 -37 -76 -65q-49 -31 -92 -45q-53 -16 -106 -16q-74 0 -129 20q-51 18 -97 63 q-41 41 -61.5 100.5t-20.5 141.5q0 78 23 164q23 84 59 166q33 70 88 153q55 82 107 140h-135q-45 0 -78 -13q-35 -12 -57 -38q-22 -25 -37 -56q-12 -23 -23 -67h-86zM432 299q0 -57 12 -96q10 -37 35 -64q23 -25 51 -37q31 -12 64 -12q53 0 88 16q45 20 72 48q33 33 55 71 q20 35 41 94q-3 22 -6 50q-2 18 -2 63q0 63 10 119q8 47 29 80q18 33 43 47q23 14 53.5 14t51 -20.5t20.5 -67.5q0 -41 -13 -84q-16 -57 -28 -84q-27 -59 -35 -71q-18 -31 -31 -50q0 -49 8 -84q8 -39 29 -71q18 -33 51 -51q31 -18 76 -19q66 0 115 31q47 31 86 84 q35 49 59 114q23 61 39 127q14 59 20 119q6 57 7 97q0 61 -2 86q0 12 -1.5 35.5t-3.5 33.5t-5 29.5t-3 27.5q-2 23 -10 54h-758q-27 -41 -78 -133q-35 -66 -69 -158q-35 -94 -51 -170q-19 -86 -19 -168z" />
<glyph unicode="&#x401;" horiz-adv-x="1275" d="M-43 0l16 86h27q106 0 145 37q37 35 54 100l213 1006q6 28 6 49q0 49 -29 73.5t-115 24.5h-26l18 86h1032l-65 -358h-107l7 63q4 33 4 56q0 137 -146 137h-344l-117 -545h494l-20 -100h-494l-131 -613h395q174 0 232 168l32 88h107l-90 -358h-1098zM541 1735 q0 129 110 129q102 0 103 -103q0 -129 -111 -129q-102 1 -102 103zM930 1735q0 129 110 129q102 0 103 -103q0 -129 -111 -129q-102 1 -102 103z" />
<glyph unicode="&#x402;" horiz-adv-x="1564" d="M147 0l19 86h47q106 0 143 35t54 102l241 1137h-155q-147 0 -205 -168l-29 -88h-106l86 358h1071l-66 -358h-106q10 88 10 125q0 131 -135 131h-158l-113 -524q180 61 324 61q389 0 389 -326q0 -188 -82 -387q-80 -195 -356 -194q-104 0 -162 22l27 92q55 -18 114 -18 q102 0 151.5 67.5t74 200.5t24.5 211q0 209 -229 209q-145 0 -297 -51l-107 -498q-8 -33 -8 -57q0 -82 148 -82h26l-18 -86h-617z" />
<glyph unicode="&#x403;" horiz-adv-x="1148" d="M-41 0l18 86h25q168 0 199 147l211 996q10 51 10 65q0 82 -148 82h-26l18 86h1018l-63 -358h-107q10 98 10 119q0 80 -41 108.5t-127 28.5h-309l-241 -1135q-8 -39 -9 -57q0 -82 148 -82h67l-18 -86h-635zM711 1579l6 27q121 139 219 301h219l-6 -21q-157 -184 -356 -307 h-82z" />
<glyph unicode="&#x404;" horiz-adv-x="1255" d="M106 528q0 391 242 672q243 283 602 283q176 0 279 -62q100 -61 100 -166q0 -74 -55 -116.5t-146 -42.5q0 279 -204 278q-186 0 -334 -157q-152 -162 -221 -429h571l-20 -100h-574q-16 -104 -16 -192q0 -383 364 -383q238 0 379 186q27 -18 27 -68q0 -96 -115 -173.5 t-313 -77.5q-266 0 -416 143t-150 405z" />
<glyph unicode="&#x405;" horiz-adv-x="1112" d="M14 272q0 68 45 113q43 43 113 43q0 -156 84 -252t227 -96q139 0 228 72q84 70 84 192q0 98 -47 164q-45 61 -211 157.5t-228 194.5q-63 100 -63 227q0 176 135 287q133 109 362 109q174 0 283 -62q106 -61 107 -159q0 -141 -181 -142q0 121 -57 190.5t-168 69.5 q-125 0 -201 -69q-78 -72 -77 -189q0 -86 43 -151q43 -63 210 -162q164 -96 232 -186q72 -94 72 -213q0 -201 -142 -316q-143 -115 -395 -114q-207 0 -332 83q-123 83 -123 209z" />
<glyph unicode="&#x406;" horiz-adv-x="751" d="M-43 0l16 86h27q170 0 201 147l213 1004q8 33 8 57q0 82 -148 82h-26l18 86h596l-18 -86h-27q-98 0 -141 -37q-41 -35 -58 -110l-212 -1004q-8 -39 -9 -57q0 -82 148 -82h26l-18 -86h-596z" />
<glyph unicode="&#x407;" horiz-adv-x="751" d="M-43 0l16 86h27q170 0 201 147l213 1004q8 33 8 57q0 82 -148 82h-26l18 86h596l-18 -86h-27q-98 0 -141 -37q-41 -35 -58 -110l-212 -1004q-8 -39 -9 -57q0 -82 148 -82h26l-18 -86h-596zM301 1735q0 129 110 129q102 0 103 -103q0 -129 -111 -129q-102 1 -102 103z M690 1735q0 129 110 129q102 0 103 -103q0 -129 -111 -129q-102 1 -102 103z" />
<glyph unicode="&#x408;" horiz-adv-x="729" d="M-317 -469l28 92q51 -18 133 -18q119 0 185 90q68 92 108 287l266 1255q8 39 9 57q0 82 -148 82h-26l18 86h596l-18 -86h-27q-98 0 -141 -37q-41 -35 -58 -110l-266 -1245q-55 -248 -172 -363q-115 -113 -320 -113q-87 0 -167 23z" />
<glyph unicode="&#x409;" horiz-adv-x="1820" d="M-96 123q0 61 34.5 96t86.5 35q0 -96 77 -96q184 0 373 547q186 545 187 616q0 55 -150 55h-31l19 86h987l-19 -86h-26q-98 0 -142 -37q-41 -35 -57 -110l-90 -420h55q504 0 504 -342q0 -225 -151.5 -346t-438.5 -121h-540l16 86h27q98 0 141 37q45 39 59 110l240 1127 h-274q-66 -250 -162 -549q-102 -319 -207 -522q-100 -197 -180 -250q-78 -53 -176 -53q-78 0 -119 39q-43 41 -43 98zM1004 102h96q391 0 391 349q0 139 -71.5 200.5t-217.5 61.5h-69z" />
<glyph unicode="&#x40a;" horiz-adv-x="1986" d="M-43 0l16 86h27q98 0 141 37t60 110l213 1004q8 33 8 57q0 82 -148 82h-26l18 86h596l-18 -86h-27q-98 0 -141 -37q-41 -35 -58 -110l-88 -414h584l90 422q8 33 8 57q0 82 -147 82h-27l19 86h596l-19 -86h-26q-98 0 -142 -37q-41 -35 -57 -110l-90 -420h55 q504 0 504 -342q0 -225 -151.5 -346t-438.5 -121h-540l16 86h27q98 0 141 37q45 39 59 110l101 480h-584l-102 -488q-8 -39 -9 -57q0 -82 148 -82h26l-18 -86h-596zM1169 102h97q391 0 391 349q0 139 -70 200q-72 61 -219 62h-70z" />
<glyph unicode="&#x40b;" horiz-adv-x="1701" d="M147 0l19 86h47q106 0 143 35t54 102l241 1137h-155q-147 0 -205 -168l-29 -88h-106l86 358h1071l-66 -358h-106q10 88 10 125q0 131 -135 131h-158l-113 -524q180 61 324 61q391 0 391 -303q0 -90 -28 -221l-31 -148q-8 -33 -8 -57q0 -82 147 -82h27l-19 -86h-596l17 86 h26q170 0 201 147l27 129q27 133 26 218q0 195 -229 194q-145 0 -297 -51l-107 -498q-8 -33 -8 -57q0 -82 148 -82h26l-18 -86h-617z" />
<glyph unicode="&#x40c;" horiz-adv-x="1433" d="M-43 0l16 86h27q98 0 141 37q39 33 60 110l213 1004q8 33 8 57q0 82 -148 82h-26l18 86h596l-18 -86h-27q-98 0 -141 -37q-41 -35 -58 -110l-94 -447q141 0 203 49q57 45 205 310q96 174 190 256q90 78 232 78q166 0 166 -123q0 -135 -129 -144q0 115 -101 115 q-141 0 -272 -242q-152 -268 -223 -307q119 -6 174 -178l118 -346q55 -164 207 -164h6l-18 -86h-29q-178 0 -252 31q-78 33 -116 162l-111 356q-25 78 -63.5 108.5t-206.5 30.5l-98 -463q-8 -39 -9 -57q0 -82 148 -82h26l-18 -86h-596zM869 1579l6 27q121 139 219 301h219 l-6 -21q-157 -184 -356 -307h-82z" />
<glyph unicode="&#x40e;" horiz-adv-x="1370" d="M86 -10l20 96h113q221 0 359 223l-259 959q-18 68 -40 86q-27 23 -82 22h-27l18 86h568l-17 -86h-55q-139 0 -139 -100q0 -41 16 -113l115 -448q41 -158 57 -277q55 120 148 271l297 479q39 63 39 115q0 74 -115 73h-47l16 86h500l-19 -86h-39q-55 0 -89.5 -28.5 t-98.5 -130.5l-524 -842q-168 -270 -250 -326q-88 -59 -315 -59h-150zM630 1770q0 43 11 69l182 47q-14 -41 -14 -90q0 -109 127 -108q231 0 391 252l76 -48q-194 -313 -498 -313q-275 1 -275 191z" />
<glyph unicode="&#x40f;" horiz-adv-x="1562" d="M-39 0l19 86h24q96 0 139 37q41 35 58 102l217 1012q8 33 8 57q0 82 -147 82h-27l18 86h596l-18 -86h-27q-96 0 -139 -37q-47 -41 -61 -110l-238 -1127h604l242 1135q8 33 8 57q0 82 -147 82h-27l18 86h596l-18 -86h-27q-98 0 -139 -32.5t-57 -104.5l-217 -1014 q-8 -39 -9 -57q0 -82 148 -82h26l-18 -86h-426q-227 0 -322 -430h-94q25 106 25 192q0 238 -182 238h-406z" />
<glyph unicode="&#x410;" horiz-adv-x="1443" d="M-115 0l17 86h39q53 0 92 28.5t98 131.5l713 1216h160l194 -1267q8 -63 35 -86t86 -23h27l-17 -86h-557l16 86h48q147 0 147 104q0 33 -4 70l-33 229h-538l-123 -215q-39 -66 -39 -114q0 -74 114 -74h48l-17 -86h-506zM469 592h463l-51 358q-29 209 -33 324 q-47 -115 -160 -305z" />
<glyph unicode="&#x411;" horiz-adv-x="1236" d="M-43 0l16 86h27q170 0 201 147l213 1004q8 33 8 57q0 82 -148 82h-26l18 86h959l-66 -358h-106q10 88 10 125q0 131 -135 131h-281l-119 -551h117q504 0 504 -342q0 -225 -151.5 -346t-438.5 -121h-602zM379 102h158q391 0 391 349q0 139 -70 200q-72 61 -219 62h-131z " />
<glyph unicode="&#x412;" horiz-adv-x="1337" d="M-43 0l16 86h27q170 0 201 147l213 1004q8 33 8 57q0 82 -148 82h-26l18 86h531q479 0 479 -307q0 -305 -334 -381l-2 -8q250 -49 250 -299q0 -225 -151.5 -346t-438.5 -121h-643zM379 102h199q391 0 391 379q0 233 -287 234h-172zM530 817h158q365 0 365 311 q0 231 -283 232h-123z" />
<glyph unicode="&#x413;" horiz-adv-x="1148" d="M-41 0l18 86h25q168 0 199 147l211 996q10 51 10 65q0 82 -148 82h-26l18 86h1018l-63 -358h-107q10 98 10 119q0 80 -41 108.5t-127 28.5h-309l-241 -1135q-8 -39 -9 -57q0 -82 148 -82h67l-18 -86h-635z" />
<glyph unicode="&#x414;" horiz-adv-x="1396" d="M-186 -430l114 532h123q336 455 487.5 793t151.5 422q0 27 -28.5 43t-135.5 16h-6l19 86h942l-19 -86h-26q-80 0 -119 -35q-37 -35 -53 -102l-211 -989q-6 -29 -6 -51q0 -96 143 -97h41l-115 -532h-94q23 106 22 176q0 254 -233 254h-510q-301 0 -393 -430h-94zM193 102 h624l266 1258h-260q-112 -504 -630 -1258z" />
<glyph unicode="&#x415;" horiz-adv-x="1275" d="M-43 0l16 86h27q106 0 145 37q37 35 54 100l213 1006q6 28 6 49q0 49 -29 73.5t-115 24.5h-26l18 86h1032l-65 -358h-107l7 63q4 33 4 56q0 137 -146 137h-344l-117 -545h494l-20 -100h-494l-131 -613h395q174 0 232 168l32 88h107l-90 -358h-1098z" />
<glyph unicode="&#x416;" horiz-adv-x="2004" d="M-111 0l19 86h6q160 0 262 164l203 346q100 170 344 180q-82 70 -156 305q-51 164 -88 205q-33 37 -78 37q-90 0 -137 -115q-74 31 -74 119q0 147 183 148q115 0 172 -70q59 -72 114 -264q68 -229 127 -295q57 -63 148 -64l96 455q8 33 8 57q0 82 -147 82h-27l19 86h579 l-18 -86h-27q-96 0 -139 -37q-45 -39 -59 -110l-95 -447q156 0 229.5 55.5t194.5 303.5q86 180 178 256q94 78 222 78q158 0 157 -119q0 -138 -129 -148q0 115 -96 115q-72 0 -123 -51q-47 -47 -121 -191q-132 -258 -227 -307q96 -33 145 -178l119 -346q55 -164 207 -164h6 l-18 -86h-29q-172 0 -250 35q-82 37 -119 158l-110 356q-29 90 -76 115q-49 25 -180 24l-98 -463q-8 -39 -9 -57q0 -82 148 -82h26l-18 -86h-580l17 86h26q96 0 139.5 37t61.5 110l96 455q-164 0 -231.5 -24.5t-116.5 -114.5l-205 -356q-70 -119 -135 -156q-68 -37 -270 -37 h-66z" />
<glyph unicode="&#x417;" horiz-adv-x="1234" d="M27 244q0 70 45 110q41 39 110 39q0 -117 88 -211q86 -92 232 -92q340 0 340 350q0 121 -80 189q-82 70 -232 69h-159l22 105h174q170 0 285 96q113 94 113 250q0 109 -64 170q-66 61 -180 61q-225 0 -291 -305q-158 0 -158 129q0 123 127 201q125 78 324 78t328 -88 q127 -86 127 -234q0 -166 -115 -276q-115 -113 -305 -133q139 -18 227 -103q86 -84 86 -207q0 -224 -153 -344q-156 -121 -439 -121q-215 0 -333.5 72t-118.5 195z" />
<glyph unicode="&#x418;" horiz-adv-x="1644" d="M-43 0l16 86h27q98 0 141 37t60 110l213 1004q8 33 8 57q0 82 -148 82h-26l18 86h596l-18 -86h-27q-98 0 -141 -37q-41 -35 -58 -110l-163 -783l839 736l13 55q8 31 8 57q0 82 -148 82h-26l18 86h596l-18 -86h-27q-98 0 -141 -37q-41 -35 -58 -110l-213 -1004 q-8 -33 -8 -57q0 -82 148 -82h26l-18 -86h-596l16 86h27q170 0 201 147l163 785l-841 -739l-10 -54q-8 -43 -9 -57q0 -82 148 -82h26l-18 -86h-596z" />
<glyph unicode="&#x419;" horiz-adv-x="1644" d="M-43 0l16 86h27q98 0 141 37t60 110l213 1004q8 33 8 57q0 82 -148 82h-26l18 86h596l-18 -86h-27q-98 0 -141 -37q-41 -35 -58 -110l-163 -783l839 736l13 55q8 31 8 57q0 82 -148 82h-26l18 86h596l-18 -86h-27q-98 0 -141 -37q-41 -35 -58 -110l-213 -1004 q-8 -33 -8 -57q0 -82 148 -82h26l-18 -86h-596l16 86h27q170 0 201 147l163 785l-841 -739l-10 -54q-8 -43 -9 -57q0 -82 148 -82h26l-18 -86h-596zM733 1770q0 43 11 69l182 47q-14 -41 -14 -90q0 -109 127 -108q231 0 391 252l76 -48q-194 -313 -498 -313q-275 1 -275 191 z" />
<glyph unicode="&#x41a;" horiz-adv-x="1433" d="M-43 0l16 86h27q98 0 141 37q39 33 60 110l213 1004q8 33 8 57q0 82 -148 82h-26l18 86h596l-18 -86h-27q-98 0 -141 -37q-41 -35 -58 -110l-94 -447q141 0 203 49q57 45 205 310q96 174 190 256q90 78 232 78q166 0 166 -123q0 -135 -129 -144q0 115 -101 115 q-141 0 -272 -242q-152 -268 -223 -307q119 -6 174 -178l118 -346q55 -164 207 -164h6l-18 -86h-29q-178 0 -252 31q-78 33 -116 162l-111 356q-25 78 -63.5 108.5t-206.5 30.5l-98 -463q-8 -39 -9 -57q0 -82 148 -82h26l-18 -86h-596z" />
<glyph unicode="&#x41b;" horiz-adv-x="1437" d="M-96 123q0 61 34.5 96t86.5 35q0 -96 77 -96q184 0 373 547q186 545 187 616q0 55 -150 55h-31l19 86h1048l-18 -86h-27q-96 0 -139 -37q-45 -39 -59 -110l-213 -1004q-8 -39 -9 -57q0 -82 148 -82h26l-18 -86h-596l16 86h27q170 0 201 147l237 1127h-333 q-53 -203 -164 -549q-109 -338 -205 -522q-100 -193 -180 -248t-176 -55q-78 0 -119 39q-43 41 -43 98z" />
<glyph unicode="&#x41c;" horiz-adv-x="1918" d="M-41 0l18 86h27q101 0 141 37q37 35 54 100l215 1014q8 33 8 57q0 82 -148 82h-26l18 86h465l174 -1167l670 1167h457l-19 -86h-26q-98 0 -142 -37q-41 -35 -57 -110l-213 -1004q-8 -33 -8 -57q0 -82 147 -82h27l-19 -86h-544l18 86h6q88 0 121 33q37 37 53 96l234 1094 l-748 -1309h-110l-199 1309l-229 -1084q-8 -39 -9 -57q0 -82 148 -82h26l-18 -86h-512z" />
<glyph unicode="&#x41d;" horiz-adv-x="1622" d="M-43 0l16 86h27q98 0 141 37t60 110l213 1004q8 33 8 57q0 82 -148 82h-26l18 86h596l-18 -86h-27q-98 0 -141 -37q-41 -35 -58 -110l-88 -414h666l90 422q8 33 8 57q0 82 -147 82h-27l19 86h596l-19 -86h-26q-98 0 -142 -37q-41 -35 -57 -110l-213 -1004q-8 -33 -8 -57 q0 -82 147 -82h27l-19 -86h-596l17 86h26q98 0 142 37q45 39 59 110l101 480h-666l-102 -488q-8 -39 -9 -57q0 -82 148 -82h26l-18 -86h-596z" />
<glyph unicode="&#x41e;" horiz-adv-x="1519" d="M106 545q0 354 229.5 647t590.5 293q238 0 385 -148q145 -145 145 -415q0 -348 -227 -648q-227 -297 -586 -297q-242 0 -389.5 154t-147.5 414zM330 487q0 -190 88 -294q86 -102 237 -103q256 0 416 282.5t160 604.5q0 193 -84 295t-238 102q-254 0 -417 -284 q-162 -281 -162 -603z" />
<glyph unicode="&#x41f;" horiz-adv-x="1562" d="M-43 0l16 86h27q98 0 141 37t60 110l213 1004q8 33 8 57q0 82 -148 82h-26l18 86h1407l-18 -86h-27q-96 0 -139 -37q-45 -39 -59 -110l-213 -1004q-8 -39 -9 -57q0 -82 148 -82h26l-18 -86h-596l18 86h27q96 0 139 37q41 35 60 110l239 1127h-604l-241 -1135 q-8 -39 -9 -57q0 -82 148 -82h26l-18 -86h-596z" />
<glyph unicode="&#x420;" horiz-adv-x="1269" d="M-41 0l18 86h27q96 0 139 37q41 35 58 110l213 1004q8 33 8 57q0 82 -148 82h-26l18 86h525q223 0 344 -102q123 -104 122 -293q0 -231 -157.5 -364.5t-468.5 -133.5h-152l-73 -344q-8 -39 -9 -57q0 -82 148 -82h67l-18 -86h-635zM500 666h108q432 0 432 399 q0 299 -299 299h-94z" />
<glyph unicode="&#x421;" horiz-adv-x="1282" d="M106 528q0 391 242 672q243 283 602 283q176 0 279 -62q100 -61 100 -166q0 -74 -55 -116.5t-146 -42.5q0 279 -204 278q-252 0 -424 -276q-170 -272 -170 -602q0 -383 364 -383q238 0 379 186q27 -18 27 -68q0 -96 -115 -173.5t-313 -77.5q-266 0 -416 143t-150 405z " />
<glyph unicode="&#x422;" horiz-adv-x="1253" d="M156 1104l86 358h1153l-66 -358h-106q10 88 10 125q0 131 -135 131h-199l-242 -1135q-8 -33 -8 -57q0 -82 148 -82h47l-19 -86h-637l19 86h47q106 0 143 35t54 102l241 1137h-196q-147 0 -205 -168l-29 -88h-106z" />
<glyph unicode="&#x423;" horiz-adv-x="1370" d="M86 -10l20 96h113q221 0 359 223l-259 959q-18 68 -40 86q-27 23 -82 22h-27l18 86h568l-17 -86h-55q-139 0 -139 -100q0 -41 16 -113l115 -448q41 -158 57 -277q55 120 148 271l297 479q39 63 39 115q0 74 -115 73h-47l16 86h500l-19 -86h-39q-55 0 -89.5 -28.5 t-98.5 -130.5l-524 -842q-168 -270 -250 -326q-88 -59 -315 -59h-150z" />
<glyph unicode="&#x424;" horiz-adv-x="1566" d="M74 690q0 231 157.5 364.5t468.5 133.5h99l10 49q8 35 8 57q0 82 -151 82h-27l18 86h592l-18 -86h-23q-102 0 -145 -37q-41 -35 -57 -110l-9 -41h64q227 0 348 -103q123 -104 123 -292q0 -231 -160 -365q-162 -133 -471 -133h-94l-14 -70q-8 -41 -9 -57q0 -82 152 -82h22 l-18 -86h-590l19 86h26q170 0 201 147l12 62h-67q-221 0 -344 104.5t-123 290.5zM291 692q0 -299 299 -299h41l147 699h-55q-432 -1 -432 -400zM827 391h52q436 0 436 400q0 299 -303 299h-37z" />
<glyph unicode="&#x425;" horiz-adv-x="1351" d="M-100 0l18 86h8q66 0 119 35q47 31 123 112l453 494l-220 545q-43 104 -159 104h-27l18 86h555l-18 -86h-47q-96 0 -96 -57q0 -28 37 -123l116 -299l256 295q78 90 78 133q0 51 -98 51h-6l18 86h449l-19 -86h-18q-57 0 -101 -30q-49 -35 -131 -123l-387 -428l246 -600 q47 -109 141 -109h27l-18 -86h-553l18 86h23q63 0 96 20q35 23 35 52q0 45 -39 141l-133 326l-306 -340q-82 -90 -82 -144q0 -55 121 -55h6l-18 -86h-485z" />
<glyph unicode="&#x426;" horiz-adv-x="1562" d="M-39 0l19 86h24q96 0 139 37q41 35 58 102l217 1012q8 33 8 57q0 82 -147 82h-27l18 86h596l-18 -86h-27q-96 0 -139 -37q-47 -41 -61 -110l-238 -1127h604l242 1135q8 33 8 57q0 82 -147 82h-27l18 86h596l-18 -86h-27q-98 0 -139 -32.5t-57 -104.5l-217 -1014 q-8 -39 -9 -57q0 -76 123 -82h72l-111 -516h-94q23 106 23 174q0 256 -246 256h-1016z" />
<glyph unicode="&#x427;" horiz-adv-x="1546" d="M176 1374l19 86h596l-17 -86h-26q-98 0 -142 -37q-45 -39 -59 -110l-31 -142q-37 -168 -37 -231q0 -195 230 -195q121 0 360 78l107 500q8 33 8 57q0 82 -148 82h-26l18 86h596l-18 -86h-27q-98 0 -141 -37q-41 -35 -58 -110l-213 -1004q-8 -33 -8 -57q0 -82 148 -82h26 l-18 -86h-596l16 86h27q170 0 201 147l84 392q-252 -88 -388 -88q-391 0 -391 303q0 66 39 235l35 160q8 33 8 57q0 82 -147 82h-27z" />
<glyph unicode="&#x428;" horiz-adv-x="2209" d="M-41 0l18 86h25q96 0 139 37q41 35 58 102l217 1012q8 33 8 57q0 82 -148 82h-26l18 86h596l-18 -86h-27q-170 0 -201 -147l-237 -1127h522l242 1135q8 33 8 57q0 82 -147 82h-27l18 86h596l-18 -86h-27q-98 0 -139 -32.5t-57 -104.5l-244 -1137h524l242 1135q8 33 8 57 q0 82 -147 82h-27l18 86h596l-18 -86h-27q-98 0 -139 -32.5t-57 -104.5l-217 -1014q-8 -39 -9 -57q0 -82 148 -82h27l-19 -86h-2052z" />
<glyph unicode="&#x429;" horiz-adv-x="2209" d="M-41 0l18 86h25q96 0 139 37q41 35 58 102l217 1012q8 33 8 57q0 82 -148 82h-26l18 86h596l-18 -86h-27q-170 0 -201 -147l-237 -1127h522l242 1135q8 33 8 57q0 82 -147 82h-27l18 86h596l-18 -86h-27q-98 0 -139 -32.5t-57 -104.5l-244 -1137h524l242 1135q8 33 8 57 q0 82 -147 82h-27l18 86h596l-18 -86h-27q-98 0 -139 -32.5t-57 -104.5l-217 -1014q-8 -39 -9 -57q0 -76 123 -82h72l-111 -516h-94q20 94 21 174q0 250 -230 256h-1677z" />
<glyph unicode="&#x42a;" horiz-adv-x="1445" d="M156 1104l86 358h872l-18 -86h-68q-94 0 -139 -35q-41 -33 -58 -102l-92 -430h117q504 0 504 -342q0 -221 -151.5 -344t-438.5 -123h-602l16 86h27q170 0 201 147l239 1127h-155q-147 0 -205 -168l-29 -88h-106zM590 102h158q391 0 391 349q0 262 -289 262h-131z" />
<glyph unicode="&#x42b;" horiz-adv-x="1857" d="M-43 0l16 86h60q46 0 98 31q51 31 70 116l213 1004q8 33 8 57q0 82 -148 82h-26l18 86h596l-18 -86h-27q-98 0 -143 -41q-41 -37 -60 -118l-86 -408h56q504 0 503 -342q0 -221 -151 -344q-150 -123 -438 -123h-541zM379 102h96q391 0 391 349q0 139 -71 200 q-70 61 -217 62h-70zM1063 0l16 86h27q170 0 201 147l213 1004q8 33 8 57q0 82 -148 82h-26l18 86h596l-18 -86h-27q-98 0 -141 -37q-41 -35 -58 -110l-213 -1004q-8 -33 -8 -57q0 -82 148 -82h26l-18 -86h-596z" />
<glyph unicode="&#x42c;" horiz-adv-x="1253" d="M-43 0l16 86h60q46 0 98 31q51 31 70 116l213 1004q8 33 8 57q0 82 -148 82h-26l18 86h596l-18 -86h-27q-98 0 -143 -41q-41 -37 -60 -118l-86 -408h138q504 0 503 -342q0 -221 -151 -344q-150 -123 -438 -123h-623zM379 102h178q391 0 391 349q0 139 -71 200 q-70 61 -218 62h-151z" />
<glyph unicode="&#x42d;" horiz-adv-x="1290" d="M27 244q0 70 45 110q41 39 110 39q0 -121 78 -211q80 -92 209 -92q365 0 496 598h-570l21 100h565q23 129 23 213q0 184 -72 281q-74 98 -211 98q-115 0 -195 -80q-84 -84 -110 -217q-66 0 -109 37q-41 35 -41 105q0 106 131 182t336 76q233 0 367 -135 q131 -133 131 -390q0 -401 -215 -689.5t-563 -288.5q-207 0 -316 69q-110 70 -110 195z" />
<glyph unicode="&#x42e;" horiz-adv-x="2142" d="M-43 0l16 86h27q98 0 141 37t60 110l213 1004q8 33 8 57q0 82 -148 82h-26l18 86h596l-18 -86h-27q-98 0 -141 -37q-41 -35 -58 -110l-88 -414h299q82 305 283 487.5t463 182.5q227 0 367 -148q139 -150 139 -415q0 -350 -217 -647.5t-559 -297.5q-231 0 -371 152 q-141 154 -141 416q0 98 14 168h-299l-102 -488q-8 -39 -9 -57q0 -82 148 -82h26l-18 -86h-596zM1016 487q0 -188 82 -294q78 -102 221 -103q237 0 387 283q150 281 149 604q0 193 -77.5 295t-221.5 102q-238 0 -389 -285t-151 -602z" />
<glyph unicode="&#x42f;" horiz-adv-x="1341" d="M-74 0l13 86h6q66 0 114 31q55 35 125 133l312 436q-213 104 -213 334q0 231 155 336q160 106 510 106h506l-18 -86h-27q-98 0 -141 -37q-41 -35 -58 -110l-213 -1004q-8 -33 -8 -57q0 -82 148 -82h26l-18 -86h-596l16 86h27q170 0 201 147l84 398h-203l-301 -447 q-68 -102 -150 -145q-76 -39 -268 -39h-29zM498 1020q0 -293 327 -293h72l135 637h-131q-403 0 -403 -344z" />
<glyph unicode="&#x430;" horiz-adv-x="1185" d="M88 354q0 281 176 522.5t434 241.5q138 0 240 -74l90 52h66l-140 -656q-31 -141 -30 -227q0 -104 67 -104q57 0 148 53l37 -60q-147 -123 -289 -122q-160 0 -160 170q0 70 21 159h-13q-147 -330 -383 -329q-123 0 -194 98q-70 96 -70 276zM297 346.5q0 -237.5 129 -237.5 q102 0 213 151q113 154 149 330l76 362q-45 74 -155 74q-172 0 -293 -223q-119 -219 -119 -456.5z" />
<glyph unicode="&#x431;" horiz-adv-x="1187" d="M102 528q0 410 172 660q172 248 486 285q365 41 395 96l90 4q-27 -147 -98 -201q-70 -51 -402 -88q-223 -25 -321 -106q-92 -78 -152 -340h15q59 102 172 163q111 61 235 62q182 0 295 -117q113 -115 113 -315q0 -272 -168 -461q-168 -190 -430 -190q-186 0 -295 145 q-107 143 -107 403zM317 375q0 -289 213 -289q145 0 252 168t107 414q0 287 -211 286q-143 0 -252 -163.5t-109 -415.5z" />
<glyph unicode="&#x432;" horiz-adv-x="1056" d="M88 362q0 293 172 524.5t438 231.5q135 0 226 -65q88 -63 88 -170q0 -229 -373 -308q301 -72 301 -272q0 -139 -123 -231t-319 -92q-195 0 -301 100q-109 102 -109 282zM301 338q0 -246 205 -246q111 0 170 58q61 59 61 157q0 111 -90 172.5t-131 61.5l-197 -9 q-18 -90 -18 -194zM338 627h20q209 0 326 61.5t117 175.5q0 76 -41 115q-45 41 -107 41q-90 0 -184 -119q-90 -114 -131 -274z" />
<glyph unicode="&#x433;" horiz-adv-x="1019" d="M74 254q0 88 43 149q41 59 112 103q57 35 252 108q150 57 195 107q47 53 47 125q0 141 -164 141q-188 0 -283 -125q-16 12 -16 51q0 203 330 203q158 0 252 -65.5t94 -171.5q0 -190 -250 -281q-260 -96 -328 -152q-72 -59 -71 -174q0 -166 200 -166q193 0 306 148 q23 -23 22 -66q0 -98 -92 -153t-272.5 -55t-278.5 73.5t-98 200.5z" />
<glyph unicode="&#x434;" horiz-adv-x="1204" d="M88 403q0 266 166 457t418 191q166 0 239 -99q0 242 -73 383q-72 139 -211 140q-113 0 -211 -33l-27 88q117 47 266 47q221 0 340 -172q121 -174 121 -496q0 -432 -164 -682q-162 -248 -446 -247q-203 0 -309 110q-109 112 -109 313zM299 379q0 -299 238 -299 q156 0 258 194q98 188 114 504q-74 166 -247 166q-154 0 -259 -156q-104 -157 -104 -409z" />
<glyph unicode="&#x435;" horiz-adv-x="1009" d="M88 403q0 267 172 492q172 223 438 223q129 0 201 -61.5t72 -173.5q0 -166 -172 -289t-422 -123h-35q-25 0 -37 2q-4 -37 -4 -86q0 -279 225 -278q175 0 295 147q20 -12 21 -51q0 -82 -96.5 -153.5t-258.5 -71.5q-178 0 -288.5 112t-110.5 311zM324 567h20q184 0 299 88 q117 90 117 227.5t-119 137.5q-98 0 -184 -125q-88 -129 -133 -328z" />
<glyph unicode="&#x436;" horiz-adv-x="2066" d="M2 164q0 63 45 102q47 41 119 41q0 -233 129 -233q123 0 225 202q100 201 101 431q0 279 -175 278q-145 0 -243 -147q-16 16 -17 51q0 84 82 153q84 72 219 72q152 0 238 -100q86 -101 86 -283q0 -59 -10 -131h151l105 498h178l-107 -498h160q66 238 205 377 q141 141 319 141q119 0 185 -51q70 -53 69 -137q0 -61 -45 -102.5t-118 -41.5q0 233 -129 234q-123 0 -226 -203q-100 -201 -100 -430q0 -279 174 -278q145 0 244 147q16 -20 16 -51q0 -84 -82 -154q-84 -72 -219 -71q-152 0 -238 100q-86 101 -86 282q0 61 13 142h-162 l-109 -504h-172l105 504h-150q-61 -238 -204 -385q-141 -143 -322 -144q-121 0 -186 52q-68 51 -68 137z" />
<glyph unicode="&#x437;" horiz-adv-x="974" d="M4 199q0 57 41 96t127 39q0 -121 64 -187q66 -70 167 -69q104 0 177 72q70 70 69 186q0 82 -55 133q-53 51 -148 51h-190l23 111h192q121 0 186 57q68 57 68 164q0 78 -45 123q-47 47 -131 47q-195 0 -244 -221q-141 0 -141 90q0 96 104 162q102 63 297 63q170 0 264 -69 q96 -72 97 -183q0 -201 -281 -284l-2 -11q205 -57 205 -229t-125 -266t-348 -94q-174 0 -272.5 61.5t-98.5 157.5z" />
<glyph unicode="&#x438;" horiz-adv-x="1226" d="M117 1012l18 86h381l-135 -613q-41 -193 -41 -247q0 -125 100 -125q102 0 226 151q123 150 159 324l107 510h198l-141 -658q-31 -144 -31 -227q0 -104 68 -104q59 0 131 45l37 -60q-131 -115 -260 -114q-78 0 -125 55q-47 57 -47 139q0 45 10 121h-16 q-109 -180 -199 -248q-88 -66 -197 -65q-219 0 -219 227q0 66 37 225l80 359q18 80 18 122q0 96 -143 97h-16z" />
<glyph unicode="&#x439;" horiz-adv-x="1226" d="M117 1012l18 86h381l-135 -613q-41 -193 -41 -247q0 -125 100 -125q102 0 226 151q123 150 159 324l107 510h198l-141 -658q-31 -144 -31 -227q0 -104 68 -104q59 0 131 45l37 -60q-131 -115 -260 -114q-78 0 -125 55q-47 57 -47 139q0 45 10 121h-16 q-109 -180 -199 -248q-88 -66 -197 -65q-219 0 -219 227q0 66 37 225l80 359q18 80 18 122q0 96 -143 97h-16zM419 1432q0 43 11 69l182 47q-14 -41 -14 -90q0 -109 127 -108q231 0 391 252l76 -48q-194 -313 -498 -313q-275 1 -275 191z" />
<glyph unicode="&#x43a;" horiz-adv-x="1236" d="M88 0l170 793q18 84 18 122q0 96 -143 97h-16l18 86h381l-106 -496q84 0 141 51.5t197 223.5q127 147 186 188q68 45 153 45q152 0 152 -123q0 -113 -111 -131q0 115 -90 115q-55 0 -114 -47q-61 -47 -172 -187q-94 -113 -146 -141q66 -4 121 -53q59 -53 90 -127l72 -166 q72 -164 209 -164h6l-19 -86h-71q-145 0 -209 41q-59 39 -107 152l-67 172q-39 96 -84 118q-49 25 -158 25l-104 -508h-197z" />
<glyph unicode="&#x43b;" horiz-adv-x="1314" d="M4 123q0 59 33 94q33 37 82 37q0 -39 22.5 -67.5t57.5 -28.5q71 0 135 116q66 117 192 467q96 262 170 315.5t203 53.5q139 0 315 -33l-141 -663q-27 -133 -26 -207q0 -98 73 -98q53 0 125 45l37 -60q-131 -115 -260 -114q-82 0 -131 55t-49 139q0 76 22 182l135 641 q-47 20 -104 21q-109 0 -162 -74q-49 -68 -174 -414q-102 -289 -190 -415q-90 -129 -236 -129q-59 0 -94 41t-35 96z" />
<glyph unicode="&#x43c;" horiz-adv-x="1841" d="M4 123q0 59 33 94q33 37 82 37q0 -39 22.5 -67.5t57.5 -28.5q57 0 122.5 94t188.5 448q72 207 106 256q-47 55 -161 56h-27l16 86h371l121 -830l580 830h364l-16 -86h-6q-96 0 -129 -35q-35 -37 -50 -103l-98 -460q-27 -121 -27 -207q0 -98 74 -98q53 0 125 45l37 -60 q-131 -115 -260 -114q-82 0 -131 55t-49 139q0 76 22 182l103 492h-9l-585 -848h-95l-124 817q-4 -12 -41 -110q-113 -315 -170 -447q-66 -147 -140 -209q-78 -66 -178 -65q-59 0 -94 41t-35 96z" />
<glyph unicode="&#x43d;" horiz-adv-x="1286" d="M90 0l172 823q12 58 12 92q0 96 -143 97h-16l18 86h379l-104 -488h473l102 488h201l-148 -684q-27 -129 -26 -207q0 -98 73 -98q53 0 125 45l37 -60q-131 -115 -260 -114q-82 0 -131 55t-49 139q0 76 22 182l33 160h-471l-108 -516h-191z" />
<glyph unicode="&#x43e;" horiz-adv-x="1175" d="M88 403q0 279 168 496q170 219 442 219q180 0 284.5 -108.5t104.5 -315.5q0 -270 -167 -493q-166 -221 -439 -221q-182 0 -288 112q-105 110 -105 311zM301 362q0 -283 203 -282q168 0 270 201q100 199 100 444q0 285 -200 285q-166 0 -271 -201q-102 -197 -102 -447z " />
<glyph unicode="&#x43f;" horiz-adv-x="1226" d="M90 0l172 823q12 58 12 92q0 96 -143 97h-16l18 86h379l-55 -258h20q166 276 373 276q219 0 219 -227q0 -66 -37 -225l-53 -242q-27 -119 -27 -215q0 -98 72 -98q59 0 131 47l37 -60q-135 -117 -250 -116q-86 0 -135 55q-51 57 -51 149q0 96 39 277l47 213q31 123 30 190 q0 121 -94 121q-114 0 -233.5 -153.5t-153.5 -307.5l-110 -524h-191z" />
<glyph unicode="&#x440;" horiz-adv-x="1181" d="M-14 -492l272 1299q18 86 18 108q0 96 -143 97h-16l18 86h363l-49 -273h10q147 293 375 293q125 0 192 -94q68 -95 68 -276q0 -274 -172 -521q-174 -248 -439 -247q-117 0 -200 47q-12 -80 -17 -99l-28 -125q-18 -86 -19 -114q0 -94 143 -95h27l-18 -86h-385zM315 145 q66 -74 162 -73q170 0 289 223t119 455q0 240 -129 239q-104 0 -213 -147q-111 -152 -144 -307z" />
<glyph unicode="&#x441;" horiz-adv-x="995" d="M88 403q0 267 172 492q172 223 438 223q139 0 219 -55t80 -141q0 -61 -49 -103q-51 -41 -133 -41q0 109 -43 176q-41 66 -115 66q-143 0 -249.5 -213t-106.5 -420q0 -279 225 -278q178 0 295 147q20 -12 21 -51q0 -82 -96.5 -153.5t-258.5 -71.5q-178 0 -288.5 112 t-110.5 311z" />
<glyph unicode="&#x442;" horiz-adv-x="1832" d="M90 0l172 823q12 58 12 92q0 96 -143 97h-16l18 86h379l-55 -258h20q166 276 373 276q219 0 219 -227q0 -16 -4 -49h20q166 276 373 276q219 0 219 -227q0 -66 -37 -225l-53 -242q-27 -129 -26 -215q0 -98 71 -98q59 0 131 47l37 -60q-129 -117 -250 -116q-83 0 -135 55 q-51 53 -51 149.5t39 276.5l35 160q43 197 43 243q0 121 -95 121q-106 0 -217 -135q-113 -139 -157 -281l-33 -147q-20 -88 -37 -219q-23 -170 -22 -203h-195q0 33 27 213q25 164 43 248l47 213q31 123 30 190q0 121 -94 121q-117 0 -235 -156q-121 -160 -152 -305 l-110 -524h-191z" />
<glyph unicode="&#x443;" horiz-adv-x="1079" d="M-332 -455l31 103q74 -23 160 -23q293 0 575 373l-270 905q-18 59 -49 84t-92 25h-21l16 86h299l160 -553q74 -258 86 -371h6q276 420 277 680q0 111 -101 111q0 72 39 110q41 41 95 41q139 0 139 -172q0 -246 -277 -694q-274 -444 -442 -594q-166 -147 -438 -148 q-107 0 -193 37z" />
<glyph unicode="&#x444;" horiz-adv-x="1611" d="M88 387q0 279 156 504q157 227 411 227q94 0 174 -43l27 119q51 223 149.5 303t235.5 80q127 0 189 -35q63 -37 63 -92q0 -117 -158 -117q0 150 -104 150q-137 0 -193 -260l-39 -183q100 78 240 78q131 0 207 -106q78 -109 78 -301q0 -279 -156 -504q-157 -227 -412 -227 q-94 0 -174 43l-20 -95q-39 -190 -146 -305q-104 -115 -260 -115q-238 0 -237 152q0 111 151 111q0 -168 111 -168q137 0 192 260l41 194q-100 -78 -239 -77q-129 0 -209 106q-78 104 -78 301zM297 365q0 -272 162 -273q86 0 180 84l164 776q-12 33 -53 53.5t-84 20.5 q-160 0 -265 -217q-104 -215 -104 -444zM809 145q12 -33 53 -53t84 -20q160 0 264 217q104 219 105 444q0 272 -160 273q-86 0 -180 -84z" />
<glyph unicode="&#x445;" horiz-adv-x="1116" d="M-41 0l23 86h26q55 0 98 25q35 20 115 116l262 318l-133 319q-37 90 -65 121q-25 27 -82 27h-27l17 86h272l156 -414l272 414h262l-33 -86h-26q-59 0 -100.5 -29t-112.5 -119l-215 -276l141 -355q37 -94 61.5 -120.5t85.5 -26.5h27l-16 -86h-275l-166 451l-307 -451h-260 z" />
<glyph unicode="&#x446;" horiz-adv-x="1226" d="M117 1012l18 86h381l-135 -613q-41 -193 -41 -247q0 -125 100 -125q102 0 226 151q123 150 159 324l107 510h198l-141 -658q-29 -137 -28 -227q0 -104 67 -104q59 0 131 45l37 -60q-46 -289 -111 -424q-66 -137 -227 -137q-96 0 -176 31l23 80q29 -10 81 -11 q86 0 174.5 102.5t118.5 274.5q-86 -31 -143 -30q-76 0 -125 53q-49 52 -49 141q0 45 10 121h-16q-109 -180 -199 -248q-88 -66 -197 -65q-219 0 -219 227q0 66 37 225l80 359q18 80 18 122q0 96 -143 97h-16z" />
<glyph unicode="&#x447;" horiz-adv-x="1245" d="M78 1012l18 86h379l-80 -371q-18 -84 -18 -113q0 -102 121 -102q156 0 344 94l104 492h201l-148 -684q-27 -129 -26 -207q0 -98 74 -98q53 0 124 45l37 -60q-133 -115 -260 -114q-82 0 -131 55t-49 139q0 70 23 182l30 152q-166 -92 -237 -111q-78 -20 -148 -20 q-109 0 -180 65q-70 63 -70 174q0 39 11 82l28 125q12 58 13 92q0 96 -144 97h-16z" />
<glyph unicode="&#x448;" horiz-adv-x="1830" d="M117 1012l18 86h379l-131 -613q-43 -200 -43 -252q0 -121 94 -120q102 0 217 135q111 133 158 280l117 570h192l-129 -602q-41 -195 -41 -263q0 -121 94 -120q115 0 234 155q121 158 154 305l110 525h191l-142 -658q-31 -138 -30 -227q0 -104 67 -104q59 0 131 45l37 -60 q-131 -115 -260 -114q-76 0 -125 53q-49 52 -49 141q0 39 6 84h-23q-164 -276 -372 -276q-219 0 -219 227q0 16 4 49h-21q-162 -276 -373 -276q-219 0 -219 227q0 47 27 170l94 444q12 55 12 92q0 96 -143 97h-16z" />
<glyph unicode="&#x449;" horiz-adv-x="1843" d="M117 1012l18 86h379l-131 -613q-43 -200 -43 -252q0 -121 94 -120q102 0 217 135q111 133 158 280l117 570h192l-129 -602q-41 -195 -41 -263q0 -121 94 -120q115 0 234 155q121 158 154 305l110 525h191l-142 -658q-31 -138 -30 -227q0 -104 67 -104q59 0 131 45l37 -60 q-53 -309 -117 -434q-66 -127 -223 -127q-96 0 -176 31l22 80q31 -10 82 -11q84 0 174 105q90 106 121 272q-86 -31 -143 -30q-76 0 -125 53q-49 52 -49 141q0 39 6 84h-23q-164 -276 -372 -276q-219 0 -219 227q0 16 4 49h-21q-162 -276 -373 -276q-219 0 -219 227 q0 47 27 170l94 444q12 55 12 92q0 96 -143 97h-16z" />
<glyph unicode="&#x44a;" horiz-adv-x="1241" d="M78 770l84 328h581l64 -66q-137 -178 -236 -409l56 4q70 6 133 6q395 0 395 -289q0 -168 -118.5 -266t-323.5 -98q-399 0 -400 333q0 344 361 699q-147 -8 -262 -8q-82 0 -127 -35q-43 -35 -80 -131l-27 -68h-100zM506 301q0 -221 215 -221q102 0 168 74q63 72 63 182 q0 190 -223 190q-90 0 -188 -8q-35 -104 -35 -217z" />
<glyph unicode="&#x44b;" horiz-adv-x="1568" d="M94 1012l19 86h379l-101 -475q127 10 187 10q354 0 354 -289q0 -168 -107 -266q-108 -98 -288 -98q-389 0 -390 292q0 96 25 207l70 344q12 58 12 92q0 96 -143 97h-17zM344 301q0 -221 184 -221q94 0 147.5 71.5t53.5 184.5q0 190 -192 190q-84 0 -168 -8 q-25 -125 -25 -217zM1067 1012l18 86h367l-139 -658q-31 -147 -31 -227q0 -104 68 -104q57 0 147 53l37 -60q-141 -123 -277 -122q-78 0 -124 55q-45 53 -46 139q0 96 46 322l79 376q6 33 7 54q0 86 -125 86h-27z" />
<glyph unicode="&#x44c;" horiz-adv-x="1079" d="M94 1012l19 86h379l-101 -475q139 10 207 10q395 0 395 -289q0 -168 -119 -266q-121 -98 -323 -98q-403 0 -404 292q0 96 25 207l70 344q12 58 12 92q0 96 -143 97h-17zM344 301q0 -221 215 -221q104 0 168 74q63 72 64 182q0 190 -224 190q-96 0 -196 -8 q-27 -127 -27 -217z" />
<glyph unicode="&#x44d;" horiz-adv-x="978" d="M2 199q0 55 45 96q41 39 129 39q0 -127 45 -191q47 -66 121 -65q102 0 188 117q86 115 125 305h-473l25 110h467q4 53 4 78q0 301 -217 301q-187 0 -283 -178q-27 31 -26 80q0 92 92 159.5t254 67.5q190 0 293 -110q100 -109 100 -314q0 -264 -160 -489t-399 -225 q-158 0 -246 59q-84 58 -84 160z" />
<glyph unicode="&#x44e;" horiz-adv-x="1712" d="M90 0l172 823q12 58 12 92q0 96 -143 97h-16l18 86h379l-104 -488h286q61 236 209 371q150 137 350 137q172 0 273 -110q100 -109 100 -314q0 -272 -159.5 -493t-422.5 -221q-175 0 -276 110q-100 109 -100 313q0 74 8 113h-287l-108 -516h-191zM881 362q0 -283 188 -282 q160 0 252 201q92 199 92 444q0 285 -186 285q-154 0 -250 -201q-96 -203 -96 -447z" />
<glyph unicode="&#x44f;" horiz-adv-x="1206" d="M4 123q0 59 33 94q33 37 82 37q0 -39 22.5 -67.5t57.5 -28.5q41 0 77 39q35 39 101 186q47 102 104 127q-131 29 -200 104q-72 78 -72 179q0 313 467 313q182 0 407 -51l-137 -641q-27 -133 -26 -207q0 -98 73 -98q53 0 125 45l37 -60q-131 -115 -260 -114q-82 0 -131 55 t-49 139q0 76 22 182l29 138h-117q-74 0 -117 -50q-39 -43 -90 -170q-63 -156 -133 -223q-70 -66 -176 -65q-59 0 -94 41t-35 96zM399 782q0 -88 64 -143q68 -57 153 -57h170l84 399q-98 31 -192 31q-279 -1 -279 -230z" />
<glyph unicode="&#x451;" horiz-adv-x="1009" d="M88 403q0 267 172 492q172 223 438 223q129 0 201 -61.5t72 -173.5q0 -166 -172 -289t-422 -123h-35q-25 0 -37 2q-4 -37 -4 -86q0 -279 225 -278q175 0 295 147q20 -12 21 -51q0 -82 -96.5 -153.5t-258.5 -71.5q-178 0 -288.5 112t-110.5 311zM324 567h20q184 0 299 88 q117 90 117 227.5t-119 137.5q-98 0 -184 -125q-88 -129 -133 -328zM408 1397q0 129 110 129q102 0 103 -103q0 -129 -111 -129q-102 1 -102 103zM797 1397q0 129 110 129q102 0 103 -103q0 -129 -111 -129q-102 1 -102 103z" />
<glyph unicode="&#x452;" horiz-adv-x="1142" d="M90 0l254 1214h-184l20 97h185q10 51 10 63q0 96 -144 96h-16l18 86h377l-53 -245h352l-20 -97h-352l-7 -34q-45 -223 -90 -379h23q166 276 379 276q219 0 219 -227q0 -58 -25 -172q-8 -41 -12 -57l-135 -637q-53 -246 -155.5 -361t-291.5 -115q-63 0 -118 17l18 94 q49 -14 94 -14q104 0 162 92q59 92 98 287l127 598q41 199 41 243q0 121 -94 121q-117 0 -235 -155q-121 -160 -152 -306l-102 -485h-191z" />
<glyph unicode="&#x453;" horiz-adv-x="1019" d="M74 254q0 88 43 149q41 59 112 103q57 35 252 108q150 57 195 107q47 53 47 125q0 141 -164 141q-188 0 -283 -125q-16 12 -16 51q0 203 330 203q158 0 252 -65.5t94 -171.5q0 -190 -250 -281q-260 -96 -328 -152q-72 -59 -71 -174q0 -166 200 -166q193 0 306 148 q23 -23 22 -66q0 -98 -92 -153t-272.5 -55t-278.5 73.5t-98 200.5zM598 1241l6 27q121 139 219 301h219l-6 -21q-157 -184 -356 -307h-82z" />
<glyph unicode="&#x454;" horiz-adv-x="1007" d="M88 403q0 267 172 492q172 223 438 223q139 0 219 -55t80 -141q0 -61 -49 -103q-51 -41 -133 -41q0 109 -43 176q-41 66 -115 66q-100 0 -186 -110.5t-137 -299.5h469l-23 -110h-471q-8 -43 -8 -113q0 -279 225 -278q178 0 295 147q20 -12 21 -51q0 -82 -96.5 -153.5 t-258.5 -71.5q-178 0 -288.5 112t-110.5 311z" />
<glyph unicode="&#x455;" horiz-adv-x="948" d="M51 211q0 68 37 100q39 35 92 35q0 -126 62 -196q61 -72 172 -72q221 0 221 190q0 72 -47 123t-160 103q-147 70 -197 145q-51 78 -51 172q0 135 109 219q111 86 286 86q150 0 236 -55q84 -53 84 -139q0 -127 -154 -127q0 104 -49 165.5t-135 61.5q-94 0 -145 -49 q-53 -49 -54 -127q0 -68 51.5 -117t157.5 -94q246 -111 246 -318q0 -152 -117 -243q-119 -94 -307 -94q-152 0 -246 63q-92 62 -92 168z" />
<glyph unicode="&#x456;" horiz-adv-x="622" d="M127 1012l18 86h367l-139 -658q-31 -147 -31 -227q0 -104 68 -104q57 0 147 53l37 -60q-141 -123 -277 -122q-77 0 -122 55q-47 57 -48 139q0 96 46 322l79 376q6 33 7 54q0 86 -125 86h-27zM344 1415q0 66 33 105t90 39q115 0 115 -113q0 -68 -35 -107q-35 -37 -88 -36 q-115 -1 -115 112z" />
<glyph unicode="&#x457;" horiz-adv-x="622" d="M127 1012l18 86h367l-139 -658q-31 -147 -31 -227q0 -104 68 -104q57 0 147 53l37 -60q-141 -123 -277 -122q-77 0 -122 55q-47 57 -48 139q0 96 46 322l79 376q6 33 7 54q0 86 -125 86h-27zM107 1397q0 129 110 129q102 0 103 -103q0 -129 -111 -129q-102 1 -102 103z M496 1397q0 129 110 129q102 0 103 -103q0 -129 -111 -129q-102 1 -102 103z" />
<glyph unicode="&#x458;" horiz-adv-x="595" d="M-287 -475l19 94q49 -14 94 -14q104 0 162 92q59 92 98 287l188 888q6 33 7 54q0 86 -125 86h-27l18 86h367l-235 -1114q-53 -246 -156 -361t-291 -115q-64 1 -119 17zM346 1415q0 66 33 105t90 39q115 0 115 -113q0 -68 -35 -107q-33 -37 -88 -36q-115 -1 -115 112z" />
<glyph unicode="&#x459;" horiz-adv-x="1718" d="M4 123q0 59 33 94q33 37 82 37q0 -41 20 -68q23 -29 56 -28q68 0 120 96q53 98 197 487q90 252 166 312q72 57 203 57q133 0 305 -31l-94 -456q127 10 186 10q354 0 354 -289q0 -168 -106 -266q-108 -98 -289 -98q-385 0 -385 358q0 45 16 131l74 354q31 147 31 174 q-41 20 -96 21q-109 0 -158 -74t-170 -414q-104 -295 -192.5 -419.5t-225.5 -124.5q-59 0 -94 41q-33 39 -33 96zM1044 283q0 -203 185 -203q94 0 147.5 71.5t53.5 184.5q0 190 -193 190q-80 0 -168 -8q-25 -135 -25 -235z" />
<glyph unicode="&#x45a;" horiz-adv-x="1622" d="M90 0l172 823q12 58 12 92q0 96 -143 97h-16l18 86h379l-104 -488h393l100 488h193l-99 -475q127 10 187 10q354 0 354 -289q0 -168 -106 -266q-108 -98 -289 -98q-383 0 -383 358q0 53 14 131l8 47h-391l-108 -516h-191zM948 283q0 -203 185 -203q94 0 147 71.5 t53 184.5q0 190 -192 190q-80 0 -168 -8q-25 -135 -25 -235z" />
<glyph unicode="&#x45b;" horiz-adv-x="1226" d="M90 0l254 1214h-184l18 97h187q10 51 10 63q0 96 -144 96h-16l18 86h377l-53 -245h350l-18 -97h-352l-7 -34q-57 -270 -90 -381h23q166 276 379 276q219 0 219 -227q0 -57 -25 -170l-12 -55l-45 -201q-27 -115 -27 -215q0 -98 72 -98q59 0 131 47l37 -60 q-135 -117 -250 -116q-86 0 -135 55q-51 57 -51 149q0 96 39 277l39 172q31 123 30 190q0 121 -94 121q-117 0 -235 -156q-121 -160 -152 -305l-102 -483h-191z" />
<glyph unicode="&#x45c;" horiz-adv-x="1236" d="M88 0l170 793q18 84 18 122q0 96 -143 97h-16l18 86h381l-106 -496q84 0 141 51.5t197 223.5q127 147 186 188q68 45 153 45q152 0 152 -123q0 -113 -111 -131q0 115 -90 115q-55 0 -114 -47q-61 -47 -172 -187q-94 -113 -146 -141q66 -4 121 -53q59 -53 90 -127l72 -166 q72 -164 209 -164h6l-19 -86h-71q-145 0 -209 41q-59 39 -107 152l-67 172q-39 96 -84 118q-49 25 -158 25l-104 -508h-197zM647 1241l6 27q121 139 219 301h219l-6 -21q-157 -184 -356 -307h-82z" />
<glyph unicode="&#x45e;" horiz-adv-x="1079" d="M-332 -455l31 103q74 -23 160 -23q293 0 575 373l-270 905q-18 59 -49 84t-92 25h-21l16 86h299l160 -553q74 -258 86 -371h6q276 420 277 680q0 111 -101 111q0 72 39 110q41 41 95 41q139 0 139 -172q0 -246 -277 -694q-274 -444 -442 -594q-166 -147 -438 -148 q-107 0 -193 37zM284 1432q0 43 11 69l182 47q-14 -41 -14 -90q0 -109 127 -108q231 0 391 252l76 -48q-194 -313 -498 -313q-275 1 -275 191z" />
<glyph unicode="&#x45f;" horiz-adv-x="1226" d="M117 1012l18 86h381l-135 -613q-41 -193 -41 -247q0 -125 100 -125q102 0 226 151q123 150 159 324l107 510h198l-141 -658q-31 -144 -31 -227q0 -104 68 -104q59 0 131 45l37 -60q-131 -115 -260 -114q-78 0 -125 55q-47 57 -47 139q0 45 10 121h-16 q-109 -180 -199 -248q-88 -66 -197 -65q-219 0 -219 227q0 66 37 225l80 359q18 80 18 122q0 96 -143 97h-16zM174 -436l23 80q29 -10 82 -11q86 0 174 88q86 86 116 234l111 78q-47 -266 -111 -383q-66 -117 -219 -117q-96 0 -176 31z" />
<glyph unicode="&#x490;" horiz-adv-x="1112" d="M-41 0l18 86h25q168 0 199 147l211 996q10 51 10 65q0 82 -148 82h-26l18 86h666q88 0 145 31q53 29 99 154l24 71h107l-90 -358h-570l-241 -1135q-8 -39 -9 -57q0 -82 148 -82h67l-18 -86h-635z" />
<glyph unicode="&#x491;" horiz-adv-x="909" d="M90 0l172 823q12 58 12 92q0 96 -143 97h-16l18 86h518q72 0 109 37q41 41 71 129l25 67h100l-69 -327h-395l-211 -1004h-191z" />
<glyph unicode="&#x1e00;" horiz-adv-x="1443" d="M-115 0l17 86h39q53 0 92 28.5t98 131.5l713 1216h160l194 -1267q8 -63 35 -86t86 -23h27l-17 -86h-557l16 86h48q147 0 147 104q0 33 -4 70l-33 229h-538l-123 -215q-39 -66 -39 -114q0 -74 114 -74h48l-17 -86h-506zM469 592h463l-51 358q-29 209 -33 324 q-47 -115 -160 -305zM332 -348q0 53 18 96q16 41 54 70q35 29 77.5 43t96 14t96.5 -14.5t78 -42.5q37 -29 53 -70q18 -43 18 -96t-18 -96q-16 -41 -53 -70q-35 -29 -78 -43t-96.5 -14t-96.5 14t-77 43q-37 29 -54 70q-18 43 -18 96zM442 -348q0 -37 11 -58q10 -18 30 -36 q20 -16 43 -23q25 -6 51.5 -6t51.5 6q23 6 43 23q20 18 31 36q10 20 10 57.5t-10 57.5q-10 18 -31 37q-20 16 -43 23q-25 6 -51.5 6t-51.5 -6q-23 -6 -43 -23q-20 -18 -30 -37q-11 -20 -11 -57z" />
<glyph unicode="&#x1e01;" horiz-adv-x="1185" d="M88 354q0 281 176 522.5t434 241.5q138 0 240 -74l90 52h66l-140 -656q-31 -141 -30 -227q0 -104 67 -104q57 0 148 53l37 -60q-147 -123 -289 -122q-160 0 -160 170q0 70 21 159h-13q-147 -330 -383 -329q-123 0 -194 98q-70 96 -70 276zM297 346.5q0 -237.5 129 -237.5 q102 0 213 151q113 154 149 330l76 362q-45 74 -155 74q-172 0 -293 -223q-119 -219 -119 -456.5zM211 -348q0 53 18 96q16 41 54 70q35 29 77.5 43t96 14t96.5 -14.5t78 -42.5q37 -29 53 -70q18 -43 18 -96t-18 -96q-16 -41 -53 -70q-35 -29 -78 -43t-96.5 -14t-96.5 14 t-77 43q-37 29 -54 70q-18 43 -18 96zM321 -348q0 -37 11 -58q10 -18 30 -36q20 -16 43 -23q25 -6 51.5 -6t51.5 6q23 6 43 23q20 18 31 36q10 20 10 57.5t-10 57.5q-10 18 -31 37q-20 16 -43 23q-25 6 -51.5 6t-51.5 -6q-23 -6 -43 -23q-20 -18 -30 -37q-11 -20 -11 -57z " />
<glyph unicode="&#x1e3e;" horiz-adv-x="1918" d="M-41 0l18 86h27q101 0 141 37q37 35 54 100l215 1014q8 33 8 57q0 82 -148 82h-26l18 86h465l174 -1167l670 1167h457l-19 -86h-26q-98 0 -142 -37q-41 -35 -57 -110l-213 -1004q-8 -33 -8 -57q0 -82 147 -82h27l-19 -86h-544l18 86h6q88 0 121 33q37 37 53 96l234 1094 l-748 -1309h-110l-199 1309l-229 -1084q-8 -39 -9 -57q0 -82 148 -82h26l-18 -86h-512zM1041 1606l6 27q121 139 219 301h219l-6 -21q-157 -184 -356 -307h-82z" />
<glyph unicode="&#x1e3f;" horiz-adv-x="1832" d="M90 0l172 823q12 58 12 92q0 96 -143 97h-16l18 86h379l-55 -258h20q166 276 373 276q219 0 219 -227q0 -16 -4 -49h20q166 276 373 276q219 0 219 -227q0 -66 -37 -225l-53 -242q-27 -129 -26 -215q0 -98 71 -98q59 0 131 47l37 -60q-129 -117 -250 -116q-83 0 -135 55 q-51 53 -51 149.5t39 276.5l35 160q43 197 43 243q0 121 -95 121q-106 0 -217 -135q-113 -139 -157 -281l-33 -147q-20 -88 -37 -219q-23 -170 -22 -203h-195q0 33 27 213q25 164 43 248l47 213q31 123 30 190q0 121 -94 121q-117 0 -235 -156q-121 -160 -152 -305 l-110 -524h-191zM936 1241l6 27q121 139 219 301h219l-6 -21q-157 -184 -356 -307h-82z" />
<glyph unicode="&#x1e80;" horiz-adv-x="2138" d="M182 1376l19 86h557l-19 -86h-47q-147 0 -147 -104q0 -33 4 -70l49 -655q14 -174 14 -346q92 217 168 368l430 879h148l67 -887q11 -142 11 -286v-74q92 215 153 336l326 651q39 76 39 115q0 74 -115 73h-49l16 86h500l-18 -86h-39q-63 0 -103 -33q-37 -31 -86 -126 l-604 -1217h-188l-92 1135l-551 -1135h-187l-106 1268q-6 53 -31 82q-25 27 -92 26h-27zM1014 1886l6 21h205q66 -162 137 -301l-6 -27h-78q-153 150 -264 307z" />
<glyph unicode="&#x1e81;" horiz-adv-x="1675" d="M76 1012l28 86h308q6 -433 6 -934h8q262 463 457 915l170 8q43 -539 43 -937h14q176 217 276 405q109 201 109 319q0 96 -88 123q18 121 121 121q109 0 108 -153q0 -295 -514 -963l-202 -22l-31 886q-84 -203 -432 -860l-211 -24l-15 882q0 72 -28 111q-27 37 -107 37 h-20zM739 1548l6 21h205q66 -162 137 -301l-6 -27h-78q-153 150 -264 307z" />
<glyph unicode="&#x1e82;" horiz-adv-x="2138" d="M182 1376l19 86h557l-19 -86h-47q-147 0 -147 -104q0 -33 4 -70l49 -655q14 -174 14 -346q92 217 168 368l430 879h148l67 -887q11 -142 11 -286v-74q92 215 153 336l326 651q39 76 39 115q0 74 -115 73h-49l16 86h500l-18 -86h-39q-63 0 -103 -33q-37 -31 -86 -126 l-604 -1217h-188l-92 1135l-551 -1135h-187l-106 1268q-6 53 -31 82q-25 27 -92 26h-27zM1188 1579l6 27q121 139 219 301h219l-6 -21q-157 -184 -356 -307h-82z" />
<glyph unicode="&#x1e83;" horiz-adv-x="1675" d="M76 1012l28 86h308q6 -433 6 -934h8q262 463 457 915l170 8q43 -539 43 -937h14q176 217 276 405q109 201 109 319q0 96 -88 123q18 121 121 121q109 0 108 -153q0 -295 -514 -963l-202 -22l-31 886q-84 -203 -432 -860l-211 -24l-15 882q0 72 -28 111q-27 37 -107 37 h-20zM932 1241l6 27q121 139 219 301h219l-6 -21q-157 -184 -356 -307h-82z" />
<glyph unicode="&#x1e84;" horiz-adv-x="2138" d="M182 1376l19 86h557l-19 -86h-47q-147 0 -147 -104q0 -33 4 -70l49 -655q14 -174 14 -346q92 217 168 368l430 879h148l67 -887q11 -142 11 -286v-74q92 215 153 336l326 651q39 76 39 115q0 74 -115 73h-49l16 86h500l-18 -86h-39q-63 0 -103 -33q-37 -31 -86 -126 l-604 -1217h-188l-92 1135l-551 -1135h-187l-106 1268q-6 53 -31 82q-25 27 -92 26h-27zM1008 1735q0 129 110 129q102 0 103 -103q0 -129 -111 -129q-102 1 -102 103zM1397 1735q0 129 110 129q102 0 103 -103q0 -129 -111 -129q-102 1 -102 103z" />
<glyph unicode="&#x1e85;" horiz-adv-x="1675" d="M76 1012l28 86h308q6 -433 6 -934h8q262 463 457 915l170 8q43 -539 43 -937h14q176 217 276 405q109 201 109 319q0 96 -88 123q18 121 121 121q109 0 108 -153q0 -295 -514 -963l-202 -22l-31 886q-84 -203 -432 -860l-211 -24l-15 882q0 72 -28 111q-27 37 -107 37 h-20zM729 1397q0 129 110 129q102 0 103 -103q0 -129 -111 -129q-102 1 -102 103zM1118 1397q0 129 110 129q102 0 103 -103q0 -129 -111 -129q-102 1 -102 103z" />
<glyph unicode="&#x1ef2;" horiz-adv-x="1280" d="M158 1376l18 86h553l-18 -86h-103q-84 0 -84 -55q0 -41 27 -119l92 -274q49 -147 55 -246q31 55 154 215l195 260q76 104 75 166q0 53 -98 53h-76l19 86h506l-19 -86h-39q-35 0 -78 -33q-35 -27 -108 -122l-477 -625l-80 -371q-8 -33 -8 -57q0 -82 147 -82h47l-18 -86 h-637l18 86h47q106 0 143.5 35t53.5 102l80 377l-238 668q-20 61 -45 86q-23 23 -78 22h-26zM590 1886l6 21h205q66 -162 137 -301l-6 -27h-78q-153 150 -264 307z" />
<glyph unicode="&#x1ef3;" horiz-adv-x="1079" d="M-332 -455l31 103q74 -23 160 -23q293 0 575 373l-270 905q-18 59 -49 84t-92 25h-21l16 86h299l160 -553q74 -258 86 -371h6q276 420 277 680q0 111 -101 111q0 72 39 110q41 41 95 41q139 0 139 -172q0 -246 -277 -694q-274 -444 -442 -594q-166 -147 -438 -148 q-107 0 -193 37zM340 1548l6 21h205q66 -162 137 -301l-6 -27h-78q-153 150 -264 307z" />
<glyph unicode="&#x1f4d;" horiz-adv-x="1519" d="M106 545q0 354 229.5 647t590.5 293q238 0 385 -148q145 -145 145 -415q0 -348 -227 -648q-227 -297 -586 -297q-242 0 -389.5 154t-147.5 414zM330 487q0 -190 88 -294q86 -102 237 -103q256 0 416 282.5t160 604.5q0 193 -84 295t-238 102q-254 0 -417 -284 q-162 -281 -162 -603zM-316 1257q0 96 72 148q76 53 209 65l-10 -55q-63 -12 -98.5 -32.5t-35.5 -61.5q0 -16 13 -29q16 -16 26 -24q18 -16 27 -25q12 -15 12 -37q0 -39 -26 -59q-25 -18 -64 -19q-59 0 -92 35t-33 94zM-9 1135l5 26q6 8 38 66q10 16 39 80l37 82q8 18 29 73 h184l-4 -20q-18 -35 -41 -66l-67 -84l-80 -86q-41 -43 -72 -71h-68z" />
<glyph unicode="&#x2000;" horiz-adv-x="1024" />
<glyph unicode="&#x2001;" horiz-adv-x="2048" />
<glyph unicode="&#x2002;" horiz-adv-x="1024" />
<glyph unicode="&#x2003;" horiz-adv-x="2048" />
<glyph unicode="&#x2004;" horiz-adv-x="681" />
<glyph unicode="&#x2005;" horiz-adv-x="512" />
<glyph unicode="&#x2006;" horiz-adv-x="339" />
<glyph unicode="&#x2007;" />
<glyph unicode="&#x2008;" horiz-adv-x="548" />
<glyph unicode="&#x2009;" horiz-adv-x="409" />
<glyph unicode="&#x200a;" horiz-adv-x="204" />
<glyph unicode="&#x200b;" horiz-adv-x="0" />
<glyph unicode="&#x2010;" horiz-adv-x="634" d="M29 481l32 154h533l-33 -154h-532z" />
<glyph unicode="&#x2011;" horiz-adv-x="634" d="M29 481l32 154h533l-33 -154h-532z" />
<glyph unicode="&#x2012;" horiz-adv-x="634" d="M29 481l32 154h533l-33 -154h-532z" />
<glyph unicode="&#x2013;" horiz-adv-x="1024" d="M-6 489l24 121h1045l-27 -121h-1042z" />
<glyph unicode="&#x2014;" horiz-adv-x="2048" d="M-6 489l24 121h2069l-27 -121h-2066z" />
<glyph unicode="&#x2015;" horiz-adv-x="2048" d="M-6 489l24 121h2069l-27 -121h-2066z" />
<glyph unicode="&#x2017;" horiz-adv-x="841" d="M-197 -412l25 121h860l-24 -121h-861zM-147 -170l24 121h862l-24 -121h-862z" />
<glyph unicode="&#x2018;" horiz-adv-x="512" d="M215 1069q0 150 94 252q95 104 277 141l-8 -86q-209 -46 -209 -172q0 -35 67 -78q66 -43 66 -104q0 -53 -35 -88q-33 -33 -92 -33q-66 0 -113 47t-47 121z" />
<glyph unicode="&#x2019;" horiz-adv-x="512" d="M168 901l8 86q209 46 209 172q0 35 -66 78q-68 43 -67 104q0 53 35 89q33 33 92 32q68 0 115 -47q45 -45 45 -121q0 -147 -97 -254q-92 -102 -274 -139z" />
<glyph unicode="&#x201a;" horiz-adv-x="512" d="M-57 -299l8 86q209 46 209 172q0 35 -66 78q-68 43 -67 104q0 53 34 88q33 33 93 33q70 0 114.5 -45t44.5 -123q0 -147 -96 -254q-94 -102 -274 -139z" />
<glyph unicode="&#x201b;" horiz-adv-x="512" d="M260 1198q0 121 59.5 192.5t149.5 71.5q104 0 104 -96q0 -94 -96 -137q-94 -43 -94 -105q0 -100 160 -155l-17 -86q-266 82 -266 315z" />
</font>
</defs>
</svg>
