<?xml version="1.0" standalone="no"?>
<!DOCTYPE svg PUBLIC "-//W3C//DTD SVG 1.1//EN" "http://www.w3.org/Graphics/SVG/1.1/DTD/svg11.dtd" >
<svg xmlns="http://www.w3.org/2000/svg">
<metadata>
This is a custom SVG webfont generated by Font Squirrel.
Copyright   : Digitized data copyright  2006 Google Corporation
Foundry     : Ascender Corporation
Foundry URL : httpwwwascendercorpcom
</metadata>
<defs>
<font id="webfontayxrcmwc" horiz-adv-x="1144" >
<font-face units-per-em="2048" ascent="1638" descent="-410" />
<missing-glyph horiz-adv-x="530" />
<glyph unicode=" "  horiz-adv-x="530" />
<glyph unicode="&#x09;" horiz-adv-x="530" />
<glyph unicode="&#xa0;" horiz-adv-x="530" />
<glyph unicode="!" horiz-adv-x="780" d="M213 1462h356l-120 -995h-115zM225 147.5q0 47.5 12.5 78t36.5 50.5q18 16 54 27q27 8 65 8q37 0 64 -8q37 -10 55 -27q23 -18 35 -51q14 -37 14 -78t-14 -77q-12 -29 -35 -50q-23 -18 -55 -28q-27 -8 -64 -8q-39 0 -65 8q-31 8 -54 28q-27 23 -36 50q-13 30 -13 77.5z " />
<glyph unicode="&#x22;" horiz-adv-x="1038" d="M137 1462h320l-92 -563h-136zM584 1462h319l-72 -563h-135z" />
<glyph unicode="#" d="M57 410v141h232l71 371h-237v143h264l72 397h147l-74 -397h213l76 397h146l-76 -397h196v-143h-223l-69 -371h227v-141h-256l-76 -410h-145l76 410h-213l-78 -410h-146l78 410h-205zM434 551h215l72 371h-215z" />
<glyph unicode="$" d="M100 375q0 43 16.5 75.5t43.5 51.5q31 20 61.5 28.5t71.5 8.5q0 -72 16 -138q14 -55 47 -102q31 -43 74 -68q45 -27 94 -34v442l-35 14q-100 41 -163 80q-66 41 -107 88q-39 45 -57 101q-16 49 -17 120q0 76 27 136q25 55 80 106q47 45 119 76q68 29 153 39v157h115v-155 q98 -4 158 -21q76 -20 108 -43q43 -27 64 -63q20 -35 20 -78q0 -63 -55 -106t-170 -43q0 31 -6 65q-6 31 -23 68q-14 33 -39 59q-23 25 -57 41v-399q4 -2 23 -9q12 -4 28 -12q98 -37 162 -76q63 -37 109 -86q43 -46 61 -98q20 -57 20 -119q0 -76 -28 -145q-27 -66 -78 -117 q-47 -47 -127 -84q-63 -29 -170 -43v-254h-115v250q-119 4 -198 31q-84 29 -131 67q-49 41 -72 90q-23 52 -23 99zM385 1128q0 -29 6 -53q4 -18 23 -47q16 -27 43 -47q37 -29 67 -45v354q-61 -12 -100 -51t-39 -111zM639 201q78 18 119 67t41 121q0 66 -39 111 q-37 43 -121 88v-387z" />
<glyph unicode="%" horiz-adv-x="1853" d="M70 1030q0 106 20 187q23 86 68 143q49 61 114 90q76 33 168 33q88 0 160 -33t117 -90t67.5 -143.5t22.5 -186.5t-23 -186q-20 -80 -69 -146q-43 -57 -115 -92q-68 -33 -162 -33q-100 0 -168 33q-76 37 -114 92q-45 63 -66 146q-20 80 -20 186zM301 1030q0 -63 8 -149 q6 -59 23 -111q14 -45 43 -70q27 -25 63 -24q39 0 64 24q31 29 43 70q16 51 22 111q6 66 6 149q0 80 -6 146q-6 59 -22 110q-12 41 -41 68q-25 25 -64 24.5t-65 -24.5q-29 -27 -43 -68q-16 -51 -23 -110q-8 -87 -8 -146zM492 0l706 1462h158l-705 -1462h-159zM1049 436 q0 106 20 187q23 86 68 143q49 61 114 90q76 33 168 33q88 0 160 -33t117 -90t67.5 -143t22.5 -186.5t-23 -186.5q-20 -80 -69 -146q-43 -57 -115 -92q-68 -33 -162 -32q-100 0 -168 32q-76 37 -114 92q-45 63 -66 146q-20 80 -20 186zM1280 436q0 -63 8 -149q6 -59 23 -111 q14 -45 43 -70q27 -25 63 -24q39 0 64 24q31 29 43 70q16 51 22 111q6 66 6 149q0 80 -6 146q-6 59 -22 110q-12 41 -41 68q-25 25 -64 24.5t-65 -24.5q-29 -27 -43 -68q-16 -51 -23 -110q-8 -87 -8 -146z" />
<glyph unicode="&#x26;" horiz-adv-x="1638" d="M96 416q0 86 29 153q29 66 76 111q45 43 112 78q70 37 133 61q-31 39 -69 92q-31 43 -49 86q-20 49 -29 88q-8 41 -8 97q0 63 26 123q25 55 78.5 96t127 61.5t179.5 20.5q94 0 172 -23q70 -20 123 -63q45 -37 72 -92q25 -51 25 -113q0 -63 -19 -113q-18 -51 -57 -92 q-40 -43 -98 -80q-61 -39 -138 -73q6 -8 15 -15l290 -305q14 78 17 141q4 94 4 127v90h448v-108h-32q-20 0 -66 -4q-34 -3 -61 -19q-31 -16 -49 -41q-23 -29 -35 -75q-12 -49 -37 -121q-20 -63 -53 -131l204 -213q29 -33 70 -41q47 -10 98 -10h19v-109h-406l-141 150 q-35 -35 -84 -68q-55 -37 -102 -55q-57 -23 -123 -35q-65 -12 -142 -12q-125 0 -223 30q-104 33 -164 84q-66 57 -100 137q-33 79 -33 185zM397 406q0 -61 19 -113q16 -45 55 -92q33 -37 86 -62q51 -23 111 -22q115 0 184 35q80 41 125 96l-438 467q-39 -27 -70 -66 q-28 -34 -43 -74q-18 -45 -23 -79q-6 -43 -6 -90zM569 1188q0 -41 9 -68q14 -47 22 -63q20 -39 39 -64q8 -12 28.5 -34.5t28.5 -32.5q47 27 72 51q23 23 45 59q18 31 25 70q8 49 8 84q0 37 -6 67.5t-23 53.5q-18 25 -45 37t-70 12q-35 0 -59 -12q-27 -12 -43 -37 q-12 -16 -22 -54q-9 -26 -9 -69z" />
<glyph unicode="'" horiz-adv-x="593" d="M137 1462h320l-92 -563h-136z" />
<glyph unicode="(" horiz-adv-x="817" d="M117 651q0 172 35 305q37 141 112 256q74 113 199 209q121 92 291 160v-129q-92 -61 -156 -152q-55 -78 -92 -190q-35 -109 -47 -221q-12 -117 -13 -238q0 -123 13 -239q12 -113 47 -222q37 -111 92 -192q59 -86 156 -152v-131q-164 66 -291 162q-125 96 -199 209 q-76 115 -112 258q-35 133 -35 307z" />
<glyph unicode=")" horiz-adv-x="817" d="M66 -154q96 66 155 152q59 88 94 192q33 100 45 222q12 117 13 239q0 121 -13 238q-12 121 -45 221q-35 106 -94 190q-63 90 -155 152v129q174 -68 292 -160q120 -92 197 -209q80 -123 113 -256q35 -145 34 -305q0 -162 -34 -307q-33 -137 -113 -258q-77 -117 -197 -209 q-125 -96 -292 -162v131z" />
<glyph unicode="*" horiz-adv-x="1026" d="M72 1071l319 84l-319 82l92 207l305 -221l-68 333h230l-74 -329l307 213l92 -205l-319 -80l319 -82l-92 -203l-307 213l72 -331h-228l66 333l-303 -217z" />
<glyph unicode="+" d="M133 659v146h365v366h147v-366h367v-146h-367v-366h-147v366h-365z" />
<glyph unicode="," horiz-adv-x="600" d="M92 -209q23 8 78 33q41 18 57 33q18 16 33 41q12 20 12 53q0 18 -12 31q-16 16 -27 24q-6 4 -19 11.5t-17 11.5q-25 16 -35 28q-18 23 -28.5 45.5t-10.5 67.5q0 68 43 104.5t104 36.5q86 0 137.5 -59t51.5 -166q0 -68 -21 -127q-23 -61 -63 -113q-39 -47 -113 -92 q-70 -43 -170 -69v106z" />
<glyph unicode="-" horiz-adv-x="634" d="M51 451v215h533v-215h-533z" />
<glyph unicode="." horiz-adv-x="622" d="M143 147.5q0 47.5 12.5 78t37.5 50.5q18 16 53 27q27 8 65 8q37 0 64 -8q35 -10 53 -27q25 -20 37 -51q14 -37 14 -78t-14 -77q-10 -27 -37 -50q-23 -20 -53 -28q-27 -8 -64 -8q-39 0 -65 8q-31 8 -53 28q-27 23 -37 50q-13 30 -13 77.5z" />
<glyph unicode="/" horiz-adv-x="589" d="M0 -248l446 1804h144l-443 -1806z" />
<glyph unicode="0" d="M70 735q0 158 26 307q23 133 86 238q57 94 156 150q96 53 237 53q131 0 228 -53q94 -51 155 -150q59 -96 89 -238q29 -143 28 -309q0 -164 -28 -307q-29 -145 -89 -240q-59 -96 -155 -151q-94 -55 -230 -55q-139 0 -235 55q-100 57 -156 151q-61 104 -86 240 q-26 149 -26 309zM387 733q0 -162 8 -262q10 -127 29 -195q23 -82 55 -120q37 -43 94 -43q55 0 92 43t58 120q20 76 27 195q8 152 8 262.5t-8 261.5q-6 117 -27 193q-23 82 -55 121q-35 41 -93 41q-59 0 -94 -41q-37 -43 -57 -121q-18 -70 -29 -193q-8 -100 -8 -262z" />
<glyph unicode="1" d="M86 1206q6 2 29.5 8.5t36.5 10.5q25 8 71 30q41 18 82 45q72 45 96 64l144 106h229v-1228q0 -25 4 -58q2 -20 17 -41q12 -18 32 -26q18 -8 52 -8h165v-109h-845v109h168q27 0 45 6q20 6 32 22q12 14 19 41q6 25 6 64v1026l-74 -86q-31 -37 -65 -68q-29 -25 -64 -43 q-33 -16 -61 -16q-23 0 -47 10q-22 9 -37.5 30.5t-24.5 49.5q-10 30 -10 61z" />
<glyph unicode="2" d="M72 0v211l303 309q94 96 155.5 174t96.5 150q34 71 49 141q14 66 14 148q0 117 -43 172q-41 53 -117 53q-102 0 -145 -90q-43 -89 -43 -264q-57 0 -106 12q-55 14 -84 35q-37 27 -54 61q-18 39 -18 94.5t28.5 106.5t84.5 88q57 39 141 59q90 23 196 23q125 0 203 -23 q88 -25 146 -67q59 -43 90 -109q31 -63 30 -141q0 -41 -10 -92q-8 -41 -35 -95q-20 -43 -65 -100q-49 -66 -98 -119q-66 -72 -138 -141l-182 -176l-205 -195h477q63 0 107 37q45 39 63 105l17 63h121l-11 -430h-968z" />
<glyph unicode="3" d="M57 225q0 41 15 70q14 31 37 49q25 22 55 31q35 10 67 10q0 -66 18.5 -115t51.5 -82q34 -34 80 -49q49 -16 102 -16q51 0 95 14q53 18 81 47q34 34 56 92q20 55 20 148q0 61 -20 108q-20 45 -62 84q-35 33 -98 56q-55 20 -137 20h-127v127h135q68 0 115 21q53 23 82 61 q33 41 47 96q16 59 16 123q0 109 -43 174q-43 63 -127 64q-57 0 -90 -27q-37 -31 -53 -71q-20 -53 -27 -103q-6 -59 -6 -117q-125 0 -197 45q-70 45 -69 138q0 55 28 102q27 45 86 82q53 33 142 55q82 20 196 21q106 0 197 -23q92 -23 149.5 -63.5t94.5 -106.5 q33 -59 32 -141q0 -68 -24 -127q-27 -61 -66 -104q-47 -49 -98 -80q-68 -39 -125 -58q76 -14 127 -35q65 -25 117 -67q59 -49 88 -105q33 -63 33 -151q0 -121 -47 -209q-45 -84 -123 -137q-76 -51 -176 -74q-102 -23 -207 -22q-119 0 -199 20q-92 25 -137 53q-55 35 -80 80 q-25 43 -25 92z" />
<glyph unicode="4" d="M27 381v125l581 956h285v-946h213v-135h-213v-125q0 -45 14 -78q12 -27 35 -43q18 -14 53 -20q31 -6 66 -6h26v-109h-718v109h57q35 0 66 6q35 6 53 20q23 16 35 43q14 33 14 78v125h-567zM170 516h424v358q0 53 4 193q4 137 10 201l-33 -66l-47 -86l-47 -84 q-20 -37 -35 -59z" />
<glyph unicode="5" d="M82 227q0 72 45 107t119 35q0 -45 12 -88q14 -51 37 -78q31 -39 70 -58q45 -23 106 -22q47 0 96 16q45 14 80 54q35 37 55 100q20 61 21 158q0 156 -74 229.5t-205 73.5q-51 0 -71 -2q-37 -4 -58 -9q-18 -4 -51 -12q-10 -2 -26.5 -7t-20.5 -7l-94 37l65 708h775l10 -372 h-117l-16 69q-2 4 -5.5 15.5t-5.5 17.5q-6 14 -16 25q-6 6 -27 14q-16 6 -41 6h-426q-2 -8 -2 -18q0 -6 -4 -43q-2 -10 -3 -31t-1 -31l-4 -32.5t-2 -34.5l-16 -189q14 6 41 12q16 4 57 9q10 0 30.5 3l33.5 5q23 2 63 2q123 0 215 -27q102 -29 166 -82q72 -59 106 -137 q37 -82 37 -192q0 -135 -49 -224q-51 -92 -125 -145q-72 -51 -172 -78q-96 -25 -188 -24q-119 0 -195 20q-84 23 -131 55q-49 33 -72 80q-22 45 -22 92z" />
<glyph unicode="6" d="M92 676q0 176 35 315q39 154 109 256q76 109 182 172q109 63 258 64q100 0 168 -19q66 -18 112 -51q43 -31 62 -72q20 -45 20 -84q0 -29 -14 -61q-12 -27 -41 -49q-33 -25 -76 -37q-47 -12 -114 -12q0 49 -7 94q-6 51 -20 84q-16 39 -41 61q-28 25 -68 25q-59 0 -108 -37 q-45 -35 -84 -104q-35 -63 -57 -170q-20 -96 -27 -230q20 14 47 27q18 8 64 24q33 12 77 19q43 6 95 6q88 0 167 -29q76 -27 130 -84q59 -63 83 -133q29 -82 29 -178q0 -113 -31 -201q-33 -94 -88 -155.5t-149 -100.5q-88 -37 -205 -36q-119 0 -207 40q-92 43 -159.5 129.5 t-104.5 217.5q-37 133 -37 309zM381 674q0 -145 18.5 -252t49.5 -174q33 -72 69 -101q43 -33 88 -32q78 0 125 80q45 78 45 258q0 164 -51 243q-49 76 -137 76q-33 0 -60 -8q-41 -12 -59 -23q-29 -16 -51 -32q-27 -21 -37 -35z" />
<glyph unicode="7" d="M90 1032l10 430h977v-100l-565 -1362h-174l545 1239h-539q-57 0 -84 -27q-29 -29 -35 -77l-12 -103h-123z" />
<glyph unicode="8" d="M61 373q0 70 21 119q23 53 61 96q39 41 97 80q61 41 122 71q-125 72 -188 160q-66 90 -65 211q0 72 24 139q25 66 80 119q57 53 147 84q92 31 224 31q111 0 190.5 -26.5t134.5 -76.5q57 -51 84 -112.5t27 -143.5q0 -63 -19 -108q-16 -43 -57 -86q-37 -39 -86 -72 q-45 -29 -115 -65q98 -49 156 -91q72 -51 107 -94q41 -51 59 -104q18 -55 18 -117q0 -96 -36 -172q-39 -80 -103 -129q-66 -49 -164 -78q-102 -29 -221 -28q-125 0 -221 30q-92 29 -156 84q-59 51 -92 125q-29 66 -29 154zM338 364.5q0 -55.5 16 -108.5q14 -47 47 -86 q31 -37 74 -55.5t94.5 -18.5t94.5 19q41 18 73 53q29 31 45 82q16 49 17 102q0 55 -17 90q-18 41 -53 76q-31 31 -94 70q-49 29 -135 69q-23 -14 -64 -51q-31 -27 -51 -63q-23 -41 -35 -80q-12 -43 -12 -98.5zM397 1135q0 -55 15 -93q16 -41 43 -71q33 -35 67 -58 q49 -31 96 -51q31 18 64 47q23 20 45 58q16 27 27 71q8 35 8 90q0 43 -12 86q-12 41 -37 76q-23 33 -60 53q-35 20 -82 21q-43 0 -75.5 -18.5t-53.5 -47.5q-25 -35 -34 -71q-11 -35 -11 -92z" />
<glyph unicode="9" d="M72 987q0 104 32 203q31 90 93 156q63 66 147 102q82 35 197 35q113 0 204 -39q94 -39 164 -125t107 -213q37 -129 37 -311q0 -174 -33 -318q-35 -152 -102 -258q-72 -111 -183 -176q-109 -63 -270 -63q-86 0 -158 20q-63 18 -102 51q-41 35 -58 74q-18 43 -18 86 q0 45 25 76q23 29 75 41q18 -55 35 -86q23 -41 51 -70q25 -25 70 -45q41 -18 90 -18q139 0 213 149q76 154 84 444q-29 -35 -53 -55q-37 -31 -68 -45q-41 -20 -80 -29q-47 -10 -98 -10q-90 0 -161.5 26.5t-127.5 82.5q-49 49 -82 133q-30 80 -30 182zM369 999 q0 -141 49 -214.5t143 -73.5q74 0 127 36.5t84 100.5q0 111 -18 225q-14 84 -45 154q-29 63 -68 90q-41 29 -88 29q-86 0 -135 -86.5t-49 -260.5z" />
<glyph unicode=":" horiz-adv-x="622" d="M143 147.5q0 47.5 12.5 78t37.5 50.5q18 16 53 27q27 8 65 8q37 0 64 -8q35 -10 53 -27q25 -20 37 -51q14 -37 14 -78t-14 -77q-10 -27 -37 -50q-23 -20 -53 -28q-27 -8 -64 -8q-39 0 -65 8q-31 8 -53 28q-27 23 -37 50q-13 30 -13 77.5zM143 952q0 47 12.5 78t37.5 51 q18 16 53 27q27 8 65 8q37 0 64 -8q35 -10 53 -27q25 -20 37 -51q14 -35 14 -78t-14 -78q-12 -31 -37 -51q-18 -16 -53 -26q-27 -8 -64 -9q-39 0 -65 9q-35 10 -53 26q-25 20 -37.5 51t-12.5 78z" />
<glyph unicode=";" horiz-adv-x="600" d="M92 -209q23 8 78 33q41 18 57 33q18 16 33 41q12 20 12 53q0 18 -12 31q-16 16 -27 24q-6 4 -19 11.5t-17 11.5q-25 16 -35 28q-18 23 -28.5 45.5t-10.5 67.5q0 68 43 104.5t104 36.5q86 0 137.5 -59t51.5 -166q0 -68 -21 -127q-23 -61 -63 -113q-39 -47 -113 -92 q-70 -43 -170 -69v106zM143 952q0 47 12.5 78t37.5 51q18 16 53 27q27 8 65 8q37 0 64 -8q35 -10 53 -27q25 -20 37 -51q14 -35 14 -78t-14 -78q-12 -31 -37 -51q-18 -16 -53 -26q-27 -8 -64 -9q-39 0 -65 9q-35 10 -53 26q-25 20 -37.5 51t-12.5 78z" />
<glyph unicode="&#x3c;" d="M133 690v84l879 479v-161l-660 -361l660 -356v-162z" />
<glyph unicode="=" d="M129 461v143h887v-143h-887zM129 858v143h887v-143h-887z" />
<glyph unicode="&#x3e;" d="M133 213v162l660 356l-660 361v161l879 -479v-84z" />
<glyph unicode="?" horiz-adv-x="1124" d="M76 1245q0 47 26 94q23 41 80 74q57 35 135 51q84 18 195 19q109 0 201 -25q88 -25 157 -74q72 -51 107 -118q37 -71 37 -160q0 -83 -25 -148q-23 -61 -78 -118q-49 -51 -127 -99q-72 -43 -178 -88l-41 -186h-125l-41 252q82 31 144 82q51 43 88 102q33 53 45 114.5 t12 121.5q0 55 -8 90t-29 69q-16 29 -51 45q-33 16 -72 17q-49 0 -77.5 -20.5t-49.5 -57.5q-18 -35 -28 -82q-8 -41 -8 -98q-68 0 -115 8q-55 10 -92 27q-39 18 -60 45q-22 28 -22 63zM332 147.5q0 47.5 12 78t37 50.5q18 16 53 27q27 8 66 8t65 -8q35 -10 53 -27 q25 -20 37.5 -50.5t12.5 -78t-13 -77.5q-10 -27 -37 -50q-23 -20 -53 -28q-27 -8 -65.5 -8t-65.5 8q-31 8 -53 28q-27 23 -37 50q-12 30 -12 77.5z" />
<glyph unicode="@" horiz-adv-x="1884" d="M104 500q0 139 33 262q33 119 96 231q61 106 150 193q94 90 197 149q104 59 235 95q125 33 270 32q180 0 314 -51q139 -53 225 -139q89 -89 135 -209q47 -123 47 -260q0 -152 -37 -273q-37 -120 -98 -202q-66 -88 -135 -127q-78 -43 -152 -43q-86 0 -153 45 q-65 43 -98 147h-13q-25 -45 -49 -76q-37 -45 -59 -61q-35 -27 -78 -41q-41 -14 -96 -14q-68 0 -123 20q-59 23 -103 66q-45 45 -69 108q-27 70 -27 156q0 53 12 119q8 47 43 127q27 61 72 123q47 63 104.5 106t141.5 72q82 29 178 28q71 0 123 -18q51 -18 82 -43l86 43h49 l-86 -512q-2 -4 -3 -14.5t-1 -16.5q-2 -6 -3 -19.5t-1 -19.5q-4 -29 -4 -39q0 -6 -1 -16t-1 -14q0 -39 10 -70q10 -29 22 -41q18 -18 30.5 -22.5t35.5 -4.5q41 0 82 33q39 31 76 101q35 66 55 161q23 102 22 224q0 141 -43 245q-45 109 -118 177q-78 72 -179 106 q-98 35 -229 35q-100 0 -192 -27q-90 -27 -179 -80q-92 -55 -157 -127q-76 -82 -125 -172q-53 -98 -84 -213q-29 -109 -29 -252q0 -184 53 -309q55 -129 148 -209q96 -84 215 -119q123 -37 262 -36q76 0 162 16q84 16 149 39q88 31 133 53q35 16 109 64l49 -78 q-61 -45 -123 -78q-49 -27 -149 -61q-80 -27 -170 -43q-94 -16 -189 -17q-123 0 -225 21q-104 20 -203 65q-88 39 -172 111q-80 66 -133 153q-57 92 -86 197q-31 111 -31 244zM768 487q0 -102 37 -157q35 -53 94 -54q47 0 76 21q33 23 53 55q16 25 35 78q10 31 22 88l82 418 q-6 15 -18 25q-23 16 -27 18q-20 8 -30 10q-20 4 -33 4q-47 0 -94 -26q-37 -20 -74 -68q-34 -43 -55 -98q-29 -74 -39 -111q-16 -61 -23 -108q-6 -54 -6 -95z" />
<glyph unicode="A" horiz-adv-x="1540" d="M8 0v109h25q28 0 49 6q25 6 43 22q14 12 37 45q10 16 35 76l444 1204h281l428 -1206q12 -35 32 -72q16 -31 35 -45q20 -16 41 -22q29 -8 47 -8h37v-109h-676v109h80q10 0 31 4q12 2 29 14q10 8 20 25q8 14 8 36q0 25 -6 48q-8 29 -12 40l-72 205h-498l-59 -176 q0 -2 -16 -59q-8 -31 -9 -58q0 -20 9 -34q10 -16 20 -25q8 -6 29 -14q14 -6 35 -6h86v-109h-533zM489 606h414l-108 336l-23 74q-6 20 -11 39.5t-11 38.5l-23 80q-6 27 -18 75q-18 -61 -21 -67q-12 -37 -26 -76l-12.5 -41t-14.5 -39l-25 -74z" />
<glyph unicode="B" horiz-adv-x="1374" d="M57 0v109h84q18 0 43 4q16 2 33 18q12 12 23 41q8 23 8 70v981q0 45 -8 67q-10 27 -23 39q-10 10 -35 19q-18 6 -41 6h-84v108h598q289 0 439 -90q147 -90 147 -282q0 -70 -18 -119q-18 -47 -53 -86t-83 -64q-46 -25 -104 -43v-10q71 -18 129 -49q59 -31 102 -78 q41 -45 66 -104q23 -57 23 -136q0 -203 -148 -301q-152 -100 -438 -100h-660zM571 125h136q72 0 116 14q47 14 78 49t43 88q14 63 14 132q0 76 -12 131q-12 53 -41 92q-25 33 -76 53q-47 18 -118 18h-140v-577zM571 827h78q76 0 119 15q47 16 75.5 47t41.5 82q12 49 12 119 q0 63 -14 116q-12 49 -43 76q-37 33 -78 43q-49 12 -117 12h-74v-510z" />
<glyph unicode="C" horiz-adv-x="1366" d="M113 733q0 168 45 303q47 143 133 238q89 98 221 153.5t307 55.5q119 0 205 -19q82 -16 145 -51q61 -33 88 -74q29 -45 29 -94q0 -35 -16 -71q-12 -29 -49 -56q-35 -27 -80 -37q-57 -14 -111 -14q0 61 -10 102q-12 53 -39 91q-33 45 -70 67q-43 25 -106 25 q-94 0 -164 -41t-108.5 -119t-57 -194.5t-18.5 -264.5q0 -143 22 -260q20 -109 72 -184q47 -72 127 -109t192 -37q82 0 134 17q55 16 104 47q46 28 80 61q39 39 61 70q15 -12 25 -37q10 -27 10 -51q0 -41 -22 -90q-23 -47 -78 -88q-57 -43 -144 -66q-96 -27 -219 -26 q-178 0 -311 55q-135 57 -221 151.5t-131 239.5t-45 307z" />
<glyph unicode="D" horiz-adv-x="1570" d="M57 0v109h86q16 0 41 4q16 2 33 18q12 12 23 41q8 23 8 70v987q0 43 -8 65q-10 27 -23 37q-20 16 -33 19q-25 4 -41 4h-86v108h676q164 0 305 -45q133 -43 228 -133q96 -94 143 -219q49 -132 49 -307q0 -166 -47 -307q-47 -139 -137 -239.5t-227 -156.5 q-135 -55 -314 -55h-676zM571 127h115q104 0 184 43t134 127q57 90 81 197q27 113 27 264q0 291 -108 436q-106 143 -316 143h-117v-1210z" />
<glyph unicode="E" horiz-adv-x="1335" d="M57 0v109h86q16 0 41 4q16 2 33 16q12 10 23 37q8 23 8 65v990q0 47 -8 69q-10 29 -23 41q-16 16 -33 19q-25 4 -41 4h-86v108h1137l8 -377h-143l-10 97q-10 80 -37 114q-31 41 -94 41h-345v-512h486v-123h-486v-577h410q33 0 53 12q23 12 37 33q18 27 27 49q6 20 14 62 l16 96h142l-15 -377h-1200z" />
<glyph unicode="F" horiz-adv-x="1271" d="M57 0v109h86q16 0 41 4q16 2 33 16q12 10 23 37q8 23 8 65v998q0 43 -8 65q-10 27 -23 37q-20 16 -33 19q-25 4 -41 4h-86v108h1135l10 -377h-143l-10 99q-9 80 -50 116q-41 37 -102 37h-326v-559h486v-121h-486v-415q0 -47 9 -70q10 -29 22 -41q16 -16 35 -18 q29 -4 41 -4h127v-109h-748z" />
<glyph unicode="G" horiz-adv-x="1574" d="M113 733q0 164 49 303q49 137 145 238q95 98 240 153t330 56q127 0 223 -19q88 -16 160 -51q70 -33 98 -74q31 -43 31 -94q0 -41 -17 -67q-18 -33 -51 -56q-33 -25 -84 -37q-57 -14 -113 -14q0 66 -14 115t-47 88q-29 35 -80 57q-47 20 -113 21q-109 0 -190 -41 q-80 -41 -129 -119q-51 -84 -72 -195q-23 -123 -22 -264q0 -147 24 -262q27 -119 76 -192q55 -80 135 -119q86 -41 205 -41q27 0 76 4t74 10v301q0 84 -37 115t-109 31h-27v108h644v-108h-27q-33 0 -53 -7q-23 -6 -39.5 -26.5t-22.5 -46.5q-6 -31 -6 -74v-336 q-117 -53 -242 -82q-127 -29 -262 -28q-190 0 -331 55q-143 55 -236 151q-90 94 -139 240q-47 141 -47 307z" />
<glyph unicode="H" horiz-adv-x="1675" d="M57 0v109h86q16 0 41 4q16 2 33 18q12 12 23 41q8 23 8 70v987q0 43 -8 65q-10 27 -23 37q-16 14 -35 17q-37 6 -39 6h-86v108h707v-108h-88q-4 0 -41 -6q-16 -2 -33 -19q-12 -12 -22 -39q-8 -23 -9 -69v-396h535v396q0 47 -8 69q-10 27 -23 39q-16 16 -33 19 q-37 6 -41 6h-88v108h707v-108h-86q-4 0 -41 -6q-16 -2 -33 -19q-12 -12 -22 -39q-8 -23 -8 -69v-990q0 -43 8 -65q9 -25 24 -37q16 -14 33 -16q25 -4 39 -4h86v-109h-707v109h88q16 0 41 4q16 2 33 18q12 12 23 41q8 23 8 70v458h-535v-458q0 -47 9 -70q10 -29 22 -41 q16 -16 33 -18q25 -4 41 -4h88v-109h-707z" />
<glyph unicode="I" horiz-adv-x="819" d="M57 0v109h86q16 0 41 4q16 2 33 18q12 12 23 41q8 23 8 70v979q0 47 -8 69q-10 27 -23 39q-16 16 -33 19q-37 6 -41 6h-86v108h707v-108h-86q-4 0 -41 -6q-20 -4 -35 -19q-10 -10 -20 -39q-8 -23 -9 -69v-979q0 -47 9 -70q12 -33 20 -41q14 -14 35 -18q25 -4 41 -4h86 v-109h-707z" />
<glyph unicode="J" horiz-adv-x="753" d="M-80 -373h37q51 0 96 18.5t82 61.5q35 41 58 113q23 74 22 174v1235q0 43 -8 65q-10 27 -23 37q-20 16 -32 19q-25 4 -41 4h-86v108h706v-108h-86q-16 0 -41 -4q-20 -4 -35 -19q-12 -12 -22 -41q-8 -23 -8 -69v-1225q0 -98 -21 -166q-23 -72 -57 -125q-37 -53 -90 -92 q-63 -45 -111 -62q-72 -25 -129 -32q-76 -10 -137 -11h-74v119z" />
<glyph unicode="K" horiz-adv-x="1501" d="M57 0v109h86q16 0 41 4q16 2 33 16q12 10 23 37q8 23 8 65v998q0 43 -8 65q-10 27 -23 37q-20 16 -33 19q-25 4 -41 4h-86v108h707v-108h-86q-12 0 -41 -4q-18 -2 -35 -19q-12 -12 -22 -41q-8 -23 -9 -69v-478l318 347q27 27 55.5 63.5t36.5 52.5q12 23 18 47q6 22 7 43 q0 35 -25 47.5t-90 12.5v106h555v-106q-43 0 -80 -12.5t-74 -37t-69 -57.5l-72 -73l-270 -297l381 -605q33 -53 57 -79q33 -35 55 -52q23 -14 58 -26q25 -8 63 -8h8v-109h-110q-98 0 -138 4q-51 6 -102 16.5t-78 24.5q-31 15 -55 37q-29 25 -43 47q-33 49 -39 59l-276 471 l-91 -71v-346q0 -47 9 -70q10 -29 22 -41q16 -16 35 -18q29 -4 41 -4h86v-109h-707z" />
<glyph unicode="L" horiz-adv-x="1337" d="M57 0v109h86q16 0 41 4q16 2 33 18q12 12 23 41q8 23 8 70v979q0 47 -8 69q-10 29 -23 41q-16 16 -33 19q-25 4 -41 4h-86v108h707v-108h-86q-16 0 -41 -4q-12 -2 -33 -19q-12 -10 -22 -37q-8 -23 -9 -65v-1104h381q74 0 113 45t57 133l33 154h115l-15 -457h-1200z" />
<glyph unicode="M" horiz-adv-x="1949" d="M57 0v109h86q16 0 41 4q16 2 33 16q12 10 23 37q8 23 8 65v998q0 43 -8 65q-10 27 -23 37q-20 16 -33 19q-25 4 -41 4h-86v108h590l340 -989l326 989h579v-108h-86q-16 0 -41 -4q-16 -2 -32 -19q-12 -12 -23 -41q-8 -23 -8 -69v-979q0 -47 8 -70q10 -29 23 -41 q16 -16 32 -18q25 -4 41 -4h86v-109h-655v109h20q23 0 56 4q25 2 41 16q14 12 24 35q8 18 8 59v1037l-413 -1260h-139l-433 1260v-1018q0 -43 11 -70q8 -23 30 -41q18 -14 47 -18q37 -4 64 -4h12v-109h-508z" />
<glyph unicode="N" horiz-adv-x="1613" d="M57 0v109h86q16 0 41 4q16 2 33 18q12 12 23 41q8 23 8 70v987q0 43 -8 65q-10 27 -23 37q-20 16 -35 19q-25 4 -39 4h-86v108h455l723 -1022v789q0 43 -8 65q-10 27 -23 37q-20 16 -35 19q-25 4 -39 4h-86v108h535v-108h-86q-16 0 -41 -4q-16 -2 -33 -19 q-12 -12 -22 -41q-8 -23 -8 -69v-1221h-189l-799 1128v-886q0 -47 9 -70q10 -29 22 -41q16 -16 33 -18q25 -4 41 -4h86v-109h-535z" />
<glyph unicode="O" horiz-adv-x="1611" d="M113 735q0 170 43 309q43 137 129 235.5t217 152t307 53.5q164 0 295 -53q125 -51 217 -152q86 -94 133 -238q45 -135 45 -309q0 -172 -45 -307q-47 -143 -135 -240q-86 -96 -217 -151q-129 -55 -295 -55q-176 0 -305 55q-135 57 -217 151q-84 96 -129 240 q-43 139 -43 309zM457 733q0 -147 18.5 -262t61.5 -195q43 -78 108 -120q68 -43 162 -43t162 43q70 45 108 120q41 82 60 195q18 115 18 262.5t-18 261.5q-18 113 -60 195q-37 76 -106 121q-61 41 -161.5 41t-164.5 -41q-66 -43 -108 -121q-43 -80 -61.5 -195t-18.5 -262z " />
<glyph unicode="P" horiz-adv-x="1306" d="M57 0v109h86q16 0 41 4q16 2 33 18q12 12 23 41q8 23 8 70v987q0 43 -8 65q-10 27 -23 37q-20 16 -33 19q-25 4 -41 4h-86v108h629q143 0 248 -30q102 -31 174 -86q66 -51 102 -138q35 -82 35 -180q0 -84 -33 -176q-31 -86 -102 -152q-63 -59 -188 -102 q-111 -39 -281 -39h-70v-328q0 -43 9 -65q9 -25 24 -37q16 -14 35 -16q29 -4 41 -4h125v-109h-748zM571 678h50q77 0 129 18q49 16 86 62q34 40 49 104q16 70 16 158q0 72 -14 143q-12 57 -43 99q-33 43 -76 59q-51 20 -117 20h-80v-663z" />
<glyph unicode="Q" horiz-adv-x="1611" d="M113 735q0 170 43 309q43 137 129 235.5t217 152t307 53.5q164 0 295 -53q125 -51 217 -152q86 -94 133 -238q45 -135 45 -309q0 -147 -33 -266q-33 -123 -96 -215t-156 -158q-96 -68 -213 -94q8 -113 37 -186q25 -68 68 -113q39 -41 90 -57q53 -16 100 -17h33v-119h-147 q-94 0 -181 27q-90 29 -163 86q-72 55 -121 150q-47 90 -58 221q-139 23 -241.5 84t-169.5 157q-66 92 -101 224q-34 128 -34 278zM457 733q0 -147 18.5 -262t61.5 -195q43 -78 108 -120q68 -43 162 -43t162 43q70 45 108 120q41 82 60 195q18 115 18 262.5t-18 261.5 q-18 113 -60 195q-37 76 -106 121q-61 41 -161.5 41t-164.5 -41q-66 -43 -108 -121q-43 -80 -61.5 -195t-18.5 -262z" />
<glyph unicode="R" horiz-adv-x="1447" d="M57 0v109h86q14 0 39 4q18 2 35 16q12 10 23 37q8 23 8 65v998q0 43 -8 65q-10 27 -23 37q-20 16 -35 19q-25 4 -39 4h-86v108h660q293 0 426 -96q135 -98 135 -283q0 -80 -25 -145q-25 -63 -63 -109q-41 -47 -88 -79q-41 -27 -103 -54l244 -420q23 -41 51 -75 q23 -27 49 -51q25 -22 50 -31q27 -10 55 -10h8v-109h-67q-92 0 -160 6q-66 6 -121 28.5t-88 55.5q-43 43 -70 94l-243 451h-136v-404q0 -43 9 -65q10 -27 22 -37q16 -14 35 -16q25 -4 39 -4h88v-109h-707zM571 754h115q72 0 119 18.5t75.5 57t41 94t12.5 131.5q0 82 -14 133 q-16 59 -43 88q-31 35 -78 49q-53 16 -117 16h-111v-587z" />
<glyph unicode="S" horiz-adv-x="1198" d="M61 266q0 51 18.5 88t53.5 60q41 25 74 32q47 10 86 11q0 -90 20 -154q20 -66 60 -110q41 -49 88 -68q55 -23 112 -23q66 0 107 17q49 20 80 47q33 31 51 70q16 35 16 88t-20 92q-25 45 -64 76q-45 35 -108 65l-150 68q-100 41 -180 90q-74 45 -119 100q-47 57 -65 119 q-18 66 -19 137q0 92 37 170q33 70 107 129q72 57 157 84q96 29 201 29q113 0 195 -19q78 -16 135 -51q57 -33 80 -74q27 -47 26 -94q0 -35 -16 -67q-16 -31 -47 -54q-37 -27 -78 -37q-46 -12 -111 -12q0 43 -12 92.5t-37 92.5q-25 41 -67 69q-45 29 -101 29q-41 0 -77 -12 q-43 -14 -66 -35q-29 -27 -43 -60q-16 -39 -16 -82q0 -47 14 -82q16 -39 51 -73.5t103 -73.5q49 -29 170 -78q115 -47 180 -88q80 -49 121 -96q49 -57 69 -113q20 -59 21 -137q0 -102 -39 -182q-41 -84 -113 -142q-74 -59 -174 -92q-98 -33 -231 -32q-129 0 -230 26 q-86 23 -147 68q-55 40 -80 92q-23 47 -23 100z" />
<glyph unicode="T" horiz-adv-x="1335" d="M20 1065l11 397h1276l10 -397h-137l-15 127q-2 25 -14 61q-8 25 -29 45q-18 18 -51 29q-35 10 -76 10h-164v-1095q0 -47 9 -70q10 -29 22 -41q16 -16 33 -18q25 -4 41 -4h86v-109h-707v109h86q16 0 41 4q16 2 33 18q12 12 23 41q8 23 8 70v1095h-164q-43 0 -78 -10 q-29 -8 -49 -28.5t-29 -45.5q-12 -37 -14 -61l-14 -127h-138z" />
<glyph unicode="U" horiz-adv-x="1529" d="M33 1354v108h706v-108h-86q-16 0 -41 -4q-16 -2 -32 -19q-12 -12 -23 -41q-8 -23 -8 -69v-791q0 -84 22 -145q20 -53 62 -92q39 -35 94 -52q59 -16 127 -16t123 18q57 18 94 53t59 95q20 55 21 135v803q0 43 -8 65q-10 27 -23 37q-20 16 -33 19q-25 4 -40 4h-86v108h536 v-108h-88q-16 0 -41 -4q-16 -2 -33 -19q-12 -12 -22 -41q-8 -23 -8 -69v-799q0 -106 -29 -184q-29 -80 -92 -140q-59 -57 -160 -88q-98 -31 -231 -30q-127 0 -240 26q-104 25 -178 80q-68 51 -111 145q-39 86 -39 215v783q0 43 -8 65q-9 25 -24 37q-20 16 -33 19 q-25 4 -39 4h-88z" />
<glyph unicode="V" horiz-adv-x="1429" d="M0 1354v108h676v-108h-94q-8 0 -29 -4q-14 -2 -25 -11q-12 -10 -18 -20q-8 -16 -8 -33q0 -20 6 -44.5t12 -43.5l209 -631l5 -15t6 -20.5l5 -19.5q4 -12 9.5 -33.5l7.5 -29.5q6 -23 14 -68l10 -62q0 6 4.5 20.5t6.5 25.5q4 20 16 65l21 68l11 33.5t9 29.5l211 623 q4 10 8 24q0 2 3 12.5t5 16.5q2 10 6 27q2 8 3 20q0 33 -23 51.5t-59 18.5h-107v108h529v-108h-99q-12 0 -24 -6q-8 -4 -23 -23q-6 -6 -22 -45q-14 -31 -29 -76l-418 -1204h-205l-436 1255q-10 29 -24 48q-14 16 -35 30.5t-35 16.5q-25 4 -33 4h-47z" />
<glyph unicode="W" horiz-adv-x="2183" d="M0 1354v108h684v-108h-47q-61 0 -92 -24.5t-31 -74.5q0 -14 6 -49q8 -41 15 -61l137 -473l12 -41l12 -43q4 -14 11.5 -45l11.5 -47q6 -23 20 -90q10 -43 13 -76l30 123l35 118l270 877h150l283 -782q29 -76 34 -97q2 -6 27 -96l12.5 -42t12.5 -40q4 -14 9 -38.5t5 -26.5 q8 37 16 82q4 25 10.5 49t10.5 45l22 102q4 14 11.5 48l11.5 53l108 442l7 29l6 30q4 20 4 29q0 4 1 12t1 10q0 52 -31 74q-33 23 -100 23h-47v108h534v-108h-39q-33 0 -53 -6q-27 -8 -41 -23q-16 -16 -33 -49q-10 -23 -28 -82l-318 -1194h-233l-344 961l-295 -961h-254 l-375 1245q-8 29 -22 53q-12 20 -31 32.5t-39 19.5q-14 4 -53 4h-27z" />
<glyph unicode="X" horiz-adv-x="1497" d="M20 0v109h13q35 0 65 10q23 8 52 28q35 25 49 46q4 4 20.5 25.5t26.5 33.5l358 467l-338 526l-33 47q-14 20 -38 35q-29 16 -45 21q-25 6 -60 6h-27v108h678v-108h-6q-27 0 -59 -4q-20 -2 -37 -13q-14 -8 -21 -20q-4 -8 -4 -23q0 -25 15 -53q14 -31 39 -67l170 -254 l178 249q18 28 37 62q18 35 18 63q0 18 -8 29q-12 14 -25 20q-12 4 -37 9q-14 2 -45 2h-6v108h480v-108h-19q-20 0 -53 -8q-25 -6 -49 -25q-20 -16 -47 -45q-18 -20 -54 -70l-297 -405l377 -584q41 -66 82 -86q45 -23 82 -22h27v-109h-676v109h10q123 0 123 67q0 14 -2 23 q0 2 -10 26q-2 4 -21 37l-35 55l-188 285l-221 -299q-8 -12 -35 -59q-18 -35 -18 -66q0 -33 28.5 -51t95.5 -18h7v-109h-517z" />
<glyph unicode="Y" horiz-adv-x="1417" d="M0 1354v108h686v-108h-35q-61 0 -92 -24.5t-31 -67.5q0 -29 9 -56q8 -31 22 -57l152 -301l53 -115l37 -98q8 23 49 117q31 72 61 133l119 245q25 51 29 76q6 31 6 47q0 51 -33 76t-102 25h-47v108h536v-108h-39q-27 0 -45 -6q-20 -6 -35 -25q-18 -23 -34 -49 q-6 -10 -41 -80l-348 -678v-280q0 -43 10 -70t24.5 -39t34.5 -14q29 -4 45 -4h101v-109h-756v109h96q18 0 47 4q23 4 37 14q14 12 24.5 39t10.5 67v285l-379 727q-4 8 -29 51q-10 18 -28 33q-15 12 -37 19q-20 6 -51 6h-27z" />
<glyph unicode="Z" horiz-adv-x="1363" d="M86 0v102l768 1235h-403q-41 0 -78 -14q-33 -14 -51 -37q-16 -23 -27 -59q-10 -35 -12 -76l-11 -111h-147l10 422h1094v-104l-770 -1233h442q61 0 103 18q39 18 63 45q27 29 35 66q12 49 14 76l10 92h148l-10 -422h-1178z" />
<glyph unicode="[" horiz-adv-x="847" d="M205 -262v1818h567v-108h-88q-45 0 -66 -4q-35 -6 -53 -21q-23 -16 -35 -45q-14 -33 -14 -78v-1306q0 -43 14 -78q12 -29 35 -45q18 -14 53 -21q20 -4 66 -4h88v-108h-567z" />
<glyph unicode="\" horiz-adv-x="589" d="M0 1556h145l445 -1804h-148z" />
<glyph unicode="]" horiz-adv-x="847" d="M76 -154h88q45 0 65 4q35 6 54 21q27 18 36 45q12 31 13 78v1306q0 51 -12.5 78t-36.5 45q-18 14 -54 21q-20 4 -65 4h-88v108h567v-1818h-567v108z" />
<glyph unicode="^" d="M94 537l432 925h88l435 -925h-160l-320 702l-315 -702h-160z" />
<glyph unicode="_" horiz-adv-x="937" d="M-10 -170h960v-121h-960v121z" />
<glyph unicode="`" horiz-adv-x="1181" d="M332 1548v21h321q12 -27 41 -74l54 -82q14 -25 55 -78l24.5 -33.5l24.5 -33.5v-27h-139q-51 29 -107 70l-112 86q-49 37 -99 84q-49 44 -63 67z" />
<glyph unicode="a" horiz-adv-x="1226" d="M92 313q0 166 115 246q117 82 344 88l168 6v113q0 37 -4 94q-2 39 -17 74q-10 25 -39 47q-25 18 -67 18q-37 0 -66 -16q-27 -14 -43 -47q-16 -35 -22 -70q-6 -39 -6 -88q-135 0 -207 31q-70 31 -70 106q0 57 33 96.5t92 64t133 36.5q76 12 164 12q109 0 188.5 -18.5 t133.5 -58.5q55 -41 82 -109q27 -66 26 -162v-522q0 -41 6 -70q6 -31 21 -45q16 -16 39 -22q33 -8 57 -8h8v-109h-381l-43 141h-18q-45 -53 -64 -71q-29 -29 -63 -52q-29 -18 -78 -28q-47 -10 -100 -10q-72 0 -127 20q-61 23 -101 61q-47 47 -69 105q-25 61 -25 147z M410 305q0 -88 28 -133q29 -43 88 -43q43 0 80 18q33 16 60 54q29 39 39 82q14 57 14 108v154l-92 -6q-59 -2 -103 -19q-37 -14 -67 -47q-23 -25 -35 -70q-12 -43 -12 -98z" />
<glyph unicode="b" horiz-adv-x="1327" d="M35 0v109h14q29 0 57 6q35 8 50 18q27 18 37 43q12 29 12 76v1059q0 45 -12 71q-10 25 -35 41q-20 14 -52 21q-20 4 -63 4h-8v108h481v-350q0 -47 -2 -76q-3 -43 -6 -79l-8 -93h14q43 76 117 119q78 45 190 45q96 0 176 -34.5t129 -102.5q53 -72 80 -176t27 -256 t-27 -256q-27 -106 -82 -180q-51 -68 -131 -103q-82 -35 -180 -34q-49 0 -106 14q-47 12 -89 37q-39 25 -67.5 55.5t-50.5 73.5h-19l-57 -160h-389zM516 553q0 -92 10 -180q10 -82 33 -131q25 -53 66 -82q39 -27 102 -27q98 0 145 109q45 104 46 313q0 211 -45.5 313.5 t-147.5 102.5q-61 0 -100 -25q-41 -25 -66 -78q-23 -49 -33 -131q-10 -88 -10 -184z" />
<glyph unicode="c" horiz-adv-x="1077" d="M96 545q0 168 39 276q41 115 105 178q70 70 159 97q96 29 199 28q92 0 174 -16q68 -14 127 -45q47 -25 78 -70q27 -39 27 -84q0 -41 -11 -65q-12 -33 -40.5 -55.5t-82.5 -38.5q-49 -14 -131 -15q0 51 -6 101q-6 43 -22 84q-14 35 -41 57t-64 22q-41 0 -80 -22 q-37 -22 -61 -74q-29 -59 -39 -137q-14 -100 -14 -219q0 -209 57 -311.5t186 -102.5q52 0 99 12q49 12 86 35t65 53q29 33 47 66q25 -14 37 -41q12 -25 12 -53q0 -37 -22 -78q-20 -39 -72 -74q-43 -29 -125 -53q-70 -20 -178 -20q-111 0 -207 28q-90 27 -159 96 q-68 68 -105 177q-37 107 -37 264z" />
<glyph unicode="d" horiz-adv-x="1327" d="M94 547q0 152 27 256q27 106 82 180q52 71 129 104q80 35 176 35q58 0 104 -12q45 -12 84 -35q45 -27 68 -51q31 -35 49 -66h14q-2 20 -5 56.5t-3 50.5q0 8 -1 22.5t-1 20.5q0 8 -2 21.5t-2 19.5t-1 18.5t-1 16.5v24v113q0 39 -14 68q-14 27 -35 38q-23 14 -53 17 q-41 4 -64 4h-16v108h493v-1304q0 -49 15 -76q16 -31 37 -43q18 -12 53 -18q31 -6 65 -6h8v-109h-397l-57 160h-19q-16 -33 -53 -74q-33 -35 -67 -57q-43 -27 -86 -37q-49 -12 -109 -12q-98 0 -178 34q-82 37 -131 103q-55 76 -82 176q-27 104 -27 254zM410 549 q0 -209 43 -313q43 -102 147 -103q63 0 102 25q37 23 64 78t35 131q10 88 10 184q0 92 -10 180q-8 76 -35 131.5t-64 81.5q-39 27 -102 27q-53 0 -88 -27q-39 -29 -59 -82q-25 -63 -33 -133q-10 -88 -10 -180z" />
<glyph unicode="e" horiz-adv-x="1167" d="M96 543q0 150 33 254t100 182q61 70 160 108q95 37 215 37q106 0 201 -32q88 -31 149 -93q63 -63 96 -153t33 -215v-105h-671q2 -100 22 -178q16 -63 55 -121q35 -49 84 -71q51 -23 113 -23q52 0 98 12q41 10 82 35q33 18 64 53q25 27 45 66q55 -31 55 -100 q0 -43 -24 -84q-23 -39 -74 -70q-45 -29 -125 -47q-78 -18 -180 -18q-125 0 -230 38q-96 37 -166 109q-68 72 -102 178q-33 101 -33 238zM416 657h354q0 84 -8 140q-8 57 -29 104q-18 45 -51 67.5t-74 22.5q-88 0 -137 -86t-55 -248z" />
<glyph unicode="f" horiz-adv-x="833" d="M39 0v109h45q14 0 47 4q27 4 47.5 18t36.5 41q14 23 14 70v716h-182v140h182v76q0 96 25 169q25 78 76 127q49 49 131 78q78 27 186 27q98 0 164 -12q76 -14 107 -31q41 -23 55 -47q16 -29 16 -60q0 -70 -63 -102q-61 -31 -189 -31q0 27 -6 54q-8 41 -16 55 q-12 27 -31 41q-20 16 -49 16q-20 0 -43 -14q-16 -10 -29 -43q-10 -25 -16 -76q-6 -47 -6 -115v-112h282v-140h-282v-716q0 -47 14 -70q16 -27 36.5 -41t47.5 -18q33 -4 47 -4h96v-109h-743z" />
<glyph unicode="g" horiz-adv-x="1146" d="M4 -207q0 109 72 168q70 57 205 70q-37 16 -55.5 26.5t-47.5 38.5q-23 23 -35 51.5t-12 65.5q0 31 14 63q12 28 37 56q18 20 57.5 49t73.5 47q-37 12 -84 45q-37 25 -65 68q-28 40 -43 92q-16 55 -17 112q0 180 105 279q106 100 323 100q74 0 136 -18q55 -16 108 -45 q16 18 37 39q6 6 47 37q16 12 58 28q25 10 71 11q39 0 63.5 -8.5t47.5 -26.5q20 -16 28 -37q8 -18 9 -45q0 -23 -7 -45q-4 -16 -24 -37q-14 -14 -45 -24.5t-70 -10.5q0 22 -6 37q-6 14 -18 27q-10 10 -25 16q-16 6 -29 6q-18 0 -36 -6q-16 -6 -31 -16q20 -20 39 -52 q25 -41 33 -63.5t20 -71.5q8 -33 8 -74q0 -78 -24 -143q-25 -63 -76 -113q-51 -47 -129 -75q-74 -27 -185 -27h-28q-8 0 -17.5 1t-17.5 1q-6 0 -16.5 1t-14.5 1q-6 0 -14 1t-10 1l-27 -18q-18 -12 -25 -23q-10 -14 -16 -28q-6 -16 -6 -35q0 -35 27 -49q29 -16 69 -17h248 q98 0 176 -22q74 -22 123 -62q51 -41 72 -98q23 -61 22 -131q0 -96 -36.5 -170t-108.5 -125q-74 -52 -184 -80q-106 -27 -265 -27q-244 0 -360 72q-119 74 -119 213zM246 -203q0 -84 61 -125q63 -41 180 -41q180 0 262 51.5t82 153.5q0 66 -40 90q-43 27 -125 27h-238 q-33 0 -63 -6q-33 -6 -58 -23q-29 -18 -45 -47q-16 -27 -16 -80zM383 745q0 -41 8 -98q6 -43 25 -74q20 -35 43 -49q25 -16 67 -16q39 0 68 16q25 14 43 49q16 33 22.5 76t6.5 99q0 58 -7 104q-4 37 -24 80q-14 33 -43 51q-28 18 -68 18q-37 0 -67 -20q-29 -18 -43 -51 q-18 -43 -25 -82q-6 -46 -6 -103z" />
<glyph unicode="h" horiz-adv-x="1363" d="M35 1448v108h481v-337q0 -55 -2 -86t-6 -84l-8 -91h18q27 51 66 91q34 34 73 49q53 20 82 22q57 4 92 4q74 0 142 -22q61 -20 106 -72q47 -55 68 -123q23 -78 22 -178v-475q0 -51 9 -76q12 -35 24 -45t43 -18q25 -6 62 -6h6v-109h-455v674q0 70 -8 117q-10 53 -29 88 q-18 33 -51 53q-31 18 -76 18q-49 0 -86 -26q-29 -20 -53 -70q-23 -43 -31 -100q-8 -51 -8 -121v-391q0 -43 10 -70q8 -23 29 -39q20 -18 47 -20q37 -4 62 -4h6v-109h-629v109h4q27 0 64 4q27 2 51 20q20 14 33 43q12 28 12 74v1073q0 43 -15 66q-16 29 -36 38 q-23 14 -48 17q-33 4 -47 4h-24z" />
<glyph unicode="i" horiz-adv-x="720" d="M35 0v109h24q14 0 47 4q27 4 47.5 18t36.5 41q14 23 15 70v622q0 43 -15 66q-15 25 -36 37q-29 16 -48 18q-33 4 -47 4h-24v109h481v-856q0 -47 14 -70q16 -27 37 -41t47 -18q33 -4 48 -4h24v-109h-651zM176 1430q0 35 14 67q12 27 37 45.5t54 26.5q27 8 69 8q41 0 68 -8 q33 -10 55 -27q25 -18 39 -45t14 -67q0 -39 -14 -66t-39 -45q-27 -20 -55 -29q-27 -8 -68 -8q-43 0 -69 8q-25 8 -54 29q-25 18 -37 45q-14 33 -14 66z" />
<glyph unicode="j" horiz-adv-x="706" d="M-41 -365h14q55 0 99 19q45 18 73.5 59t44.5 113q14 66 15 174v854q0 43 -12 70q-10 20 -37 41q-25 18 -52 20q-41 4 -63 4h-6v109h481v-1114q0 -139 -39 -229.5t-106 -145.5q-70 -57 -164 -78q-100 -23 -207 -23h-41v127zM178 1430q0 35 15 67q12 27 36.5 45.5 t53.5 26.5q27 8 69 8q41 0 68 -8q33 -10 55 -27q25 -18 39 -45t14 -67q0 -39 -14 -66t-39 -45q-27 -20 -55 -29q-27 -8 -68 -8q-43 0 -69 8q-25 8 -54 29q-25 18 -36 45q-15 33 -15 66z" />
<glyph unicode="k" horiz-adv-x="1302" d="M35 0v109h24q14 0 47 4q27 4 47.5 18t36.5 41q14 23 15 70v1081q0 43 -15 66q-16 29 -36 38q-23 14 -48 17q-33 4 -47 4h-24v108h481v-790q0 -8 -1 -29.5t-1 -34.5q0 -47 -2 -69l-6 -80l258 289q35 39 45 61q10 25 10 37q0 25 -28 41q-27 14 -78 14v103h516v-103 q-76 0 -139 -41q-76 -49 -150 -133l-129 -147l272 -406q59 -84 109 -121q53 -39 104 -38h7v-109h-29q-137 0 -189 4q-76 6 -131 25q-57 18 -94 53q-41 39 -80 100l-182 287l-82 -61v-166q0 -47 14 -70q16 -27 37 -41t47 -18q33 -4 48 -4h24v-109h-651z" />
<glyph unicode="l" horiz-adv-x="720" d="M35 0v109h24q14 0 47 4q27 4 47.5 18t36.5 41q14 23 15 70v1081q0 43 -15 66q-16 29 -36 38q-23 14 -48 17q-33 4 -47 4h-24v108h481v-1314q0 -47 14 -70q16 -27 37 -41t47 -18q33 -4 48 -4h24v-109h-651z" />
<glyph unicode="m" horiz-adv-x="2017" d="M41 0v109h4q27 0 64 4q27 2 51 20q20 14 33 43q12 28 12 74v612q0 43 -10 70q-8 18 -31 39q-20 18 -45 20q-37 4 -62 4h-6v103h430l27 -146h10q29 55 66 92q33 33 73 52q35 16 82 22q43 6 92 6q111 0 193 -41q80 -41 117 -131h18q31 58 68 92q37 33 78 52q37 16 86 22 q47 6 94 6q74 0 141 -22q61 -20 107 -72q47 -55 67 -123q23 -78 23 -178v-475q0 -51 8 -76q10 -31 27 -45q12 -10 43 -18q25 -6 59 -6h6v-109h-455v674q0 133 -36.5 204.5t-126.5 71.5q-49 0 -82 -24q-35 -25 -56 -64q-22 -40 -30 -92q-10 -57 -11 -113v-403q0 -51 9 -76 q12 -35 24 -45t43 -18q25 -6 62 -6h6v-109h-455v674q0 70 -8 117q-10 53 -29 88q-18 33 -51 53q-31 18 -76 18q-49 0 -86 -26q-29 -20 -53 -70q-23 -43 -31 -100q-8 -51 -8 -121v-391q0 -43 10 -70q8 -23 29 -39q20 -18 47 -20q37 -4 62 -4h6v-109h-629z" />
<glyph unicode="n" horiz-adv-x="1363" d="M41 0v109h4q27 0 64 4q27 2 51 20q20 14 33 43q12 28 12 74v606q0 43 -10 70q-8 18 -31 39q-20 18 -45 20q-37 4 -62 4h-6v109h430l27 -146h10q29 55 66 92q33 33 73 52q35 16 82 22q43 6 92 6q74 0 142 -22q61 -20 106 -72q47 -55 68 -123q23 -78 22 -178v-475 q0 -51 9 -76q12 -35 24 -45t43 -18q25 -6 62 -6h6v-109h-455v674q0 70 -8 117q-10 53 -29 88q-18 33 -51 53q-31 18 -76 18q-49 0 -86 -26q-29 -20 -53 -70q-23 -43 -31 -100q-8 -51 -8 -121v-391q0 -43 10 -70q8 -23 29 -39q20 -18 47 -20q37 -4 62 -4h6v-109h-629z" />
<glyph unicode="o" horiz-adv-x="1253" d="M96 553q0 289 135.5 430t399.5 141q121 0 221 -34q96 -33 166 -107q68 -71 104.5 -178.5t36.5 -251.5q0 -289 -135 -430q-137 -143 -399 -143q-123 0 -222 36q-100 37 -165 107q-68 71 -105 178.5t-37 251.5zM414 553q0 -111 12 -193q12 -84 36.5 -139t65.5 -83.5 t100.5 -28.5t100.5 28.5t65.5 83.5t36.5 139q10 70 10.5 193t-10.5 192q-10 74 -38 138q-23 53 -66 82q-41 29 -100.5 28.5t-100.5 -28.5q-43 -29 -65 -82q-23 -49 -35 -138q-12 -81 -12 -192z" />
<glyph unicode="p" horiz-adv-x="1320" d="M27 -383h24q16 0 49 4q27 4 47 19q16 12 35 41q14 23 15 69v1096q0 45 -11 76q-8 27 -28 43q-12 10 -45 18q-25 6 -54 6h-14v109h401l37 -160h9q23 43 51 74q27 29 69 55q47 29 86 39q49 12 107 12q102 0 180 -32.5t131 -104.5q55 -76 82 -178q27 -104 27 -258 q0 -152 -27 -256.5t-80 -175.5q-52 -71 -129 -105q-74 -33 -176 -33q-113 0 -190 45q-72 41 -117 119h-14l8 -92q2 -25 6 -82q2 -29 2 -74v-141q0 -47 14 -69q16 -27 37 -41.5t47 -18.5q33 -4 47 -4h45v-109h-671v109zM508 545q0 -96 10 -185q8 -76 35 -131t63 -77 q39 -25 101 -25q104 0 147 104q45 109 45 312q0 201 -45 313q-43 109 -145 109q-63 0 -103 -27q-37 -27 -63.5 -82t-34.5 -131q-10 -88 -10 -180z" />
<glyph unicode="q" horiz-adv-x="1325" d="M94 551q0 150 27 254q27 100 82 176q51 70 131 104q74 33 178 33q59 0 109 -12q43 -10 86 -37q39 -25 67 -55q35 -37 53 -76h19l41 160h413v-109h-8q-35 0 -65 -6q-35 -6 -53 -18q-20 -12 -37 -43q-14 -27 -15 -76v-1102q0 -43 12.5 -67.5t36.5 -38.5q23 -14 54 -17 q41 -4 63 -4h37v-109h-717v109h37q23 0 64 4q31 2 53 17q20 12 35 38q14 29 14 68v150v24q0 4 1 16.5t1 18.5l4 41q0 6 1 20.5t1 22.5q0 14 3 50t5 56h-14q-25 -37 -49 -65q-23 -25 -68 -51q-39 -23 -84 -35q-46 -12 -104 -12q-96 0 -176 34.5t-129 102.5q-55 76 -82 178 q-27 104 -27 256zM410 549q0 -205 43 -311.5t147 -106.5q63 0 102 26.5t64 80.5q27 55 35 129q10 86 10 180q0 96 -10 184q-8 76 -35 131.5t-64 77.5q-39 25 -102 25q-104 0 -147 -103q-43 -104 -43 -313z" />
<glyph unicode="r" horiz-adv-x="1069" d="M41 0v109h6q35 0 64 6q33 8 51 20q16 12 31 43q12 27 12 78v594q0 41 -10 72q-8 25 -31 43q-20 18 -45 20q-37 4 -62 4h-6v109h414l41 -160h10q27 57 43 80q27 37 59 57q39 25 78 35q45 12 109 12q120 0 178 -43q57 -43 57 -123q0 -92 -67 -145q-70 -53 -193 -53 q0 33 -4 73q-2 31 -16 54q-12 20 -31 33q-16 10 -49 10q-37 0 -62 -19q-31 -23 -45 -45q-14 -20 -28 -65q-12 -39 -19 -72q-4 -25 -8 -70q-2 -23 -2 -57v-354q0 -49 10 -72q12 -28 31 -43q18 -16 45 -18q37 -4 57 -4h66v-109h-684z" />
<glyph unicode="s" horiz-adv-x="997" d="M61 219q0 49 19 80q16 27 49 47q27 16 64 23q33 6 59 6q0 -59 16 -115q12 -43 45 -86q27 -35 70 -55q39 -18 90 -19q59 0 92 11q35 10 62 30q23 16 37 45q12 25 12 54q0 34 -12 61q-10 20 -41 49q-29 27 -78 47q-57 25 -121 47q-83 28 -148 62q-70 37 -106 74 q-45 45 -66 94q-23 55 -22 123q0 82 30.5 143t90.5 102q53 37 139 60q76 20 180 20q92 0 164 -16t113 -43q37 -25 61 -62q20 -33 21 -69q0 -68 -49.5 -104.5t-159.5 -36.5q0 106 -45 159q-46 55 -135 56q-37 0 -64 -9q-37 -10 -53 -22q-23 -16 -35 -41q-14 -29 -14 -55 q0 -35 12 -60q10 -23 45 -49q25 -20 86 -47q68 -31 137 -53q78 -29 125 -54q53 -29 100 -71q41 -37 64 -90q23 -51 23 -115q0 -88 -29 -152q-31 -70 -86 -112q-61 -47 -141 -72q-84 -25 -189 -24q-111 0 -190 18q-76 18 -127 49q-47 31 -72 78q-23 45 -23 94z" />
<glyph unicode="t" horiz-adv-x="827" d="M43 958v105q61 0 119 27q49 23 82 59q63 63 94 203h170v-254h262v-140h-262v-634q0 -92 30.5 -135.5t104.5 -43.5q51 0 76 5q49 8 69 14v-133q-8 -4 -43 -17q-33 -10 -65 -16l-82 -12q-45 -6 -100 -6q-66 0 -125 16q-53 14 -94 55t-61.5 100.5t-20.5 151.5v655h-154z" />
<glyph unicode="u" horiz-adv-x="1363" d="M53 989v109h455v-656q0 -49 8 -118q6 -53 25 -91q18 -39 49 -59q29 -20 74 -20t83.5 22.5t59.5 61.5q25 45 33 98q10 66 10 129v393q0 47 -12 72q-14 31 -31 39q-25 14 -47 16q-37 4 -58 4h-6v109h465v-860q0 -43 10.5 -70t28.5 -39q20 -14 43 -16q33 -4 55 -4h17v-109 h-408l-45 145h-10q-31 -52 -68 -86q-31 -29 -75 -49q-39 -18 -88 -24q-47 -6 -93 -6q-158 0 -245 100q-86 98 -86 305v459q0 49 -9 74q-10 31 -24 43q-20 18 -43 22q-27 6 -64 6h-4z" />
<glyph unicode="v" horiz-adv-x="1239" d="M0 989v109h635v-109h-86q-29 0 -49 -16q-18 -14 -19 -49q0 -25 6 -50q4 -16 13 -40l137 -388q23 -57 43 -131q20 -70 29 -118q2 6 4 17t5 21.5t5 18.5q4 16 9 31.5t9 29.5q8 31 16.5 55.5t10.5 35.5l139 411l17 57q6 28 6 56q0 35 -22.5 47t-57.5 12h-59v109h450v-109 h-41q-22 0 -37 -6q-20 -8 -33 -20q-16 -16 -30.5 -45t-32.5 -78l-297 -840h-270l-336 891q-16 37 -25 47q-14 16 -35 31q-20 12 -45 16q-32 4 -59 4z" />
<glyph unicode="w" horiz-adv-x="1751" d="M-6 989v109h600v-109h-27q-61 0 -92 -18.5t-31 -67.5q0 -25 5 -41q8 -33 12 -47l76 -266q12 -49 18 -76q4 -20 9 -39.5l9 -36.5q6 -25 15 -69q8 -49 10 -60h6q8 43 25 105q6 23 41 131l209 583h133l200 -604q18 -55 35 -125q12 -49 19 -90h6q2 14 5 26.5t5 22.5 q2 14 10 48q10 41 15 55q18 61 20 67l90 299q2 6 13 56q6 31 6 47q0 51 -33 76q-35 25 -103 24h-14v109h469v-109h-26q-29 0 -51.5 -6t-39 -22.5t-32.5 -49.5q-14 -27 -31 -82l-264 -829h-221l-224 680l-235 -680h-223l-263 881q-14 35 -24 53q-12 20 -31 33q-14 8 -39 16 q-23 6 -51 6h-6z" />
<glyph unicode="x" horiz-adv-x="1320" d="M23 0v109h18q37 0 65 6q23 6 52 22q33 20 51 39q14 14 55 64l258 311l-258 330q-41 53 -86 82q-41 27 -90 26h-27v109h644v-109h-7q-29 0 -57 -4q-25 -4 -37 -12q-10 -8 -16 -20.5t-6 -22.5q0 -22 12 -43q16 -27 35 -51l114 -140l97 117q25 29 37 59q14 33 14 56 q0 37 -29 49q-27 12 -76 12h-6v109h473v-109h-18q-29 0 -53.5 -6t-46.5 -20q-27 -16 -50 -39q-12 -12 -57 -66l-211 -258l301 -383q47 -59 86 -84q41 -25 78 -24h27v-109h-652v109h11q123 0 123 67q0 16 -3 25q-2 10 -12 26q0 2 -8 16.5t-14 22.5l-41 51l-117 142l-143 -178 q-14 -20 -31 -52q-12 -25 -12 -51q0 -33 28.5 -51t98.5 -18h6v-109h-520z" />
<glyph unicode="y" horiz-adv-x="1185" d="M0 977v121h584v-109q-57 0 -95 -16q-35 -16 -34 -60q0 -8 8 -41q6 -23 12 -38l37 -93l39 -102l35 -96l16 -44.5t14 -39.5q16 -43 25 -70q12 -41 16 -57q8 -33 11 -47l6 -43q4 33 8 47l12 49q2 10 8.5 24.5t6.5 16.5q4 10 7 16t3 11l135 401l8 24q4 16 6 27q4 20 4 27 q0 4 1 12t1 10q0 45 -38 64q-40 18 -111 18v109h461v-109q-23 0 -56 -8q-25 -6 -40 -23q-20 -20 -35 -47q-20 -37 -33 -71l-76 -207l-78 -213l-80 -213l-75 -207q-45 -119 -68 -174q-31 -74 -67 -129q-39 -59 -78 -92q-41 -35 -100.5 -57.5t-133.5 -30.5q-68 -8 -176 -9h-35 v119q102 0 183 27q76 25 127 74q51 47 84 114q37 74 59 148l-369 901q-14 33 -26.5 47t-33 24.5t-36.5 12.5q-14 2 -43 2z" />
<glyph unicode="z" horiz-adv-x="1081" d="M37 0v84l604 874h-299q-23 0 -41 -6q-12 -4 -29 -24q-12 -15 -24 -43q-8 -16 -23 -70l-12 -49h-123l25 332h884v-88l-606 -871h361q35 0 53 8q25 10 37 29q18 27 26 53q10 33 19 76l12 66h121l-10 -371h-975z" />
<glyph unicode="{" horiz-adv-x="903" d="M61 590v125q63 4 93 10q51 10 75 29q35 25 52 57q18 37 18 94v352q0 145 88 222q90 78 262 77h195v-108h-80q-43 0 -71.5 -12.5t-45 -39t-22.5 -61.5q-6 -37 -7 -86v-348q0 -94 -53 -153q-52 -58 -172 -86v-17q119 -29 172 -90q53 -63 53 -152v-350q0 -49 6.5 -86 t22.5 -63q14 -23 45 -37q33 -14 72 -14h80v-109h-195q-90 0 -151 20q-70 23 -111 62q-45 43 -65 94q-23 57 -23 127v350q0 57 -18.5 94t-51.5 60q-25 18 -75 29q-30 6 -93 10z" />
<glyph unicode="|" d="M498 -492v2048h147v-2048h-147z" />
<glyph unicode="}" horiz-adv-x="903" d="M61 -147h80q39 0 72 14q31 14 45 37q16 27 22.5 63.5t6.5 85.5v350q0 88 53 152q53 61 172 90v17q-120 28 -172 86q-53 59 -53 153v348q0 49 -6 86q-6 35 -22.5 61.5t-45.5 39t-72 12.5h-80v108h195q172 0 262 -77q88 -76 88 -222v-352q0 -57 19 -94q16 -33 51 -57 q27 -18 74 -29q29 -6 94 -10v-125q-66 -4 -94 -10q-47 -10 -74 -29q-33 -23 -51.5 -59.5t-18.5 -94.5v-350q0 -70 -22 -127q-18 -49 -68 -94q-43 -39 -108 -62q-61 -20 -152 -20h-195v109z" />
<glyph unicode="~" horiz-adv-x="1148" d="M113 598v158q98 109 247 108q37 0 53.5 -2t53.5 -10q28 -6 61 -18q43 -16 80 -33l33 -13.5l33 -13.5q25 -10 51 -18q14 -4 43 -8q14 -2 41 -3q33 0 59 9q10 4 58 26q20 10 57 39q29 20 53 47v-157q-98 -109 -248 -109q-37 0 -53 2t-53 10q-28 6 -61 19q-43 16 -80 33 q-57 25 -66 26l-49 17q-29 8 -43 10t-43 2q-23 0 -57 -10q-25 -8 -60 -25q-20 -10 -57 -39z" />
<glyph unicode="&#xa1;" horiz-adv-x="780" d="M213 -369l121 996h115l120 -996h-356zM221 946q0 41 15 78q12 29 34.5 49.5t53.5 28.5q27 8 65.5 8t65.5 -8q31 -8 53 -29q27 -23 37 -49q12 -31 12 -78t-12.5 -77.5t-36.5 -51.5q-18 -16 -53 -26q-27 -8 -66 -8.5t-65 8.5q-35 10 -54 26q-23 18 -34 51q-15 37 -15 78z " />
<glyph unicode="&#xa2;" d="M117 733.5q0 149.5 35 259.5q35 109 94 174q63 70 143 103q76 31 182 41v151h127v-151q98 -6 156 -23q66 -18 115 -47q43 -27 69 -65q23 -33 23 -78q0 -33 -12 -64q-12 -33 -41 -55q-35 -27 -80 -41q-49 -14 -131 -14q0 57 -4 84q-8 53 -17 75q-12 33 -30.5 57.5 t-47.5 37.5v-856q43 0 97 14q45 12 84 35q41 25 65 51q29 33 47 65q27 -16 39 -40.5t12 -53.5q0 -37 -20 -71q-25 -41 -64 -70q-47 -33 -106 -53q-68 -23 -154 -29v-170h-127v170q-100 6 -186 41q-84 35 -143 102q-59 70 -92 170.5t-33 250zM430 735q0 -160 33 -256 q33 -94 108 -133v828q-37 -16 -59 -46q-27 -35 -45 -84q-16 -47 -27 -129q-10 -86 -10 -180z" />
<glyph unicode="&#xa3;" d="M49 709v125h191q-4 8 -7.5 17t-8.5 20.5t-7 19.5q-10 25 -20 67q-12 49 -17 76q-6 39 -6 78q0 178 117 274q119 96 338 97q109 0 186 -19q74 -18 127 -51q47 -31 70 -74q23 -45 22 -94q0 -72 -65.5 -119t-190.5 -47q0 31 -8 97q-6 51 -25 90q-18 41 -49 65q-33 27 -82 27 q-78 0 -123 -57.5t-45 -180.5q0 -43 7 -82q4 -33 16 -77q12 -49 20 -70q16 -41 25 -57h363v-125l-324 2l12 -43q8 -23 10 -39l6.5 -39.5t2.5 -46.5q0 -162 -185 -281l7 -10q2 0 5 1l6 2t7 1q8 2 29 6l36 6q12 2 37 2q27 0 39 -2q29 -4 41 -8l21.5 -7t23.5 -7l25.5 -8.5 t30.5 -8.5q25 -8 81 -22q33 -8 82 -8q74 0 123 41q52 43 92 110v-229q-41 -74 -98 -107q-59 -35 -139 -34q-18 0 -64 4q-27 2 -65 10q-41 8 -62 14q-49 14 -53 17q-12 4 -106 30q-51 14 -97 15q-25 0 -65 -4q-33 -4 -60 -13q-29 -10 -53 -20l-55 -25l-90 -47v184l65 41 l66 47q29 25 59 68q27 39 45 88q16 43 17 111q0 59 -13 108q-12 53 -32 101h-236z" />
<glyph unicode="&#xa4;" d="M135 403l119 119q-59 94 -59 207q0 53 16 113q12 45 49 100l-123 123l103 102l122 -123q55 33 97 46q55 16 110 16q53 0 109 -16q49 -14 98 -48l127 127l103 -104l-125 -127q31 -46 49 -98q16 -47 16 -111q0 -55 -16 -111q-12 -41 -45 -96l121 -121l-103 -102l-121 121 q-47 -31 -100 -49q-49 -16 -113 -17q-53 0 -112 17q-47 12 -99 47l-118 -119zM334 729q0 -49 18 -92q16 -37 51 -76q29 -33 74 -51q43 -18 92 -18q51 0 95 18q47 20 75 51q31 35 49 76q16 39 17 92q0 55 -17 94q-18 41 -49 76q-29 31 -75 51q-43 18 -95 19q-49 0 -92 -19 q-45 -18 -74 -51q-35 -39 -51 -76q-18 -43 -18 -94z" />
<glyph unicode="&#xa5;" horiz-adv-x="1103" d="M-6 1354v108h586v-108h-15q-61 0 -90 -19q-27 -18 -26 -61q0 -29 8 -55q6 -23 24 -66l78 -195q35 -94 45 -124q16 -55 27 -103q8 35 20 68l16.5 40.5l16.5 41.5l86 225l10 31.5t11 27.5q8 23 12 45q0 2 3 15.5t3 19.5t1 14.5t1 12.5q0 39 -29 61q-27 20 -96 21h-6v108 h426v-108h-6q-23 0 -45 -6q-20 -6 -39 -25q-12 -12 -35 -49q-6 -12 -37 -80l-211 -496h268v-120h-286v-119h286v-121h-286v-102q0 -45 14 -74q12 -27 34.5 -39t53.5 -12q10 0 31.5 -1t34.5 -1h47v-109h-735v109h47q12 0 32.5 1t30.5 1q29 0 53 10q20 8 37 35q14 23 15 69 v113h-287v121h287v119h-287v120h252l-242 547q-18 37 -27 51q-14 25 -26 35q-10 8 -35 17q-18 6 -45 6h-6z" />
<glyph unicode="&#xa6;" d="M498 328h147v-820h-147v820zM498 737v819h147v-819h-147z" />
<glyph unicode="&#xa7;" horiz-adv-x="1112" d="M133 772q0 70 37 125t96 86q-34 37 -61 98q-27 59 -27 146q0 78 31 139q33 63 84 104q55 43 127 64q78 23 162 22q92 0 159 -18q72 -18 113 -47q45 -29 70 -74q25 -43 24 -94q0 -59 -51 -104q-49 -43 -143 -43q0 51 -9 92q-10 55 -28 88q-20 39 -55 63.5t-89 24.5 q-86 0 -139 -49q-51 -49 -51 -144q0 -45 16 -82q14 -31 50 -59q41 -33 75 -49q14 -6 48 -23.5l55 -27.5q119 -57 186 -99q82 -49 127 -94q47 -47 71.5 -100t24.5 -119q0 -33 -10 -74q-8 -35 -29 -67q-25 -41 -41 -58q-27 -27 -51 -43q37 -45 53 -100q18 -59 19 -119 q0 -76 -27 -149q-25 -70 -76 -117t-129 -76q-74 -27 -180 -26q-115 0 -192.5 24.5t-120.5 59.5q-47 37 -65.5 84t-18.5 94q0 35 14 69q12 29 37 51.5t57 30.5q37 10 74 11q0 -70 14.5 -125.5t47.5 -100.5q29 -41 75 -65q43 -23 105 -23q100 0 153 53q55 55 56 146 q0 41 -13 74q-12 34 -49 67q-27 25 -106 72q-63 37 -184 96q-88 45 -146 84q-59 41 -98 90q-37 46 -55 98q-17 47 -17 113zM315 825q0 -45 15 -75q16 -35 47 -64q33 -29 90 -61q76 -43 137 -72l115 -61q70 -39 90 -54q6 6 18 37q8 18 9 51q0 39 -11 66q-14 37 -38.5 63.5 t-77.5 63.5q-43 31 -123 69l-47.5 22.5l-38 18t-41.5 21.5q-55 29 -111 65q-16 -20 -24 -41q-9 -22 -9 -49z" />
<glyph unicode="&#xa8;" horiz-adv-x="1181" d="M258 1409q0 33 10 59q8 20 27 39q16 16 38.5 22.5t45.5 6.5q27 0 47 -6q18 -6 39 -23q18 -14 27 -39q10 -27 10 -59.5t-10 -58.5q-8 -25 -27 -39q-20 -16 -39 -23q-20 -6 -47 -6q-23 0 -45.5 6t-38.5 23q-18 18 -27 39q-10 26 -10 59zM678 1409q0 33 10 59q8 25 27 39 q20 16 39 23q20 6 47 6q23 0 45 -6q18 -6 39 -23q18 -14 26 -39q10 -27 10.5 -59.5t-10.5 -58.5q-8 -25 -26 -39q-20 -16 -39 -23q-23 -6 -45 -6q-27 0 -47 6q-18 6 -39 23q-18 14 -27 39q-10 26 -10 59z" />
<glyph unicode="&#xa9;" horiz-adv-x="1730" d="M113 731q0 109 26 201q31 102 76 180q51 86 117 152q68 68 153 118q80 47 179 76q92 27 200.5 27t200.5 -27q102 -31 180 -76q80 -47 151.5 -118.5t119.5 -151.5q45 -78 75 -180q27 -92 27 -200.5t-27 -201.5q-29 -98 -75 -178q-51 -86 -119 -153q-66 -66 -152 -117 q-78 -45 -180 -76q-92 -27 -200.5 -26.5t-200.5 26.5q-98 29 -179 76q-90 53 -153.5 116.5t-116.5 153.5q-47 80 -76 178q-26 92 -26 201zM225 731q0 -84 23 -170q20 -76 65 -151q51 -84 98.5 -131.5t131.5 -98.5q76 -45 151 -65q86 -23 170 -23t170 23q80 20 154 65 q78 47 129 99q53 53 100 131q45 76 66 151q23 86 22.5 170t-22.5 170q-20 80 -65.5 153.5t-100.5 129t-129 100.5t-154 66q-86 23 -170 22.5t-170 -22.5q-76 -20 -151 -66q-78 -47 -131 -100q-51 -51 -99 -129q-45 -74 -65 -154q-23 -86 -23 -170zM465 733q0 96 29 182 q29 84 81 144q55 61 138 94q80 33 190 33q71 0 123 -12q55 -12 88 -31q37 -20 53.5 -45t16.5 -58q0 -25 -10 -41q-12 -18 -31 -30q-16 -12 -45 -19q-25 -6 -54 -6q0 20 -8 57q-6 28 -24 50q-23 27 -45 36q-28 12 -68 13q-74 0 -123 -25q-53 -27 -82 -69q-33 -47 -47 -115 q-14 -63 -14 -158q0 -174 69 -272q68 -96 199 -96q46 0 86 12q47 14 74 33q35 25 55 45q16 16 37 49q10 -8 21 -25q8 -14 8 -39q0 -31 -19 -57q-18 -29 -59 -53q-39 -25 -96 -39q-55 -14 -134 -15q-104 0 -178 33q-82 35 -129 92q-51 59 -75 146q-27 90 -27 186z" />
<glyph unicode="&#xaa;" horiz-adv-x="858" d="M59 987q0 100 86 150q84 47 261 57l92 4v55q0 37 -2 54q-2 23 -13 41q-8 16 -24.5 26t-42.5 10q-23 0 -39.5 -10t-24.5 -26q-6 -12 -10 -41t-4 -50q-109 0 -164 21q-59 23 -59 68q0 35 24.5 59.5t65.5 38.5q47 16 96 22q55 6 119 7q158 0 231 -48q78 -49 78 -165v-302 q0 -46 19 -61q20 -16 69 -16v-90h-239l-50 100h-14q-12 -14 -41 -43q-18 -18 -51 -37q-27 -14 -64 -25q-31 -8 -75 -8q-100 0 -164 53q-60 52 -60 156zM295 991q0 -53 22.5 -75.5t55.5 -22.5q63 0 94 39t31 102v84l-47 -2q-82 -2 -121 -35q-35 -29 -35 -90z" />
<glyph unicode="&#xab;" horiz-adv-x="1134" d="M133 500v106l313 357h144l-207 -410l207 -410h-144zM545 500v106l313 357h143l-206 -410l206 -410h-143z" />
<glyph unicode="&#xac;" d="M133 659v146h879v-512h-148v366h-731z" />
<glyph unicode="&#xad;" horiz-adv-x="634" d="M51 451v215h533v-215h-533z" />
<glyph unicode="&#xae;" horiz-adv-x="1730" d="M113 731q0 109 26 201q31 102 76 180q51 86 117 152q68 68 153 118q80 47 179 76q92 27 200.5 27t200.5 -27q102 -31 180 -76q80 -47 151.5 -118.5t119.5 -151.5q45 -78 75 -180q27 -92 27 -200.5t-27 -201.5q-29 -98 -75 -178q-51 -86 -119 -153q-66 -66 -152 -117 q-78 -45 -180 -76q-92 -27 -200.5 -26.5t-200.5 26.5q-98 29 -179 76q-90 53 -153.5 116.5t-116.5 153.5q-47 80 -76 178q-26 92 -26 201zM225 731q0 -84 23 -170q20 -76 65 -151q51 -84 98.5 -131.5t131.5 -98.5q76 -45 151 -65q86 -23 170 -23t170 23q80 20 154 65 q78 47 129 99q53 53 100 131q45 76 66 151q23 86 22.5 170t-22.5 170q-20 80 -65.5 153.5t-100.5 129t-129 100.5t-154 66q-86 23 -170 22.5t-170 -22.5q-76 -20 -151 -66q-78 -47 -131 -100q-51 -51 -99 -129q-45 -74 -65 -154q-23 -86 -23 -170zM477 289v69h27q27 0 39 2 q8 2 30 11q14 6 22.5 20.5t8.5 38.5v600q0 25 -8 39t-23 21q-23 8 -30 10q-12 2 -39 2h-27v72h369q352 0 352 -244q0 -47 -16 -86q-14 -33 -41 -64q-23 -25 -60 -45q-29 -16 -69 -30l182 -293q6 -12 20 -27q10 -10 23 -16q10 -4 29 -9q12 -2 43 -2v-69h-217l-226 381h-108 v-240q4 -27 10 -39q8 -14 20 -20q14 -6 33 -11q12 -2 37 -2h29v-69h-410zM758 748h86q55 0 92 12q39 14 59 33q22 22 31 55q10 37 10 80q0 47 -12 78q-14 39 -33 51q-27 20 -61 28q-33 8 -92 9h-80v-346z" />
<glyph unicode="&#xaf;" horiz-adv-x="937" d="M-10 1556v121h960v-121h-960z" />
<glyph unicode="&#xb0;" horiz-adv-x="817" d="M98 1151q0 66 25 121q27 59 65 98q43 43 98.5 67.5t121.5 24.5q68 0 123 -24.5t98 -67.5q39 -39 65 -98q25 -55 25 -121t-25 -121q-27 -59 -65.5 -98t-98.5 -66q-55 -25 -122 -24q-66 0 -121 24q-59 27 -98 66t-66 98q-25 55 -25 121zM240 1151q0 -29 14 -66 q10 -25 35 -53q20 -25 53 -37q35 -14 65.5 -14t67.5 14q33 12 53 37q29 33 37 53q12 31 13 66q0 37 -12.5 67.5t-37.5 55.5q-23 23 -53 35q-37 14 -67.5 14t-65.5 -14q-31 -12 -53 -35q-20 -20 -34.5 -55t-14.5 -68z" />
<glyph unicode="&#xb1;" d="M133 0v145h879v-145h-879zM133 659v146h365v366h147v-366h367v-146h-367v-366h-147v366h-365z" />
<glyph unicode="&#xb2;" horiz-adv-x="817" d="M76 586v147l225 189q57 47 88 86q29 37 53 82q18 33 29 79q8 35 8 82q0 63 -22 103q-22 37 -74 37q-34 0 -55 -19q-18 -16 -32.5 -47t-16.5 -65q-2 -25 -3 -72q-34 0 -67 6t-59.5 22.5t-40.5 38.5q-16 27 -17 56q0 39 18.5 69.5t57.5 53.5q47 27 90 36q55 12 125 13 q88 0 143 -15q51 -12 97 -45q37 -27 57 -69q18 -39 18 -90q0 -43 -12 -84q-12 -39 -47 -84q-41 -53 -90 -97q-74 -66 -146 -122l-167 -132h327q43 0 61.5 18.5t24.5 49.5l10 55h76l-8 -282h-651z" />
<glyph unicode="&#xb3;" horiz-adv-x="817" d="M80 623v106q22 -9 49 -18l59 -17q59 -12 64 -12q41 -4 61 -4q98 0 152 39q55 40 55 129q0 70 -55 106.5t-168 36.5h-68v96h68q39 0 72 13q31 10 57 35q23 20 39 55q14 31 14 72q0 63 -22 98q-20 33 -74 33q-33 0 -53 -15q-25 -16 -35 -39q-12 -23 -19 -57q-4 -20 -4 -68 q-29 0 -73 5q-37 4 -58 12q-25 10 -35 26q-12 18 -12 45q0 39 19 72q16 31 57 58q35 25 90 38q51 14 127 15q72 0 127 -15q61 -16 98 -38q41 -25 63.5 -64t22.5 -86q0 -90 -57 -147q-55 -55 -152 -80v-11q47 -6 91 -18q47 -14 77 -33q35 -23 55.5 -57.5t20.5 -91.5 q0 -72 -39 -127q-35 -49 -96 -82q-57 -31 -127 -45q-66 -14 -133 -15q-88 0 -152 15q-71 17 -106 35z" />
<glyph unicode="&#xb4;" horiz-adv-x="1181" d="M330 1241v27q23 29 49 67l55 78l53 82q29 47 41 74h322v-21q-14 -23 -64 -67q-49 -47 -98 -84l-113 -86q-55 -41 -106 -70h-139z" />
<glyph unicode="&#xb5;" horiz-adv-x="1361" d="M166 -223q0 37 4 127q3 68 6 147q0 18 3 81t5 101q6 203 6 228v637h312v-676q0 -39 8 -105q6 -47 25 -84q20 -41 47 -59q29 -20 75 -20q43 0 78 22q31 20 58 66q29 49 38 100q12 58 13 129v627h311v-815q0 -92 35 -133t104 -41h15v-109h-179q-104 0 -172 49 q-70 51 -94 129h-10q-25 -47 -51 -82q-33 -45 -60 -63q-35 -25 -73 -39q-41 -14 -97 -14q-80 0 -145 32q-61 31 -100 88q0 -63 8 -157q6 -66 29 -125q20 -51 67 -88q43 -33 115 -43q0 -39 -12 -72q-10 -27 -39 -55q-27 -27 -60 -39q-35 -12 -78 -12.5t-73 14.5 q-35 16 -62 45q-25 29 -41 82q-16 55 -16 127z" />
<glyph unicode="&#xb6;" horiz-adv-x="1282" d="M82 1192q0 90 16 149q18 63 56 115q37 49 98 74q68 27 147 26h803v-108h-26q-45 0 -66 -4q-35 -6 -53 -21q-23 -16 -35 -45q-14 -33 -14 -78v-1273q0 -43 14 -76q12 -29 35 -45q25 -18 53 -21q41 -4 66 -4h26v-108h-342v1657h-172v-1657h-342v108h27q25 0 65 4 q29 2 53.5 20.5t36.5 45.5q12 29 13 76v764h-146q-90 0 -149.5 32.5t-95.5 87.5q-35 53 -52 129q-16 78 -16 152z" />
<glyph unicode="&#xb7;" horiz-adv-x="622" d="M143 727q0 47 12.5 78t37.5 51q18 16 53 27q27 8 65 8q37 0 64 -8q35 -10 53 -27q25 -20 37 -51q14 -35 14 -78t-14 -78q-12 -31 -37 -51q-18 -16 -53 -27q-27 -8 -64 -8q-39 0 -65 8q-35 10 -53 27q-25 20 -37.5 51t-12.5 78z" />
<glyph unicode="&#xb8;" horiz-adv-x="681" d="M102 -344q37 -9 74 -12q49 -4 66 -4q59 0 92 20.5t33 73.5q0 33 -11 49q-12 18 -32 31q-16 8 -50 16q-20 4 -61 8l43 180h117l-21 -88q51 -4 90 -18q45 -18 70 -39q29 -25 43 -57q16 -37 16 -74q0 -57 -20.5 -98t-58.5 -74q-33 -29 -93 -45q-55 -16 -118 -17h-39 q-8 0 -26.5 3.5t-20.5 3.5l-50 6q-20 2 -43 10v125z" />
<glyph unicode="&#xb9;" horiz-adv-x="817" d="M96 1311q35 8 82 30.5t107 63.5l92 68h151v-717q0 -27 7 -41q6 -12 20 -25q8 -6 31 -10q12 -2 37 -2h84v-90h-578v90h104q27 0 37 2q20 4 29 10q14 12 20 25q6 14 7 41v581q-49 -58 -86 -92q-39 -35 -74 -35q-29 0 -49.5 29t-20.5 72z" />
<glyph unicode="&#xba;" horiz-adv-x="894" d="M72 1126q0 174 96 260q95 86 283 87q92 0 155 -21q66 -20 117 -66q49 -43 74 -106q27 -70 26 -154q0 -176 -96 -262t-281 -86q-178 0 -276 86t-98 262zM311 1126q0 -123 31 -184t106.5 -61t106.5 61.5t31 184t-31 180.5q-31 59 -109 59q-74 0 -104 -59q-31 -58 -31 -181z " />
<glyph unicode="&#xbb;" horiz-adv-x="1134" d="M133 143l207 410l-207 410h143l314 -357v-106l-314 -357h-143zM545 143l207 410l-207 410h143l313 -357v-106l-313 -357h-143z" />
<glyph unicode="&#xbc;" horiz-adv-x="1718" d="M10 1311q35 8 82 30.5t107 63.5l92 68h151v-717q0 -27 7 -41q6 -12 20 -25q8 -6 31 -10q12 -2 37 -2h84v-90h-578v90h104q27 0 37 2q20 4 29 10q14 12 20 25q6 14 7 41v581q-49 -58 -86 -92q-39 -35 -74 -35q-29 0 -49.5 29t-20.5 72zM418 0l731 1462h158l-729 -1462 h-160zM930 239v82l407 564h185v-537h159v-109h-159v-71q0 -20 8 -41q6 -15 18 -25q8 -6 27 -10q10 -2 33 -2h41v-90h-471v90h57q23 0 33 2q18 4 26 10q12 9 19 25q6 14 6 41v71h-389zM1065 348h254v246q0 43 2 63q6 51 8 70l-16 -33q-2 -4 -7.5 -12t-7.5 -13z" />
<glyph unicode="&#xbd;" horiz-adv-x="1718" d="M10 1311q35 8 82 30.5t107 63.5l92 68h151v-717q0 -27 7 -41q6 -12 20 -25q8 -6 31 -10q12 -2 37 -2h84v-90h-578v90h104q27 0 37 2q20 4 29 10q14 12 20 25q6 14 7 41v581q-49 -58 -86 -92q-39 -35 -74 -35q-29 0 -49.5 29t-20.5 72zM377 0l731 1462h158l-729 -1462 h-160zM1006 0v147l225 189q57 47 88 86q29 37 53 82q18 33 29 79q8 35 8 82q0 63 -22 103q-22 37 -74 37q-34 0 -55 -19q-18 -16 -32.5 -47t-16.5 -65q-2 -25 -3 -72q-34 0 -67 6t-59.5 22.5t-40.5 38.5q-16 27 -17 56q0 39 18.5 69.5t57.5 53.5q47 27 90 36q55 12 125 13 q88 0 143 -15q51 -12 97 -45q37 -27 57 -69q18 -39 18 -90q0 -43 -12 -84q-12 -39 -47 -84q-41 -53 -90 -97q-74 -66 -146 -122l-167 -132h327q43 0 61.5 18.5t24.5 49.5l10 55h76l-8 -282h-651z" />
<glyph unicode="&#xbe;" horiz-adv-x="1718" d="M80 623v106q22 -9 49 -18l59 -17q59 -12 64 -12q41 -4 61 -4q98 0 152 39q55 40 55 129q0 70 -55 106.5t-168 36.5h-68v96h68q39 0 72 13q31 10 57 35q23 20 39 55q14 31 14 72q0 63 -22 98q-20 33 -74 33q-33 0 -53 -15q-25 -16 -35 -39q-12 -23 -19 -57q-4 -20 -4 -68 q-29 0 -73 5q-37 4 -58 12q-25 10 -35 26q-12 18 -12 45q0 39 19 72q16 31 57 58q35 25 90 38q51 14 127 15q72 0 127 -15q61 -16 98 -38q41 -25 63.5 -64t22.5 -86q0 -90 -57 -147q-55 -55 -152 -80v-11q47 -6 91 -18q47 -14 77 -33q35 -23 55.5 -57.5t20.5 -91.5 q0 -72 -39 -127q-35 -49 -96 -82q-57 -31 -127 -45q-66 -14 -133 -15q-88 0 -152 15q-71 17 -106 35zM459 0l731 1462h158l-729 -1462h-160zM930 239v82l407 564h185v-537h159v-109h-159v-71q0 -20 8 -41q6 -15 18 -25q8 -6 27 -10q10 -2 33 -2h41v-90h-471v90h57q23 0 33 2 q18 4 26 10q12 9 19 25q6 14 6 41v71h-389zM1065 348h254v246q0 43 2 63q6 51 8 70l-16 -33q-2 -4 -7.5 -12t-7.5 -13z" />
<glyph unicode="&#xbf;" horiz-adv-x="1124" d="M113 -14q0 78 26 147q23 59 76 119q43 47 127 98q72 43 178 88l41 187h125l41 -252q-86 -33 -143.5 -82t-87.5 -103q-35 -61 -45 -114q-12 -61 -13 -121q0 -55 8.5 -90t28.5 -70q16 -29 51 -45q33 -16 72 -16q49 0 78 20q33 23 49 55q20 39 29 84q8 41 8 99q70 0 117 -8 q53 -10 90 -27q41 -18 61.5 -45t20.5 -64q0 -47 -27 -94q-25 -43 -78 -74q-57 -33 -137 -51q-84 -18 -195 -18q-100 0 -200 26q-88 25 -158 74q-68 49 -104 119q-39 74 -39 158zM459 944q0 43 14 78q10 27 37 49q23 20 53 29q27 8 64 8q39 0 65 -8q33 -10 56 -29 q23 -20 34 -49q12 -31 12.5 -78t-12.5 -78q-12 -33 -34 -51q-18 -16 -56 -27q-27 -8 -65 -8q-37 0 -64 8q-35 10 -53 27q-25 20 -37 51q-14 35 -14 78z" />
<glyph unicode="&#xc0;" horiz-adv-x="1540" d="M8 0v109h25q28 0 49 6q25 6 43 22q14 12 37 45q10 16 35 76l444 1204h281l428 -1206q12 -35 32 -72q16 -31 35 -45q20 -16 41 -22q29 -8 47 -8h37v-109h-676v109h80q10 0 31 4q12 2 29 14q10 8 20 25q8 14 8 36q0 25 -6 48q-8 29 -12 40l-72 205h-498l-59 -176 q0 -2 -16 -59q-8 -31 -9 -58q0 -20 9 -34q10 -16 20 -25q8 -6 29 -14q14 -6 35 -6h86v-109h-533zM489 606h414l-108 336l-23 74q-6 20 -11 39.5t-11 38.5l-23 80q-6 27 -18 75q-18 -61 -21 -67q-12 -37 -26 -76l-12.5 -41t-14.5 -39l-25 -74zM377 1886v21h321q12 -27 41 -74 l54 -82q14 -25 55 -78l24.5 -33.5l24.5 -33.5v-27h-139q-51 29 -107 70l-112 86q-49 37 -99 84q-49 44 -63 67z" />
<glyph unicode="&#xc1;" horiz-adv-x="1540" d="M8 0v109h25q28 0 49 6q25 6 43 22q14 12 37 45q10 16 35 76l444 1204h281l428 -1206q12 -35 32 -72q16 -31 35 -45q20 -16 41 -22q29 -8 47 -8h37v-109h-676v109h80q10 0 31 4q12 2 29 14q10 8 20 25q8 14 8 36q0 25 -6 48q-8 29 -12 40l-72 205h-498l-59 -176 q0 -2 -16 -59q-8 -31 -9 -58q0 -20 9 -34q10 -16 20 -25q8 -6 29 -14q14 -6 35 -6h86v-109h-533zM489 606h414l-108 336l-23 74q-6 20 -11 39.5t-11 38.5l-23 80q-6 27 -18 75q-18 -61 -21 -67q-12 -37 -26 -76l-12.5 -41t-14.5 -39l-25 -74zM641 1579v27q23 29 49 67l55 78 l53 82q29 47 41 74h322v-21q-14 -23 -64 -67q-49 -47 -98 -84l-113 -86q-55 -41 -106 -70h-139z" />
<glyph unicode="&#xc2;" horiz-adv-x="1540" d="M8 0v109h25q28 0 49 6q25 6 43 22q14 12 37 45q10 16 35 76l444 1204h281l428 -1206q12 -35 32 -72q16 -31 35 -45q20 -16 41 -22q29 -8 47 -8h37v-109h-676v109h80q10 0 31 4q12 2 29 14q10 8 20 25q8 14 8 36q0 25 -6 48q-8 29 -12 40l-72 205h-498l-59 -176 q0 -2 -16 -59q-8 -31 -9 -58q0 -20 9 -34q10 -16 20 -25q8 -6 29 -14q14 -6 35 -6h86v-109h-533zM489 606h414l-108 336l-23 74q-6 20 -11 39.5t-11 38.5l-23 80q-6 27 -18 75q-18 -61 -21 -67q-12 -37 -26 -76l-12.5 -41t-14.5 -39l-25 -74zM415 1579v27l56 67l65 78 q27 35 60 82q33 49 45 74h276q12 -25 45 -74q33 -47 60 -82l63 -78l57 -67v-27h-141l-49 39l-62 49l-59 49l-53 47l-53 -47l-60 -49l-29.5 -24.5l-29.5 -24.5l-49 -39h-142z" />
<glyph unicode="&#xc3;" horiz-adv-x="1540" d="M8 0v109h25q28 0 49 6q25 6 43 22q14 12 37 45q10 16 35 76l444 1204h281l428 -1206q12 -35 32 -72q16 -31 35 -45q20 -16 41 -22q29 -8 47 -8h37v-109h-676v109h80q10 0 31 4q12 2 29 14q10 8 20 25q8 14 8 36q0 25 -6 48q-8 29 -12 40l-72 205h-498l-59 -176 q0 -2 -16 -59q-8 -31 -9 -58q0 -20 9 -34q10 -16 20 -25q8 -6 29 -14q14 -6 35 -6h86v-109h-533zM489 606h414l-108 336l-23 74q-6 20 -11 39.5t-11 38.5l-23 80q-6 27 -18 75q-18 -61 -21 -67q-12 -37 -26 -76l-12.5 -41t-14.5 -39l-25 -74zM364 1600q4 68 23 116 q20 51 55 97q31 39 80 65q47 25 100 25q57 0 99 -21q76 -37 84 -43l71 -45q33 -20 66 -20q18 0 38.5 10t30.5 22q14 18 21 35q8 23 10 41h133q-4 -68 -22 -117q-20 -51 -55 -96q-33 -41 -78 -65.5t-101 -24.5q-59 0 -100 21l-82 43l-72 45q-33 20 -67 20q-25 0 -41 -8 q-14 -8 -29 -25q-14 -18 -20 -34q-8 -23 -11 -41h-133z" />
<glyph unicode="&#xc4;" horiz-adv-x="1540" d="M8 0v109h25q28 0 49 6q25 6 43 22q14 12 37 45q10 16 35 76l444 1204h281l428 -1206q12 -35 32 -72q16 -31 35 -45q20 -16 41 -22q29 -8 47 -8h37v-109h-676v109h80q10 0 31 4q12 2 29 14q10 8 20 25q8 14 8 36q0 25 -6 48q-8 29 -12 40l-72 205h-498l-59 -176 q0 -2 -16 -59q-8 -31 -9 -58q0 -20 9 -34q10 -16 20 -25q8 -6 29 -14q14 -6 35 -6h86v-109h-533zM489 606h414l-108 336l-23 74q-6 20 -11 39.5t-11 38.5l-23 80q-6 27 -18 75q-18 -61 -21 -67q-12 -37 -26 -76l-12.5 -41t-14.5 -39l-25 -74zM436 1747q0 33 10 59 q8 20 27 39q16 16 38.5 22.5t45.5 6.5q27 0 47 -6q18 -6 39 -23q18 -14 27 -39q10 -27 10 -59.5t-10 -58.5q-8 -25 -27 -39q-20 -16 -39 -23q-20 -6 -47 -6q-23 0 -45.5 6t-38.5 23q-18 18 -27 39q-10 26 -10 59zM856 1747q0 33 10 59q8 25 27 39q20 16 39 23q20 6 47 6 q23 0 45 -6q18 -6 39 -23q18 -14 26 -39q10 -27 10.5 -59.5t-10.5 -58.5q-8 -25 -26 -39q-20 -16 -39 -23q-23 -6 -45 -6q-27 0 -47 6q-18 6 -39 23q-18 14 -27 39q-10 26 -10 59z" />
<glyph unicode="&#xc5;" horiz-adv-x="1540" d="M8 0v109h25q28 0 49 6q25 6 43 22q14 12 37 45q10 16 35 76l444 1204h281l428 -1206q12 -35 32 -72q16 -31 35 -45q20 -16 41 -22q29 -8 47 -8h37v-109h-676v109h80q10 0 31 4q12 2 29 14q10 8 20 25q8 14 8 36q0 25 -6 48q-8 29 -12 40l-72 205h-498l-59 -176 q0 -2 -16 -59q-8 -31 -9 -58q0 -20 9 -34q10 -16 20 -25q8 -6 29 -14q14 -6 35 -6h86v-109h-533zM489 606h414l-108 336l-23 74q-6 20 -11 39.5t-11 38.5l-23 80q-6 27 -18 75q-18 -61 -21 -67q-12 -37 -26 -76l-12.5 -41t-14.5 -39l-25 -74zM532 1573q0 53 19 96 q16 41 53 70q35 29 78 43t96 14t96 -14.5t78 -42.5q37 -29 53 -70q18 -43 18.5 -96t-18.5 -96q-16 -41 -53 -70q-35 -29 -78 -43t-96 -14t-96 14t-78 43q-37 29 -53 70q-19 43 -19 96zM657 1573q0 -27 10 -51q10 -23 24.5 -35t39.5 -19q23 -6 47.5 -6t46.5 6q25 6 39 18.5 t25 35.5q10 25 10 51t-10 51q-10 23 -24.5 35t-39.5 18q-23 6 -47.5 6t-46.5 -6q-25 -6 -39 -18t-25 -35q-10 -24 -10 -51z" />
<glyph unicode="&#xc6;" horiz-adv-x="2033" d="M0 0v109h25q55 0 96 38q39 37 86 121l575 1075l-135 11v108h1243l8 -377h-143l-10 97q-10 76 -39 114q-31 41 -92 41h-344v-512h485v-123h-485v-577h409q33 0 54 12q23 12 36 33q18 27 27 49q6 20 14 62l17 96h141l-14 -377h-1200v109h86q55 0 80 34q25 33 24 88v238 h-471l-86 -172q-10 -14 -25 -61q-8 -25 -8 -48q0 -43 31 -61t92 -18h35v-109h-512zM539 592h405v745h-20z" />
<glyph unicode="&#xc7;" horiz-adv-x="1366" d="M113 733q0 168 45 303q47 143 133 238q89 98 221 153.5t307 55.5q119 0 205 -19q82 -16 145 -51q61 -33 88 -74q29 -45 29 -94q0 -35 -16 -71q-12 -29 -49 -56q-35 -27 -80 -37q-57 -14 -111 -14q0 61 -10 102q-12 53 -39 91q-33 45 -70 67q-43 25 -106 25 q-94 0 -164 -41t-108.5 -119t-57 -194.5t-18.5 -264.5q0 -143 22 -260q20 -109 72 -184q47 -72 127 -109t192 -37q82 0 134 17q55 16 104 47q46 28 80 61q39 39 61 70q15 -12 25 -37q10 -27 10 -51q0 -41 -22 -90q-23 -47 -78 -88q-57 -43 -144 -66q-96 -27 -219 -26 q-178 0 -311 55q-135 57 -221 151.5t-131 239.5t-45 307zM493 -344q37 -9 74 -12q49 -4 66 -4q59 0 92 20.5t33 73.5q0 33 -11 49q-12 18 -32 31q-16 8 -50 16q-20 4 -61 8l43 180h117l-21 -88q51 -4 90 -18q45 -18 70 -39q29 -25 43 -57q16 -37 16 -74q0 -57 -20.5 -98 t-58.5 -74q-33 -29 -93 -45q-55 -16 -118 -17h-39q-8 0 -26.5 3.5t-20.5 3.5l-50 6q-20 2 -43 10v125z" />
<glyph unicode="&#xc8;" horiz-adv-x="1335" d="M57 0v109h86q16 0 41 4q16 2 33 16q12 10 23 37q8 23 8 65v990q0 47 -8 69q-10 29 -23 41q-16 16 -33 19q-25 4 -41 4h-86v108h1137l8 -377h-143l-10 97q-10 80 -37 114q-31 41 -94 41h-345v-512h486v-123h-486v-577h410q33 0 53 12q23 12 37 33q18 27 27 49q6 20 14 62 l16 96h142l-15 -377h-1200zM307 1886v21h321q12 -27 41 -74l54 -82q14 -25 55 -78l24.5 -33.5l24.5 -33.5v-27h-139q-51 29 -107 70l-112 86q-49 37 -99 84q-49 44 -63 67z" />
<glyph unicode="&#xc9;" horiz-adv-x="1335" d="M57 0v109h86q16 0 41 4q16 2 33 16q12 10 23 37q8 23 8 65v990q0 47 -8 69q-10 29 -23 41q-16 16 -33 19q-25 4 -41 4h-86v108h1137l8 -377h-143l-10 97q-10 80 -37 114q-31 41 -94 41h-345v-512h486v-123h-486v-577h410q33 0 53 12q23 12 37 33q18 27 27 49q6 20 14 62 l16 96h142l-15 -377h-1200zM523 1579v27q23 29 49 67l55 78l53 82q29 47 41 74h322v-21q-14 -23 -64 -67q-49 -47 -98 -84l-113 -86q-55 -41 -106 -70h-139z" />
<glyph unicode="&#xca;" horiz-adv-x="1335" d="M57 0v109h86q16 0 41 4q16 2 33 16q12 10 23 37q8 23 8 65v990q0 47 -8 69q-10 29 -23 41q-16 16 -33 19q-25 4 -41 4h-86v108h1137l8 -377h-143l-10 97q-10 80 -37 114q-31 41 -94 41h-345v-512h486v-123h-486v-577h410q33 0 53 12q23 12 37 33q18 27 27 49q6 20 14 62 l16 96h142l-15 -377h-1200zM288 1579v27l56 67l65 78q27 35 60 82q33 49 45 74h276q12 -25 45 -74q33 -47 60 -82l63 -78l57 -67v-27h-141l-49 39l-62 49l-59 49l-53 47l-53 -47l-60 -49l-29.5 -24.5l-29.5 -24.5l-49 -39h-142z" />
<glyph unicode="&#xcb;" horiz-adv-x="1335" d="M57 0v109h86q16 0 41 4q16 2 33 16q12 10 23 37q8 23 8 65v990q0 47 -8 69q-10 29 -23 41q-16 16 -33 19q-25 4 -41 4h-86v108h1137l8 -377h-143l-10 97q-10 80 -37 114q-31 41 -94 41h-345v-512h486v-123h-486v-577h410q33 0 53 12q23 12 37 33q18 27 27 49q6 20 14 62 l16 96h142l-15 -377h-1200zM356 1747q0 33 10 59q8 20 27 39q16 16 38.5 22.5t45.5 6.5q27 0 47 -6q18 -6 39 -23q18 -14 27 -39q10 -27 10 -59.5t-10 -58.5q-8 -25 -27 -39q-20 -16 -39 -23q-20 -6 -47 -6q-23 0 -45.5 6t-38.5 23q-18 18 -27 39q-10 26 -10 59zM776 1747 q0 33 10 59q8 25 27 39q20 16 39 23q20 6 47 6q23 0 45 -6q18 -6 39 -23q18 -14 26 -39q10 -27 10.5 -59.5t-10.5 -58.5q-8 -25 -26 -39q-20 -16 -39 -23q-23 -6 -45 -6q-27 0 -47 6q-18 6 -39 23q-18 14 -27 39q-10 26 -10 59z" />
<glyph unicode="&#xcc;" horiz-adv-x="819" d="M57 0v109h86q16 0 41 4q16 2 33 18q12 12 23 41q8 23 8 70v979q0 47 -8 69q-10 27 -23 39q-16 16 -33 19q-37 6 -41 6h-86v108h707v-108h-86q-4 0 -41 -6q-20 -4 -35 -19q-10 -10 -20 -39q-8 -23 -9 -69v-979q0 -47 9 -70q12 -33 20 -41q14 -14 35 -18q25 -4 41 -4h86 v-109h-707zM47 1886v21h321q12 -27 41 -74l54 -82q14 -25 55 -78l24.5 -33.5l24.5 -33.5v-27h-139q-51 29 -107 70l-112 86q-49 37 -99 84q-49 44 -63 67z" />
<glyph unicode="&#xcd;" horiz-adv-x="819" d="M57 0v109h86q16 0 41 4q16 2 33 18q12 12 23 41q8 23 8 70v979q0 47 -8 69q-10 27 -23 39q-16 16 -33 19q-37 6 -41 6h-86v108h707v-108h-86q-4 0 -41 -6q-20 -4 -35 -19q-10 -10 -20 -39q-8 -23 -9 -69v-979q0 -47 9 -70q12 -33 20 -41q14 -14 35 -18q25 -4 41 -4h86 v-109h-707zM252 1579v27q23 29 49 67l55 78l53 82q29 47 41 74h322v-21q-14 -23 -64 -67q-49 -47 -98 -84l-113 -86q-55 -41 -106 -70h-139z" />
<glyph unicode="&#xce;" horiz-adv-x="819" d="M57 0v109h86q16 0 41 4q16 2 33 18q12 12 23 41q8 23 8 70v979q0 47 -8 69q-10 27 -23 39q-16 16 -33 19q-37 6 -41 6h-86v108h707v-108h-86q-4 0 -41 -6q-20 -4 -35 -19q-10 -10 -20 -39q-8 -23 -9 -69v-979q0 -47 9 -70q12 -33 20 -41q14 -14 35 -18q25 -4 41 -4h86 v-109h-707zM49 1579v27l56 67l65 78q27 35 60 82q33 49 45 74h276q12 -25 45 -74q33 -47 60 -82l63 -78l57 -67v-27h-141l-49 39l-62 49l-59 49l-53 47l-53 -47l-60 -49l-29.5 -24.5l-29.5 -24.5l-49 -39h-142z" />
<glyph unicode="&#xcf;" horiz-adv-x="819" d="M57 0v109h86q16 0 41 4q16 2 33 18q12 12 23 41q8 23 8 70v979q0 47 -8 69q-10 27 -23 39q-16 16 -33 19q-37 6 -41 6h-86v108h707v-108h-86q-4 0 -41 -6q-20 -4 -35 -19q-10 -10 -20 -39q-8 -23 -9 -69v-979q0 -47 9 -70q12 -33 20 -41q14 -14 35 -18q25 -4 41 -4h86 v-109h-707zM80 1747q0 33 10 59q8 20 27 39q16 16 38.5 22.5t45.5 6.5q27 0 47 -6q18 -6 39 -23q18 -14 27 -39q10 -27 10 -59.5t-10 -58.5q-8 -25 -27 -39q-20 -16 -39 -23q-20 -6 -47 -6q-23 0 -45.5 6t-38.5 23q-18 18 -27 39q-10 26 -10 59zM500 1747q0 33 10 59 q8 25 27 39q20 16 39 23q20 6 47 6q23 0 45 -6q18 -6 39 -23q18 -14 26 -39q10 -27 10.5 -59.5t-10.5 -58.5q-8 -25 -26 -39q-20 -16 -39 -23q-23 -6 -45 -6q-27 0 -47 6q-18 6 -39 23q-18 14 -27 39q-10 26 -10 59z" />
<glyph unicode="&#xd0;" horiz-adv-x="1570" d="M57 0v109h86q16 0 41 4q16 2 33 18q12 12 23 41q8 23 8 70v460h-170v125h170v402q0 43 -8 65q-10 27 -23 37q-20 16 -33 19q-25 4 -41 4h-86v108h676q164 0 305 -45q133 -43 228 -133q96 -94 143 -219q49 -132 49 -307q0 -166 -47 -307q-47 -139 -137 -239.5t-227 -156.5 q-135 -55 -314 -55h-676zM571 127h115q104 0 184 43t134 127q57 90 81 197q27 113 27 264q0 291 -108 436q-106 143 -316 143h-117v-510h256v-125h-256v-575z" />
<glyph unicode="&#xd1;" horiz-adv-x="1613" d="M57 0v109h86q16 0 41 4q16 2 33 18q12 12 23 41q8 23 8 70v987q0 43 -8 65q-10 27 -23 37q-20 16 -35 19q-25 4 -39 4h-86v108h455l723 -1022v789q0 43 -8 65q-10 27 -23 37q-20 16 -35 19q-25 4 -39 4h-86v108h535v-108h-86q-16 0 -41 -4q-16 -2 -33 -19 q-12 -12 -22 -41q-8 -23 -8 -69v-1221h-189l-799 1128v-886q0 -47 9 -70q10 -29 22 -41q16 -16 33 -18q25 -4 41 -4h86v-109h-535zM420 1600q4 68 23 116q20 51 55 97q31 39 80 65q47 25 100 25q57 0 99 -21q76 -37 84 -43l71 -45q33 -20 66 -20q18 0 38.5 10t30.5 22 q14 18 21 35q8 23 10 41h133q-4 -68 -22 -117q-20 -51 -55 -96q-33 -41 -78 -65.5t-101 -24.5q-59 0 -100 21l-82 43l-72 45q-33 20 -67 20q-25 0 -41 -8q-14 -8 -29 -25q-14 -18 -20 -34q-8 -23 -11 -41h-133z" />
<glyph unicode="&#xd2;" horiz-adv-x="1611" d="M113 735q0 170 43 309q43 137 129 235.5t217 152t307 53.5q164 0 295 -53q125 -51 217 -152q86 -94 133 -238q45 -135 45 -309q0 -172 -45 -307q-47 -143 -135 -240q-86 -96 -217 -151q-129 -55 -295 -55q-176 0 -305 55q-135 57 -217 151q-84 96 -129 240 q-43 139 -43 309zM457 733q0 -147 18.5 -262t61.5 -195q43 -78 108 -120q68 -43 162 -43t162 43q70 45 108 120q41 82 60 195q18 115 18 262.5t-18 261.5q-18 113 -60 195q-37 76 -106 121q-61 41 -161.5 41t-164.5 -41q-66 -43 -108 -121q-43 -80 -61.5 -195t-18.5 -262z M432 1886v21h321q12 -27 41 -74l54 -82q14 -25 55 -78l24.5 -33.5l24.5 -33.5v-27h-139q-51 29 -107 70l-112 86q-49 37 -99 84q-49 44 -63 67z" />
<glyph unicode="&#xd3;" horiz-adv-x="1611" d="M113 735q0 170 43 309q43 137 129 235.5t217 152t307 53.5q164 0 295 -53q125 -51 217 -152q86 -94 133 -238q45 -135 45 -309q0 -172 -45 -307q-47 -143 -135 -240q-86 -96 -217 -151q-129 -55 -295 -55q-176 0 -305 55q-135 57 -217 151q-84 96 -129 240 q-43 139 -43 309zM457 733q0 -147 18.5 -262t61.5 -195q43 -78 108 -120q68 -43 162 -43t162 43q70 45 108 120q41 82 60 195q18 115 18 262.5t-18 261.5q-18 113 -60 195q-37 76 -106 121q-61 41 -161.5 41t-164.5 -41q-66 -43 -108 -121q-43 -80 -61.5 -195t-18.5 -262z M666 1579v27q23 29 49 67l55 78l53 82q29 47 41 74h322v-21q-14 -23 -64 -67q-49 -47 -98 -84l-113 -86q-55 -41 -106 -70h-139z" />
<glyph unicode="&#xd4;" horiz-adv-x="1611" d="M113 735q0 170 43 309q43 137 129 235.5t217 152t307 53.5q164 0 295 -53q125 -51 217 -152q86 -94 133 -238q45 -135 45 -309q0 -172 -45 -307q-47 -143 -135 -240q-86 -96 -217 -151q-129 -55 -295 -55q-176 0 -305 55q-135 57 -217 151q-84 96 -129 240 q-43 139 -43 309zM457 733q0 -147 18.5 -262t61.5 -195q43 -78 108 -120q68 -43 162 -43t162 43q70 45 108 120q41 82 60 195q18 115 18 262.5t-18 261.5q-18 113 -60 195q-37 76 -106 121q-61 41 -161.5 41t-164.5 -41q-66 -43 -108 -121q-43 -80 -61.5 -195t-18.5 -262z M440 1579v27l56 67l65 78q27 35 60 82q33 49 45 74h276q12 -25 45 -74q33 -47 60 -82l63 -78l57 -67v-27h-141l-49 39l-62 49l-59 49l-53 47l-53 -47l-60 -49l-29.5 -24.5l-29.5 -24.5l-49 -39h-142z" />
<glyph unicode="&#xd5;" horiz-adv-x="1611" d="M113 735q0 170 43 309q43 137 129 235.5t217 152t307 53.5q164 0 295 -53q125 -51 217 -152q86 -94 133 -238q45 -135 45 -309q0 -172 -45 -307q-47 -143 -135 -240q-86 -96 -217 -151q-129 -55 -295 -55q-176 0 -305 55q-135 57 -217 151q-84 96 -129 240 q-43 139 -43 309zM457 733q0 -147 18.5 -262t61.5 -195q43 -78 108 -120q68 -43 162 -43t162 43q70 45 108 120q41 82 60 195q18 115 18 262.5t-18 261.5q-18 113 -60 195q-37 76 -106 121q-61 41 -161.5 41t-164.5 -41q-66 -43 -108 -121q-43 -80 -61.5 -195t-18.5 -262z M397 1600q4 68 23 116q20 51 55 97q31 39 80 65q47 25 100 25q57 0 99 -21q76 -37 84 -43l71 -45q33 -20 66 -20q18 0 38.5 10t30.5 22q14 18 21 35q8 23 10 41h133q-4 -68 -22 -117q-20 -51 -55 -96q-33 -41 -78 -65.5t-101 -24.5q-59 0 -100 21l-82 43l-72 45 q-33 20 -67 20q-25 0 -41 -8q-14 -8 -29 -25q-14 -18 -20 -34q-8 -23 -11 -41h-133z" />
<glyph unicode="&#xd6;" horiz-adv-x="1611" d="M113 735q0 170 43 309q43 137 129 235.5t217 152t307 53.5q164 0 295 -53q125 -51 217 -152q86 -94 133 -238q45 -135 45 -309q0 -172 -45 -307q-47 -143 -135 -240q-86 -96 -217 -151q-129 -55 -295 -55q-176 0 -305 55q-135 57 -217 151q-84 96 -129 240 q-43 139 -43 309zM457 733q0 -147 18.5 -262t61.5 -195q43 -78 108 -120q68 -43 162 -43t162 43q70 45 108 120q41 82 60 195q18 115 18 262.5t-18 261.5q-18 113 -60 195q-37 76 -106 121q-61 41 -161.5 41t-164.5 -41q-66 -43 -108 -121q-43 -80 -61.5 -195t-18.5 -262z M463 1747q0 33 10 59q8 20 27 39q16 16 38.5 22.5t45.5 6.5q27 0 47 -6q18 -6 39 -23q18 -14 27 -39q10 -27 10 -59.5t-10 -58.5q-8 -25 -27 -39q-20 -16 -39 -23q-20 -6 -47 -6q-23 0 -45.5 6t-38.5 23q-18 18 -27 39q-10 26 -10 59zM883 1747q0 33 10 59q8 25 27 39 q20 16 39 23q20 6 47 6q23 0 45 -6q18 -6 39 -23q18 -14 26 -39q10 -27 10.5 -59.5t-10.5 -58.5q-8 -25 -26 -39q-20 -16 -39 -23q-23 -6 -45 -6q-27 0 -47 6q-18 6 -39 23q-18 14 -27 39q-10 26 -10 59z" />
<glyph unicode="&#xd7;" d="M166 432l301 303l-301 301l104 103l301 -301l301 303l105 -105l-303 -303l303 -303l-103 -102l-303 303l-301 -303z" />
<glyph unicode="&#xd8;" horiz-adv-x="1611" d="M113 735q0 170 43 309q43 137 129 235.5t217 152t307 53.5q90 0 160 -15q80 -16 141 -43l64 119h143l-96 -178q137 -96 206 -258q72 -166 72 -377q0 -172 -45 -307q-47 -143 -135 -240q-86 -96 -217 -151q-129 -55 -295 -55q-172 0 -303 53l-62 -115h-145l94 174 q-141 96 -209 260q-69 170 -69 383zM457 733q0 -135 14 -229q16 -109 45 -180l506 942q-35 39 -92 63q-55 23 -121 23q-100 0 -164 -41q-66 -43 -108 -121q-43 -80 -61.5 -195t-18.5 -262zM592 197q39 -41 92 -64q49 -20 123 -20q94 0 162 43q70 45 108 120q41 82 60 195 q18 115 18 262q0 133 -14 228q-16 104 -43 180z" />
<glyph unicode="&#xd9;" horiz-adv-x="1529" d="M33 1354v108h706v-108h-86q-16 0 -41 -4q-16 -2 -32 -19q-12 -12 -23 -41q-8 -23 -8 -69v-791q0 -84 22 -145q20 -53 62 -92q39 -35 94 -52q59 -16 127 -16t123 18q57 18 94 53t59 95q20 55 21 135v803q0 43 -8 65q-10 27 -23 37q-20 16 -33 19q-25 4 -40 4h-86v108h536 v-108h-88q-16 0 -41 -4q-16 -2 -33 -19q-12 -12 -22 -41q-8 -23 -8 -69v-799q0 -106 -29 -184q-29 -80 -92 -140q-59 -57 -160 -88q-98 -31 -231 -30q-127 0 -240 26q-104 25 -178 80q-68 51 -111 145q-39 86 -39 215v783q0 43 -8 65q-9 25 -24 37q-20 16 -33 19 q-25 4 -39 4h-88zM432 1886v21h321q12 -27 41 -74l54 -82q14 -25 55 -78l24.5 -33.5l24.5 -33.5v-27h-139q-51 29 -107 70l-112 86q-49 37 -99 84q-49 44 -63 67z" />
<glyph unicode="&#xda;" horiz-adv-x="1529" d="M33 1354v108h706v-108h-86q-16 0 -41 -4q-16 -2 -32 -19q-12 -12 -23 -41q-8 -23 -8 -69v-791q0 -84 22 -145q20 -53 62 -92q39 -35 94 -52q59 -16 127 -16t123 18q57 18 94 53t59 95q20 55 21 135v803q0 43 -8 65q-10 27 -23 37q-20 16 -33 19q-25 4 -40 4h-86v108h536 v-108h-88q-16 0 -41 -4q-16 -2 -33 -19q-12 -12 -22 -41q-8 -23 -8 -69v-799q0 -106 -29 -184q-29 -80 -92 -140q-59 -57 -160 -88q-98 -31 -231 -30q-127 0 -240 26q-104 25 -178 80q-68 51 -111 145q-39 86 -39 215v783q0 43 -8 65q-9 25 -24 37q-20 16 -33 19 q-25 4 -39 4h-88zM643 1579v27q23 29 49 67l55 78l53 82q29 47 41 74h322v-21q-14 -23 -64 -67q-49 -47 -98 -84l-113 -86q-55 -41 -106 -70h-139z" />
<glyph unicode="&#xdb;" horiz-adv-x="1529" d="M33 1354v108h706v-108h-86q-16 0 -41 -4q-16 -2 -32 -19q-12 -12 -23 -41q-8 -23 -8 -69v-791q0 -84 22 -145q20 -53 62 -92q39 -35 94 -52q59 -16 127 -16t123 18q57 18 94 53t59 95q20 55 21 135v803q0 43 -8 65q-10 27 -23 37q-20 16 -33 19q-25 4 -40 4h-86v108h536 v-108h-88q-16 0 -41 -4q-16 -2 -33 -19q-12 -12 -22 -41q-8 -23 -8 -69v-799q0 -106 -29 -184q-29 -80 -92 -140q-59 -57 -160 -88q-98 -31 -231 -30q-127 0 -240 26q-104 25 -178 80q-68 51 -111 145q-39 86 -39 215v783q0 43 -8 65q-9 25 -24 37q-20 16 -33 19 q-25 4 -39 4h-88zM454 1579v27l56 67l65 78q27 35 60 82q33 49 45 74h276q12 -25 45 -74q33 -47 60 -82l63 -78l57 -67v-27h-141l-49 39l-62 49l-59 49l-53 47l-53 -47l-60 -49l-29.5 -24.5l-29.5 -24.5l-49 -39h-142z" />
<glyph unicode="&#xdc;" horiz-adv-x="1529" d="M33 1354v108h706v-108h-86q-16 0 -41 -4q-16 -2 -32 -19q-12 -12 -23 -41q-8 -23 -8 -69v-791q0 -84 22 -145q20 -53 62 -92q39 -35 94 -52q59 -16 127 -16t123 18q57 18 94 53t59 95q20 55 21 135v803q0 43 -8 65q-10 27 -23 37q-20 16 -33 19q-25 4 -40 4h-86v108h536 v-108h-88q-16 0 -41 -4q-16 -2 -33 -19q-12 -12 -22 -41q-8 -23 -8 -69v-799q0 -106 -29 -184q-29 -80 -92 -140q-59 -57 -160 -88q-98 -31 -231 -30q-127 0 -240 26q-104 25 -178 80q-68 51 -111 145q-39 86 -39 215v783q0 43 -8 65q-9 25 -24 37q-20 16 -33 19 q-25 4 -39 4h-88zM494 1747q0 33 10 59q8 20 27 39q16 16 38.5 22.5t45.5 6.5q27 0 47 -6q18 -6 39 -23q18 -14 27 -39q10 -27 10 -59.5t-10 -58.5q-8 -25 -27 -39q-20 -16 -39 -23q-20 -6 -47 -6q-23 0 -45.5 6t-38.5 23q-18 18 -27 39q-10 26 -10 59zM914 1747q0 33 10 59 q8 25 27 39q20 16 39 23q20 6 47 6q23 0 45 -6q18 -6 39 -23q18 -14 26 -39q10 -27 10.5 -59.5t-10.5 -58.5q-8 -25 -26 -39q-20 -16 -39 -23q-23 -6 -45 -6q-27 0 -47 6q-18 6 -39 23q-18 14 -27 39q-10 26 -10 59z" />
<glyph unicode="&#xdd;" horiz-adv-x="1417" d="M0 1354v108h686v-108h-35q-61 0 -92 -24.5t-31 -67.5q0 -29 9 -56q8 -31 22 -57l152 -301l53 -115l37 -98q8 23 49 117q31 72 61 133l119 245q25 51 29 76q6 31 6 47q0 51 -33 76t-102 25h-47v108h536v-108h-39q-27 0 -45 -6q-20 -6 -35 -25q-18 -23 -34 -49 q-6 -10 -41 -80l-348 -678v-280q0 -43 10 -70t24.5 -39t34.5 -14q29 -4 45 -4h101v-109h-756v109h96q18 0 47 4q23 4 37 14q14 12 24.5 39t10.5 67v285l-379 727q-4 8 -29 51q-10 18 -28 33q-15 12 -37 19q-20 6 -51 6h-27zM602 1579v27q23 29 49 67l55 78l53 82 q29 47 41 74h322v-21q-14 -23 -64 -67q-49 -47 -98 -84l-113 -86q-55 -41 -106 -70h-139z" />
<glyph unicode="&#xde;" horiz-adv-x="1306" d="M57 0v109h86q16 0 41 4q16 2 33 18q12 12 23 41q8 23 8 70v979q0 47 -8 69q-10 29 -23 41q-16 16 -33 19q-25 4 -41 4h-86v108h707v-108h-84q-12 0 -41 -4q-18 -2 -35 -17q-15 -12 -24 -37q-8 -23 -9 -65v-37h115q147 -4 248 -33q102 -31 174 -86q68 -53 102.5 -135 t34.5 -180q0 -84 -33 -176q-31 -86 -102 -152q-63 -59 -188 -102q-111 -39 -281 -39h-70v-60q4 -47 11 -65q9 -25 24 -37q16 -14 33 -16q25 -4 41 -4h84v-109h-707zM571 410h50q77 0 129 18q49 16 86 61q33 39 49 107q16 70 16 156q0 72 -14 143q-12 59 -43 100 q-31 39 -76 58q-51 20 -117 20h-80v-663z" />
<glyph unicode="&#xdf;" horiz-adv-x="1445" d="M12 0v109h88q16 0 41 4q16 2 33 18q12 12 23 41q8 23 8 70v714h-164v142h164v20q0 123 41 215q39 86 112 144q68 53 168 77q90 23 211 23q143 0 241.5 -37t160.5 -110q68 -80 92 -179q29 -111 29 -245h-115q-51 0 -94 -7q-45 -6 -76 -20q-33 -14 -51 -43q-18 -28 -19 -68 q0 -37 12.5 -63.5t38.5 -50.5q18 -16 72 -47q35 -20 105 -52q68 -33 108 -67q45 -39 72 -80q25 -39 39 -90q12 -45 12 -94q0 -90 -27 -152q-27 -63 -80 -106q-53 -45 -127 -66q-70 -20 -169 -20q-92 0 -177 18q-80 18 -149 57v248h110q6 -41 25 -78q23 -45 43 -65 q28 -28 61 -43q37 -16 78 -17q72 0 109 35q41 37 41 103q0 33 -10 67q-10 31 -33 57q-27 29 -64 56q-41 29 -100 55q-72 33 -125 76q-45 37 -78 86q-31 45 -43 96q-12 49 -12 103q0 71 25 122q23 49 69 86q45 35 105 54q66 20 133 22q0 90 -17 160q-14 63 -45 106 q-29 43 -69 60q-43 18 -95 18q-55 0 -94 -16q-45 -20 -74 -53q-31 -37 -45 -90q-16 -59 -16 -129v-1174h-502z" />
<glyph unicode="&#xe0;" horiz-adv-x="1226" d="M92 313q0 166 115 246q117 82 344 88l168 6v113q0 37 -4 94q-2 39 -17 74q-10 25 -39 47q-25 18 -67 18q-37 0 -66 -16q-27 -14 -43 -47q-16 -35 -22 -70q-6 -39 -6 -88q-135 0 -207 31q-70 31 -70 106q0 57 33 96.5t92 64t133 36.5q76 12 164 12q109 0 188.5 -18.5 t133.5 -58.5q55 -41 82 -109q27 -66 26 -162v-522q0 -41 6 -70q6 -31 21 -45q16 -16 39 -22q33 -8 57 -8h8v-109h-381l-43 141h-18q-45 -53 -64 -71q-29 -29 -63 -52q-29 -18 -78 -28q-47 -10 -100 -10q-72 0 -127 20q-61 23 -101 61q-47 47 -69 105q-25 61 -25 147z M410 305q0 -88 28 -133q29 -43 88 -43q43 0 80 18q33 16 60 54q29 39 39 82q14 57 14 108v154l-92 -6q-59 -2 -103 -19q-37 -14 -67 -47q-23 -25 -35 -70q-12 -43 -12 -98zM238 1548v21h321q12 -27 41 -74l54 -82q14 -25 55 -78l24.5 -33.5l24.5 -33.5v-27h-139 q-51 29 -107 70l-112 86q-49 37 -99 84q-49 44 -63 67z" />
<glyph unicode="&#xe1;" horiz-adv-x="1226" d="M92 313q0 166 115 246q117 82 344 88l168 6v113q0 37 -4 94q-2 39 -17 74q-10 25 -39 47q-25 18 -67 18q-37 0 -66 -16q-27 -14 -43 -47q-16 -35 -22 -70q-6 -39 -6 -88q-135 0 -207 31q-70 31 -70 106q0 57 33 96.5t92 64t133 36.5q76 12 164 12q109 0 188.5 -18.5 t133.5 -58.5q55 -41 82 -109q27 -66 26 -162v-522q0 -41 6 -70q6 -31 21 -45q16 -16 39 -22q33 -8 57 -8h8v-109h-381l-43 141h-18q-45 -53 -64 -71q-29 -29 -63 -52q-29 -18 -78 -28q-47 -10 -100 -10q-72 0 -127 20q-61 23 -101 61q-47 47 -69 105q-25 61 -25 147z M410 305q0 -88 28 -133q29 -43 88 -43q43 0 80 18q33 16 60 54q29 39 39 82q14 57 14 108v154l-92 -6q-59 -2 -103 -19q-37 -14 -67 -47q-23 -25 -35 -70q-12 -43 -12 -98zM467 1241v27q23 29 49 67l55 78l53 82q29 47 41 74h322v-21q-14 -23 -64 -67q-49 -47 -98 -84 l-113 -86q-55 -41 -106 -70h-139z" />
<glyph unicode="&#xe2;" horiz-adv-x="1226" d="M92 313q0 166 115 246q117 82 344 88l168 6v113q0 37 -4 94q-2 39 -17 74q-10 25 -39 47q-25 18 -67 18q-37 0 -66 -16q-27 -14 -43 -47q-16 -35 -22 -70q-6 -39 -6 -88q-135 0 -207 31q-70 31 -70 106q0 57 33 96.5t92 64t133 36.5q76 12 164 12q109 0 188.5 -18.5 t133.5 -58.5q55 -41 82 -109q27 -66 26 -162v-522q0 -41 6 -70q6 -31 21 -45q16 -16 39 -22q33 -8 57 -8h8v-109h-381l-43 141h-18q-45 -53 -64 -71q-29 -29 -63 -52q-29 -18 -78 -28q-47 -10 -100 -10q-72 0 -127 20q-61 23 -101 61q-47 47 -69 105q-25 61 -25 147z M410 305q0 -88 28 -133q29 -43 88 -43q43 0 80 18q33 16 60 54q29 39 39 82q14 57 14 108v154l-92 -6q-59 -2 -103 -19q-37 -14 -67 -47q-23 -25 -35 -70q-12 -43 -12 -98zM256 1241v27l56 67l65 78q27 35 60 82q33 49 45 74h276q12 -25 45 -74q33 -47 60 -82l63 -78l57 -67 v-27h-141l-49 39l-62 49l-59 49l-53 47l-53 -47l-60 -49l-29.5 -24.5l-29.5 -24.5l-49 -39h-142z" />
<glyph unicode="&#xe3;" horiz-adv-x="1226" d="M92 313q0 166 115 246q117 82 344 88l168 6v113q0 37 -4 94q-2 39 -17 74q-10 25 -39 47q-25 18 -67 18q-37 0 -66 -16q-27 -14 -43 -47q-16 -35 -22 -70q-6 -39 -6 -88q-135 0 -207 31q-70 31 -70 106q0 57 33 96.5t92 64t133 36.5q76 12 164 12q109 0 188.5 -18.5 t133.5 -58.5q55 -41 82 -109q27 -66 26 -162v-522q0 -41 6 -70q6 -31 21 -45q16 -16 39 -22q33 -8 57 -8h8v-109h-381l-43 141h-18q-45 -53 -64 -71q-29 -29 -63 -52q-29 -18 -78 -28q-47 -10 -100 -10q-72 0 -127 20q-61 23 -101 61q-47 47 -69 105q-25 61 -25 147z M410 305q0 -88 28 -133q29 -43 88 -43q43 0 80 18q33 16 60 54q29 39 39 82q14 57 14 108v154l-92 -6q-59 -2 -103 -19q-37 -14 -67 -47q-23 -25 -35 -70q-12 -43 -12 -98zM211 1262q4 68 23 116q20 51 55 97q31 39 80 65q47 25 100 25q57 0 99 -21q76 -37 84 -43l71 -45 q33 -20 66 -20q18 0 38.5 10t30.5 22q14 18 21 35q8 23 10 41h133q-4 -68 -22 -117q-20 -51 -55 -96q-33 -41 -78 -65.5t-101 -24.5q-59 0 -100 21l-82 43l-72 45q-33 20 -67 20q-25 0 -41 -8q-14 -8 -29 -25q-14 -18 -20 -34q-8 -23 -11 -41h-133z" />
<glyph unicode="&#xe4;" horiz-adv-x="1226" d="M92 313q0 166 115 246q117 82 344 88l168 6v113q0 37 -4 94q-2 39 -17 74q-10 25 -39 47q-25 18 -67 18q-37 0 -66 -16q-27 -14 -43 -47q-16 -35 -22 -70q-6 -39 -6 -88q-135 0 -207 31q-70 31 -70 106q0 57 33 96.5t92 64t133 36.5q76 12 164 12q109 0 188.5 -18.5 t133.5 -58.5q55 -41 82 -109q27 -66 26 -162v-522q0 -41 6 -70q6 -31 21 -45q16 -16 39 -22q33 -8 57 -8h8v-109h-381l-43 141h-18q-45 -53 -64 -71q-29 -29 -63 -52q-29 -18 -78 -28q-47 -10 -100 -10q-72 0 -127 20q-61 23 -101 61q-47 47 -69 105q-25 61 -25 147z M410 305q0 -88 28 -133q29 -43 88 -43q43 0 80 18q33 16 60 54q29 39 39 82q14 57 14 108v154l-92 -6q-59 -2 -103 -19q-37 -14 -67 -47q-23 -25 -35 -70q-12 -43 -12 -98zM278 1409q0 33 10 59q8 20 27 39q16 16 38.5 22.5t45.5 6.5q27 0 47 -6q18 -6 39 -23q18 -14 27 -39 q10 -27 10 -59.5t-10 -58.5q-8 -25 -27 -39q-20 -16 -39 -23q-20 -6 -47 -6q-23 0 -45.5 6t-38.5 23q-18 18 -27 39q-10 26 -10 59zM698 1409q0 33 10 59q8 25 27 39q20 16 39 23q20 6 47 6q23 0 45 -6q18 -6 39 -23q18 -14 26 -39q10 -27 10.5 -59.5t-10.5 -58.5 q-8 -25 -26 -39q-20 -16 -39 -23q-23 -6 -45 -6q-27 0 -47 6q-18 6 -39 23q-18 14 -27 39q-10 26 -10 59z" />
<glyph unicode="&#xe5;" horiz-adv-x="1226" d="M92 313q0 166 115 246q117 82 344 88l168 6v113q0 37 -4 94q-2 39 -17 74q-10 25 -39 47q-25 18 -67 18q-37 0 -66 -16q-27 -14 -43 -47q-16 -35 -22 -70q-6 -39 -6 -88q-135 0 -207 31q-70 31 -70 106q0 57 33 96.5t92 64t133 36.5q76 12 164 12q109 0 188.5 -18.5 t133.5 -58.5q55 -41 82 -109q27 -66 26 -162v-522q0 -41 6 -70q6 -31 21 -45q16 -16 39 -22q33 -8 57 -8h8v-109h-381l-43 141h-18q-45 -53 -64 -71q-29 -29 -63 -52q-29 -18 -78 -28q-47 -10 -100 -10q-72 0 -127 20q-61 23 -101 61q-47 47 -69 105q-25 61 -25 147z M410 305q0 -88 28 -133q29 -43 88 -43q43 0 80 18q33 16 60 54q29 39 39 82q14 57 14 108v154l-92 -6q-59 -2 -103 -19q-37 -14 -67 -47q-23 -25 -35 -70q-12 -43 -12 -98zM373 1444q0 53 19 96q16 41 53 70q35 29 78 43t96 14t96 -14.5t78 -42.5q37 -29 53 -70 q18 -43 18.5 -96t-18.5 -96q-16 -41 -53 -70q-35 -29 -78 -43t-96 -14t-96 14t-78 43q-37 29 -53 70q-19 43 -19 96zM498 1444q0 -27 10 -51q10 -23 24.5 -35t39.5 -19q23 -6 47.5 -6t46.5 6q25 6 39 18.5t25 35.5q10 25 10 51t-10 51q-10 23 -24.5 35t-39.5 18 q-23 6 -47.5 6t-46.5 -6q-25 -6 -39 -18t-25 -35q-10 -24 -10 -51z" />
<glyph unicode="&#xe6;" horiz-adv-x="1792" d="M92 313q0 166 115 246q117 82 344 88l168 6v113q0 37 -4 94q-2 39 -17 74q-10 25 -39 47q-25 18 -67 18q-37 0 -66 -16q-27 -14 -43 -47q-16 -35 -22 -70q-6 -39 -6 -88q-135 0 -207 31q-70 31 -70 106q0 57 33 96.5t92 64t133 36.5q76 12 164 12q111 0 191 -26 q78 -27 135 -90q55 53 135 86q74 31 166 30q106 0 200 -32q90 -31 152 -93q59 -59 94 -153q33 -90 33 -215v-105h-672q2 -100 23 -178q16 -68 53 -121q33 -49 86 -71q51 -23 113 -23q52 0 98 12q41 10 82 35q33 18 63 53q25 27 45 66q55 -31 56 -100q0 -47 -23 -84 q-25 -39 -74 -70q-45 -29 -124 -47q-76 -18 -179 -18q-145 0 -260 51q-111 49 -176 145q-66 -100 -172 -149q-104 -47 -231 -47q-72 0 -127 20q-61 23 -101 61q-47 47 -69 105q-25 61 -25 147zM410 305q0 -88 28 -133q29 -43 88 -43q43 0 80 18q33 16 60 54q29 39 39 82 q14 57 14 108v154l-92 -6q-59 -2 -103 -19q-37 -14 -67 -47q-23 -25 -35 -70q-12 -43 -12 -98zM1038 657h355q0 162 -39 246q-41 88 -123 88q-84 0 -137 -86q-50 -80 -56 -248z" />
<glyph unicode="&#xe7;" horiz-adv-x="1077" d="M96 545q0 168 39 276q41 115 105 178q70 70 159 97q96 29 199 28q92 0 174 -16q68 -14 127 -45q47 -25 78 -70q27 -39 27 -84q0 -41 -11 -65q-12 -33 -40.5 -55.5t-82.5 -38.5q-49 -14 -131 -15q0 51 -6 101q-6 43 -22 84q-14 35 -41 57t-64 22q-41 0 -80 -22 q-37 -22 -61 -74q-29 -59 -39 -137q-14 -100 -14 -219q0 -209 57 -311.5t186 -102.5q52 0 99 12q49 12 86 35t65 53q29 33 47 66q25 -14 37 -41q12 -25 12 -53q0 -37 -22 -78q-20 -39 -72 -74q-43 -29 -125 -53q-70 -20 -178 -20q-111 0 -207 28q-90 27 -159 96 q-68 68 -105 177q-37 107 -37 264zM370 -344q37 -9 74 -12q49 -4 66 -4q59 0 92 20.5t33 73.5q0 33 -11 49q-12 18 -32 31q-16 8 -50 16q-20 4 -61 8l43 180h117l-21 -88q51 -4 90 -18q45 -18 70 -39q29 -25 43 -57q16 -37 16 -74q0 -57 -20.5 -98t-58.5 -74 q-33 -29 -93 -45q-55 -16 -118 -17h-39q-8 0 -26.5 3.5t-20.5 3.5l-50 6q-20 2 -43 10v125z" />
<glyph unicode="&#xe8;" horiz-adv-x="1167" d="M96 543q0 150 33 254t100 182q61 70 160 108q95 37 215 37q106 0 201 -32q88 -31 149 -93q63 -63 96 -153t33 -215v-105h-671q2 -100 22 -178q16 -63 55 -121q35 -49 84 -71q51 -23 113 -23q52 0 98 12q41 10 82 35q33 18 64 53q25 27 45 66q55 -31 55 -100 q0 -43 -24 -84q-23 -39 -74 -70q-45 -29 -125 -47q-78 -18 -180 -18q-125 0 -230 38q-96 37 -166 109q-68 72 -102 178q-33 101 -33 238zM416 657h354q0 84 -8 140q-8 57 -29 104q-18 45 -51 67.5t-74 22.5q-88 0 -137 -86t-55 -248zM260 1548v21h321q12 -27 41 -74l54 -82 q14 -25 55 -78l24.5 -33.5l24.5 -33.5v-27h-139q-51 29 -107 70l-112 86q-49 37 -99 84q-49 44 -63 67z" />
<glyph unicode="&#xe9;" horiz-adv-x="1167" d="M96 543q0 150 33 254t100 182q61 70 160 108q95 37 215 37q106 0 201 -32q88 -31 149 -93q63 -63 96 -153t33 -215v-105h-671q2 -100 22 -178q16 -63 55 -121q35 -49 84 -71q51 -23 113 -23q52 0 98 12q41 10 82 35q33 18 64 53q25 27 45 66q55 -31 55 -100 q0 -43 -24 -84q-23 -39 -74 -70q-45 -29 -125 -47q-78 -18 -180 -18q-125 0 -230 38q-96 37 -166 109q-68 72 -102 178q-33 101 -33 238zM416 657h354q0 84 -8 140q-8 57 -29 104q-18 45 -51 67.5t-74 22.5q-88 0 -137 -86t-55 -248zM473 1241v27q23 29 49 67l55 78l53 82 q29 47 41 74h322v-21q-14 -23 -64 -67q-49 -47 -98 -84l-113 -86q-55 -41 -106 -70h-139z" />
<glyph unicode="&#xea;" horiz-adv-x="1167" d="M96 543q0 150 33 254t100 182q61 70 160 108q95 37 215 37q106 0 201 -32q88 -31 149 -93q63 -63 96 -153t33 -215v-105h-671q2 -100 22 -178q16 -63 55 -121q35 -49 84 -71q51 -23 113 -23q52 0 98 12q41 10 82 35q33 18 64 53q25 27 45 66q55 -31 55 -100 q0 -43 -24 -84q-23 -39 -74 -70q-45 -29 -125 -47q-78 -18 -180 -18q-125 0 -230 38q-96 37 -166 109q-68 72 -102 178q-33 101 -33 238zM416 657h354q0 84 -8 140q-8 57 -29 104q-18 45 -51 67.5t-74 22.5q-88 0 -137 -86t-55 -248zM254 1241v27l56 67l65 78q27 35 60 82 q33 49 45 74h276q12 -25 45 -74q33 -47 60 -82l63 -78l57 -67v-27h-141l-49 39l-62 49l-59 49l-53 47l-53 -47l-60 -49l-29.5 -24.5l-29.5 -24.5l-49 -39h-142z" />
<glyph unicode="&#xeb;" horiz-adv-x="1167" d="M96 543q0 150 33 254t100 182q61 70 160 108q95 37 215 37q106 0 201 -32q88 -31 149 -93q63 -63 96 -153t33 -215v-105h-671q2 -100 22 -178q16 -63 55 -121q35 -49 84 -71q51 -23 113 -23q52 0 98 12q41 10 82 35q33 18 64 53q25 27 45 66q55 -31 55 -100 q0 -43 -24 -84q-23 -39 -74 -70q-45 -29 -125 -47q-78 -18 -180 -18q-125 0 -230 38q-96 37 -166 109q-68 72 -102 178q-33 101 -33 238zM416 657h354q0 84 -8 140q-8 57 -29 104q-18 45 -51 67.5t-74 22.5q-88 0 -137 -86t-55 -248zM281 1409q0 33 10 59q8 20 27 39 q16 16 38.5 22.5t45.5 6.5q27 0 47 -6q18 -6 39 -23q18 -14 27 -39q10 -27 10 -59.5t-10 -58.5q-8 -25 -27 -39q-20 -16 -39 -23q-20 -6 -47 -6q-23 0 -45.5 6t-38.5 23q-18 18 -27 39q-10 26 -10 59zM701 1409q0 33 10 59q8 25 27 39q20 16 39 23q20 6 47 6q23 0 45 -6 q18 -6 39 -23q18 -14 26 -39q10 -27 10.5 -59.5t-10.5 -58.5q-8 -25 -26 -39q-20 -16 -39 -23q-23 -6 -45 -6q-27 0 -47 6q-18 6 -39 23q-18 14 -27 39q-10 26 -10 59z" />
<glyph unicode="&#xec;" horiz-adv-x="720" d="M35 0v109h24q14 0 47 4q27 4 47.5 18t36.5 41q14 23 15 70v622q0 43 -15 66q-15 25 -36 37q-29 16 -48 18q-33 4 -47 4h-24v109h481v-856q0 -47 14 -70q16 -27 37 -41t47 -18q33 -4 48 -4h24v-109h-651zM-10 1548v21h321q12 -27 41 -74l54 -82q14 -25 55 -78l24.5 -33.5 l24.5 -33.5v-27h-139q-51 29 -107 70l-112 86q-49 37 -99 84q-49 44 -63 67z" />
<glyph unicode="&#xed;" horiz-adv-x="720" d="M35 0v109h24q14 0 47 4q27 4 47.5 18t36.5 41q14 23 15 70v622q0 43 -15 66q-15 25 -36 37q-29 16 -48 18q-33 4 -47 4h-24v109h481v-856q0 -47 14 -70q16 -27 37 -41t47 -18q33 -4 48 -4h24v-109h-651zM267 1241v27q23 29 49 67l55 78l53 82q29 47 41 74h322v-21 q-14 -23 -64 -67q-49 -47 -98 -84l-113 -86q-55 -41 -106 -70h-139z" />
<glyph unicode="&#xee;" horiz-adv-x="720" d="M35 0v109h24q14 0 47 4q27 4 47.5 18t36.5 41q14 23 15 70v622q0 43 -15 66q-15 25 -36 37q-29 16 -48 18q-33 4 -47 4h-24v109h481v-856q0 -47 14 -70q16 -27 37 -41t47 -18q33 -4 48 -4h24v-109h-651zM-29 1241v27l56 67l65 78q27 35 60 82q33 49 45 74h276 q12 -25 45 -74q33 -47 60 -82l63 -78l57 -67v-27h-141l-49 39l-62 49l-59 49l-53 47l-53 -47l-60 -49l-29.5 -24.5l-29.5 -24.5l-49 -39h-142z" />
<glyph unicode="&#xef;" horiz-adv-x="720" d="M35 0v109h24q14 0 47 4q27 4 47.5 18t36.5 41q14 23 15 70v622q0 43 -15 66q-15 25 -36 37q-29 16 -48 18q-33 4 -47 4h-24v109h481v-856q0 -47 14 -70q16 -27 37 -41t47 -18q33 -4 48 -4h24v-109h-651zM0 1409q0 33 10 59q8 20 27 39q16 16 38.5 22.5t45.5 6.5 q27 0 47 -6q18 -6 39 -23q18 -14 27 -39q10 -27 10 -59.5t-10 -58.5q-8 -25 -27 -39q-20 -16 -39 -23q-20 -6 -47 -6q-23 0 -45.5 6t-38.5 23q-18 18 -27 39q-10 26 -10 59zM420 1409q0 33 10 59q8 25 27 39q20 16 39 23q20 6 47 6q23 0 45 -6q18 -6 39 -23q18 -14 26 -39 q10 -27 10.5 -59.5t-10.5 -58.5q-8 -25 -26 -39q-20 -16 -39 -23q-23 -6 -45 -6q-27 0 -47 6q-18 6 -39 23q-18 14 -27 39q-10 26 -10 59z" />
<glyph unicode="&#xf0;" horiz-adv-x="1251" d="M96 522q0 139 33 238q35 106 94 168q68 70 156 102q90 33 211 33q66 0 127 -16q53 -14 96 -39q-20 57 -25 65q-16 37 -34 66q-23 37 -47 65q-25 31 -68 64l-289 -148v133l182 95q-61 37 -108 51q-57 18 -133 31v129q45 -4 90 -15q76 -18 108 -28q84 -29 111 -39 q47 -18 92 -47l258 131v-136l-143 -73q88 -70 143 -140q63 -78 111 -176q43 -90 69 -207q27 -121 27 -233q0 -313 -135 -464.5t-399 -151.5q-123 0 -220 32q-100 35 -165 101q-68 68 -105 170q-37 101 -37 239zM414 520q0 -101 12 -178t37 -129q23 -49 65 -78 q39 -27 101 -26q59 0 98 26q43 29 66 78q29 59 38 129q10 63 11 178q0 119 -11 182q-10 70 -38 129q-23 49 -66 76q-39 25 -100 25q-58 0 -99 -25t-65 -76q-25 -49 -37 -126t-12 -185z" />
<glyph unicode="&#xf1;" horiz-adv-x="1363" d="M41 0v109h4q27 0 64 4q27 2 51 20q20 14 33 43q12 28 12 74v606q0 43 -10 70q-8 18 -31 39q-20 18 -45 20q-37 4 -62 4h-6v109h430l27 -146h10q29 55 66 92q33 33 73 52q35 16 82 22q43 6 92 6q74 0 142 -22q61 -20 106 -72q47 -55 68 -123q23 -78 22 -178v-475 q0 -51 9 -76q12 -35 24 -45t43 -18q25 -6 62 -6h6v-109h-455v674q0 70 -8 117q-10 53 -29 88q-18 33 -51 53q-31 18 -76 18q-49 0 -86 -26q-29 -20 -53 -70q-23 -43 -31 -100q-8 -51 -8 -121v-391q0 -43 10 -70q8 -23 29 -39q20 -18 47 -20q37 -4 62 -4h6v-109h-629z M264 1262q4 68 23 116q20 51 55 97q31 39 80 65q47 25 100 25q57 0 99 -21q76 -37 84 -43l71 -45q33 -20 66 -20q18 0 38.5 10t30.5 22q14 18 21 35q8 23 10 41h133q-4 -68 -22 -117q-20 -51 -55 -96q-33 -41 -78 -65.5t-101 -24.5q-59 0 -100 21l-82 43l-72 45 q-33 20 -67 20q-25 0 -41 -8q-14 -8 -29 -25q-14 -18 -20 -34q-8 -23 -11 -41h-133z" />
<glyph unicode="&#xf2;" horiz-adv-x="1253" d="M96 553q0 289 135.5 430t399.5 141q121 0 221 -34q96 -33 166 -107q68 -71 104.5 -178.5t36.5 -251.5q0 -289 -135 -430q-137 -143 -399 -143q-123 0 -222 36q-100 37 -165 107q-68 71 -105 178.5t-37 251.5zM414 553q0 -111 12 -193q12 -84 36.5 -139t65.5 -83.5 t100.5 -28.5t100.5 28.5t65.5 83.5t36.5 139q10 70 10.5 193t-10.5 192q-10 74 -38 138q-23 53 -66 82q-41 29 -100.5 28.5t-100.5 -28.5q-43 -29 -65 -82q-23 -49 -35 -138q-12 -81 -12 -192zM238 1548v21h321q12 -27 41 -74l54 -82q14 -25 55 -78l24.5 -33.5l24.5 -33.5 v-27h-139q-51 29 -107 70l-112 86q-49 37 -99 84q-49 44 -63 67z" />
<glyph unicode="&#xf3;" horiz-adv-x="1253" d="M96 553q0 289 135.5 430t399.5 141q121 0 221 -34q96 -33 166 -107q68 -71 104.5 -178.5t36.5 -251.5q0 -289 -135 -430q-137 -143 -399 -143q-123 0 -222 36q-100 37 -165 107q-68 71 -105 178.5t-37 251.5zM414 553q0 -111 12 -193q12 -84 36.5 -139t65.5 -83.5 t100.5 -28.5t100.5 28.5t65.5 83.5t36.5 139q10 70 10.5 193t-10.5 192q-10 74 -38 138q-23 53 -66 82q-41 29 -100.5 28.5t-100.5 -28.5q-43 -29 -65 -82q-23 -49 -35 -138q-12 -81 -12 -192zM504 1241v27q23 29 49 67l55 78l53 82q29 47 41 74h322v-21q-14 -23 -64 -67 q-49 -47 -98 -84l-113 -86q-55 -41 -106 -70h-139z" />
<glyph unicode="&#xf4;" horiz-adv-x="1253" d="M96 553q0 289 135.5 430t399.5 141q121 0 221 -34q96 -33 166 -107q68 -71 104.5 -178.5t36.5 -251.5q0 -289 -135 -430q-137 -143 -399 -143q-123 0 -222 36q-100 37 -165 107q-68 71 -105 178.5t-37 251.5zM414 553q0 -111 12 -193q12 -84 36.5 -139t65.5 -83.5 t100.5 -28.5t100.5 28.5t65.5 83.5t36.5 139q10 70 10.5 193t-10.5 192q-10 74 -38 138q-23 53 -66 82q-41 29 -100.5 28.5t-100.5 -28.5q-43 -29 -65 -82q-23 -49 -35 -138q-12 -81 -12 -192zM262 1241v27l56 67l65 78q27 35 60 82q33 49 45 74h276q12 -25 45 -74 q33 -47 60 -82l63 -78l57 -67v-27h-141l-49 39l-62 49l-59 49l-53 47l-53 -47l-60 -49l-29.5 -24.5l-29.5 -24.5l-49 -39h-142z" />
<glyph unicode="&#xf5;" horiz-adv-x="1253" d="M96 553q0 289 135.5 430t399.5 141q121 0 221 -34q96 -33 166 -107q68 -71 104.5 -178.5t36.5 -251.5q0 -289 -135 -430q-137 -143 -399 -143q-123 0 -222 36q-100 37 -165 107q-68 71 -105 178.5t-37 251.5zM414 553q0 -111 12 -193q12 -84 36.5 -139t65.5 -83.5 t100.5 -28.5t100.5 28.5t65.5 83.5t36.5 139q10 70 10.5 193t-10.5 192q-10 74 -38 138q-23 53 -66 82q-41 29 -100.5 28.5t-100.5 -28.5q-43 -29 -65 -82q-23 -49 -35 -138q-12 -81 -12 -192zM217 1262q4 68 23 116q20 51 55 97q31 39 80 65q47 25 100 25q57 0 99 -21 q76 -37 84 -43l71 -45q33 -20 66 -20q18 0 38.5 10t30.5 22q14 18 21 35q8 23 10 41h133q-4 -68 -22 -117q-20 -51 -55 -96q-33 -41 -78 -65.5t-101 -24.5q-59 0 -100 21l-82 43l-72 45q-33 20 -67 20q-25 0 -41 -8q-14 -8 -29 -25q-14 -18 -20 -34q-8 -23 -11 -41h-133z " />
<glyph unicode="&#xf6;" horiz-adv-x="1253" d="M96 553q0 289 135.5 430t399.5 141q121 0 221 -34q96 -33 166 -107q68 -71 104.5 -178.5t36.5 -251.5q0 -289 -135 -430q-137 -143 -399 -143q-123 0 -222 36q-100 37 -165 107q-68 71 -105 178.5t-37 251.5zM414 553q0 -111 12 -193q12 -84 36.5 -139t65.5 -83.5 t100.5 -28.5t100.5 28.5t65.5 83.5t36.5 139q10 70 10.5 193t-10.5 192q-10 74 -38 138q-23 53 -66 82q-41 29 -100.5 28.5t-100.5 -28.5q-43 -29 -65 -82q-23 -49 -35 -138q-12 -81 -12 -192zM293 1409q0 33 10 59q8 20 27 39q16 16 38.5 22.5t45.5 6.5q27 0 47 -6 q18 -6 39 -23q18 -14 27 -39q10 -27 10 -59.5t-10 -58.5q-8 -25 -27 -39q-20 -16 -39 -23q-20 -6 -47 -6q-23 0 -45.5 6t-38.5 23q-18 18 -27 39q-10 26 -10 59zM713 1409q0 33 10 59q8 25 27 39q20 16 39 23q20 6 47 6q23 0 45 -6q18 -6 39 -23q18 -14 26 -39 q10 -27 10.5 -59.5t-10.5 -58.5q-8 -25 -26 -39q-20 -16 -39 -23q-23 -6 -45 -6q-27 0 -47 6q-18 6 -39 23q-18 14 -27 39q-10 26 -10 59z" />
<glyph unicode="&#xf7;" d="M133 659v146h879v-146h-879zM459 344q0 37 8 59.5t25 38.5q14 14 36 21q20 6 45 6t45 -6q23 -6 37 -21q16 -16 24.5 -38.5t8.5 -59.5q0 -35 -8 -57.5t-24.5 -39t-37 -22.5t-45.5 -6q-47 0 -81 29q-33 26 -33 96zM459 1120q0 37 8 60q8 20 24.5 36.5t37 22.5t45 6t45 -6 t37 -22.5t24.5 -36.5q8 -23 8 -60q0 -35 -8 -57.5t-24.5 -38.5t-37 -22.5t-45.5 -6.5q-47 0 -81 29q-33 26 -33 96z" />
<glyph unicode="&#xf8;" horiz-adv-x="1253" d="M96 553q0 289 135.5 430t399.5 141q74 0 137 -12q59 -10 117 -37l65 105h144l-105 -172q80 -68 125 -184.5t45 -270.5q0 -289 -135 -430q-137 -143 -399 -143q-137 0 -242 43l-66 -105h-145l102 168q-88 72 -133 186.5t-45 280.5zM414 553q0 -43 4 -117q4 -68 10 -100 l352 571q-52 86 -153 86q-59 0 -101 -28q-43 -29 -65 -82q-23 -49 -35 -138q-12 -81 -12 -192zM481 184q53 -76 148 -75q59 0 100 28.5t65.5 83.5t36.5 139q10 70 11 193q0 72 -2 104q-2 37 -11 93z" />
<glyph unicode="&#xf9;" horiz-adv-x="1363" d="M53 989v109h455v-656q0 -49 8 -118q6 -53 25 -91q18 -39 49 -59q29 -20 74 -20t83.5 22.5t59.5 61.5q25 45 33 98q10 66 10 129v393q0 47 -12 72q-14 31 -31 39q-25 14 -47 16q-37 4 -58 4h-6v109h465v-860q0 -43 10.5 -70t28.5 -39q20 -14 43 -16q33 -4 55 -4h17v-109 h-408l-45 145h-10q-31 -52 -68 -86q-31 -29 -75 -49q-39 -18 -88 -24q-47 -6 -93 -6q-158 0 -245 100q-86 98 -86 305v459q0 49 -9 74q-10 31 -24 43q-20 18 -43 22q-27 6 -64 6h-4zM252 1548v21h321q12 -27 41 -74l54 -82q14 -25 55 -78l24.5 -33.5l24.5 -33.5v-27h-139 q-51 29 -107 70l-112 86q-49 37 -99 84q-49 44 -63 67z" />
<glyph unicode="&#xfa;" horiz-adv-x="1363" d="M53 989v109h455v-656q0 -49 8 -118q6 -53 25 -91q18 -39 49 -59q29 -20 74 -20t83.5 22.5t59.5 61.5q25 45 33 98q10 66 10 129v393q0 47 -12 72q-14 31 -31 39q-25 14 -47 16q-37 4 -58 4h-6v109h465v-860q0 -43 10.5 -70t28.5 -39q20 -14 43 -16q33 -4 55 -4h17v-109 h-408l-45 145h-10q-31 -52 -68 -86q-31 -29 -75 -49q-39 -18 -88 -24q-47 -6 -93 -6q-158 0 -245 100q-86 98 -86 305v459q0 49 -9 74q-10 31 -24 43q-20 18 -43 22q-27 6 -64 6h-4zM527 1241v27q23 29 49 67l55 78l53 82q29 47 41 74h322v-21q-14 -23 -64 -67 q-49 -47 -98 -84l-113 -86q-55 -41 -106 -70h-139z" />
<glyph unicode="&#xfb;" horiz-adv-x="1363" d="M53 989v109h455v-656q0 -49 8 -118q6 -53 25 -91q18 -39 49 -59q29 -20 74 -20t83.5 22.5t59.5 61.5q25 45 33 98q10 66 10 129v393q0 47 -12 72q-14 31 -31 39q-25 14 -47 16q-37 4 -58 4h-6v109h465v-860q0 -43 10.5 -70t28.5 -39q20 -14 43 -16q33 -4 55 -4h17v-109 h-408l-45 145h-10q-31 -52 -68 -86q-31 -29 -75 -49q-39 -18 -88 -24q-47 -6 -93 -6q-158 0 -245 100q-86 98 -86 305v459q0 49 -9 74q-10 31 -24 43q-20 18 -43 22q-27 6 -64 6h-4zM295 1241v27l56 67l65 78q27 35 60 82q33 49 45 74h276q12 -25 45 -74q33 -47 60 -82 l63 -78l57 -67v-27h-141l-49 39l-62 49l-59 49l-53 47l-53 -47l-60 -49l-29.5 -24.5l-29.5 -24.5l-49 -39h-142z" />
<glyph unicode="&#xfc;" horiz-adv-x="1363" d="M53 989v109h455v-656q0 -49 8 -118q6 -53 25 -91q18 -39 49 -59q29 -20 74 -20t83.5 22.5t59.5 61.5q25 45 33 98q10 66 10 129v393q0 47 -12 72q-14 31 -31 39q-25 14 -47 16q-37 4 -58 4h-6v109h465v-860q0 -43 10.5 -70t28.5 -39q20 -14 43 -16q33 -4 55 -4h17v-109 h-408l-45 145h-10q-31 -52 -68 -86q-31 -29 -75 -49q-39 -18 -88 -24q-47 -6 -93 -6q-158 0 -245 100q-86 98 -86 305v459q0 49 -9 74q-10 31 -24 43q-20 18 -43 22q-27 6 -64 6h-4zM332 1409q0 33 10 59q8 20 27 39q16 16 38.5 22.5t45.5 6.5q27 0 47 -6q18 -6 39 -23 q18 -14 27 -39q10 -27 10 -59.5t-10 -58.5q-8 -25 -27 -39q-20 -16 -39 -23q-20 -6 -47 -6q-23 0 -45.5 6t-38.5 23q-18 18 -27 39q-10 26 -10 59zM752 1409q0 33 10 59q8 25 27 39q20 16 39 23q20 6 47 6q23 0 45 -6q18 -6 39 -23q18 -14 26 -39q10 -27 10.5 -59.5 t-10.5 -58.5q-8 -25 -26 -39q-20 -16 -39 -23q-23 -6 -45 -6q-27 0 -47 6q-18 6 -39 23q-18 14 -27 39q-10 26 -10 59z" />
<glyph unicode="&#xfd;" horiz-adv-x="1185" d="M0 977v121h584v-109q-57 0 -95 -16q-35 -16 -34 -60q0 -8 8 -41q6 -23 12 -38l37 -93l39 -102l35 -96l16 -44.5t14 -39.5q16 -43 25 -70q12 -41 16 -57q8 -33 11 -47l6 -43q4 33 8 47l12 49q2 10 8.5 24.5t6.5 16.5q4 10 7 16t3 11l135 401l8 24q4 16 6 27q4 20 4 27 q0 4 1 12t1 10q0 45 -38 64q-40 18 -111 18v109h461v-109q-23 0 -56 -8q-25 -6 -40 -23q-20 -20 -35 -47q-20 -37 -33 -71l-76 -207l-78 -213l-80 -213l-75 -207q-45 -119 -68 -174q-31 -74 -67 -129q-39 -59 -78 -92q-41 -35 -100.5 -57.5t-133.5 -30.5q-68 -8 -176 -9h-35 v119q102 0 183 27q76 25 127 74q51 47 84 114q37 74 59 148l-369 901q-14 33 -26.5 47t-33 24.5t-36.5 12.5q-14 2 -43 2zM463 1241v27q23 29 49 67l55 78l53 82q29 47 41 74h322v-21q-14 -23 -64 -67q-49 -47 -98 -84l-113 -86q-55 -41 -106 -70h-139z" />
<glyph unicode="&#xfe;" horiz-adv-x="1320" d="M27 -383h24q14 0 47 4q29 4 49 19q16 12 35 41q14 23 15 69v1555q0 45 -11 75q-8 27 -28 43q-16 12 -45 21q-16 4 -54 4h-14v108h463v-376q0 -12 -4 -70q-4 -53 -8 -80l-13 -92h9q23 43 51 74q27 29 69 55q47 29 86 39q49 12 107 12q102 0 180 -32.5t131 -104.5 q55 -76 82 -178q27 -104 27 -258q0 -152 -27 -256.5t-80 -175.5q-52 -71 -129 -105q-74 -33 -176 -33q-113 0 -190 45q-72 41 -117 119h-14l8 -92q2 -25 6 -82q2 -29 2 -74v-141q0 -47 14 -69q16 -27 37 -41.5t47 -18.5q33 -4 47 -4h45v-109h-671v109zM508 545 q0 -96 10 -185q8 -76 35 -131t63 -77q39 -25 101 -25q104 0 147 104q45 109 45 312q0 201 -45 313q-43 109 -145 109q-63 0 -103 -27q-37 -27 -63.5 -82t-34.5 -131q-10 -88 -10 -180z" />
<glyph unicode="&#xff;" horiz-adv-x="1185" d="M0 977v121h584v-109q-57 0 -95 -16q-35 -16 -34 -60q0 -8 8 -41q6 -23 12 -38l37 -93l39 -102l35 -96l16 -44.5t14 -39.5q16 -43 25 -70q12 -41 16 -57q8 -33 11 -47l6 -43q4 33 8 47l12 49q2 10 8.5 24.5t6.5 16.5q4 10 7 16t3 11l135 401l8 24q4 16 6 27q4 20 4 27 q0 4 1 12t1 10q0 45 -38 64q-40 18 -111 18v109h461v-109q-23 0 -56 -8q-25 -6 -40 -23q-20 -20 -35 -47q-20 -37 -33 -71l-76 -207l-78 -213l-80 -213l-75 -207q-45 -119 -68 -174q-31 -74 -67 -129q-39 -59 -78 -92q-41 -35 -100.5 -57.5t-133.5 -30.5q-68 -8 -176 -9h-35 v119q102 0 183 27q76 25 127 74q51 47 84 114q37 74 59 148l-369 901q-14 33 -26.5 47t-33 24.5t-36.5 12.5q-14 2 -43 2zM266 1409q0 33 10 59q8 20 27 39q16 16 38.5 22.5t45.5 6.5q27 0 47 -6q18 -6 39 -23q18 -14 27 -39q10 -27 10 -59.5t-10 -58.5q-8 -25 -27 -39 q-20 -16 -39 -23q-20 -6 -47 -6q-23 0 -45.5 6t-38.5 23q-18 18 -27 39q-10 26 -10 59zM686 1409q0 33 10 59q8 25 27 39q20 16 39 23q20 6 47 6q23 0 45 -6q18 -6 39 -23q18 -14 26 -39q10 -27 10.5 -59.5t-10.5 -58.5q-8 -25 -26 -39q-20 -16 -39 -23q-23 -6 -45 -6 q-27 0 -47 6q-18 6 -39 23q-18 14 -27 39q-10 26 -10 59z" />
<glyph unicode="&#x100;" horiz-adv-x="1540" d="M8 0v109h25q28 0 49 6q25 6 43 22q14 12 37 45q10 16 35 76l444 1204h281l428 -1206q12 -35 32 -72q16 -31 35 -45q20 -16 41 -22q29 -8 47 -8h37v-109h-676v109h80q10 0 31 4q12 2 29 14q10 8 20 25q8 14 8 36q0 25 -6 48q-8 29 -12 40l-72 205h-498l-59 -176 q0 -2 -16 -59q-8 -31 -9 -58q0 -20 9 -34q10 -16 20 -25q8 -6 29 -14q14 -6 35 -6h86v-109h-533zM489 606h414l-108 336l-23 74q-6 20 -11 39.5t-11 38.5l-23 80q-6 27 -18 75q-18 -61 -21 -67q-12 -37 -26 -76l-12.5 -41t-14.5 -39l-25 -74zM471 1579v162h594v-162h-594z " />
<glyph unicode="&#x101;" horiz-adv-x="1226" d="M92 313q0 166 115 246q117 82 344 88l168 6v113q0 37 -4 94q-2 39 -17 74q-10 25 -39 47q-25 18 -67 18q-37 0 -66 -16q-27 -14 -43 -47q-16 -35 -22 -70q-6 -39 -6 -88q-135 0 -207 31q-70 31 -70 106q0 57 33 96.5t92 64t133 36.5q76 12 164 12q109 0 188.5 -18.5 t133.5 -58.5q55 -41 82 -109q27 -66 26 -162v-522q0 -41 6 -70q6 -31 21 -45q16 -16 39 -22q33 -8 57 -8h8v-109h-381l-43 141h-18q-45 -53 -64 -71q-29 -29 -63 -52q-29 -18 -78 -28q-47 -10 -100 -10q-72 0 -127 20q-61 23 -101 61q-47 47 -69 105q-25 61 -25 147z M410 305q0 -88 28 -133q29 -43 88 -43q43 0 80 18q33 16 60 54q29 39 39 82q14 57 14 108v154l-92 -6q-59 -2 -103 -19q-37 -14 -67 -47q-23 -25 -35 -70q-12 -43 -12 -98zM291 1241v162h594v-162h-594z" />
<glyph unicode="&#x102;" horiz-adv-x="1540" d="M8 0v109h25q28 0 49 6q25 6 43 22q14 12 37 45q10 16 35 76l444 1204h281l428 -1206q12 -35 32 -72q16 -31 35 -45q20 -16 41 -22q29 -8 47 -8h37v-109h-676v109h80q10 0 31 4q12 2 29 14q10 8 20 25q8 14 8 36q0 25 -6 48q-8 29 -12 40l-72 205h-498l-59 -176 q0 -2 -16 -59q-8 -31 -9 -58q0 -20 9 -34q10 -16 20 -25q8 -6 29 -14q14 -6 35 -6h86v-109h-533zM489 606h414l-108 336l-23 74q-6 20 -11 39.5t-11 38.5l-23 80q-6 27 -18 75q-18 -61 -21 -67q-12 -37 -26 -76l-12.5 -41t-14.5 -39l-25 -74zM450 1901h135q18 -72 68 -107 q47 -33 125 -33t125 33q49 35 67 107h136q-4 -63 -23 -115q-22 -58 -61 -105q-39 -45 -102.5 -73.5t-141.5 -28.5t-141.5 28.5t-102.5 73.5q-40 46 -61 105q-19 52 -23 115z" />
<glyph unicode="&#x103;" horiz-adv-x="1226" d="M92 313q0 166 115 246q117 82 344 88l168 6v113q0 37 -4 94q-2 39 -17 74q-10 25 -39 47q-25 18 -67 18q-37 0 -66 -16q-27 -14 -43 -47q-16 -35 -22 -70q-6 -39 -6 -88q-135 0 -207 31q-70 31 -70 106q0 57 33 96.5t92 64t133 36.5q76 12 164 12q109 0 188.5 -18.5 t133.5 -58.5q55 -41 82 -109q27 -66 26 -162v-522q0 -41 6 -70q6 -31 21 -45q16 -16 39 -22q33 -8 57 -8h8v-109h-381l-43 141h-18q-45 -53 -64 -71q-29 -29 -63 -52q-29 -18 -78 -28q-47 -10 -100 -10q-72 0 -127 20q-61 23 -101 61q-47 47 -69 105q-25 61 -25 147z M410 305q0 -88 28 -133q29 -43 88 -43q43 0 80 18q33 16 60 54q29 39 39 82q14 57 14 108v154l-92 -6q-59 -2 -103 -19q-37 -14 -67 -47q-23 -25 -35 -70q-12 -43 -12 -98zM258 1563h135q18 -72 68 -107q47 -33 125 -33t125 33q49 35 67 107h136q-4 -63 -23 -115 q-22 -58 -61 -105q-39 -45 -102.5 -73.5t-141.5 -28.5t-141.5 28.5t-102.5 73.5q-40 46 -61 105q-19 52 -23 115z" />
<glyph unicode="&#x104;" horiz-adv-x="1540" d="M8 0v109h25q28 0 49 6q25 6 43 22q14 12 37 45q10 16 35 76l444 1204h281l428 -1206q12 -35 32 -72q16 -31 35 -45q20 -16 41 -22q29 -8 47 -8h37v-109h-676v109h80q10 0 31 4q12 2 29 14q10 8 20 25q8 14 8 36q0 25 -6 48q-8 29 -12 40l-72 205h-498l-59 -176 q0 -2 -16 -59q-8 -31 -9 -58q0 -20 9 -34q10 -16 20 -25q8 -6 29 -14q14 -6 35 -6h86v-109h-533zM489 606h414l-108 336l-23 74q-6 20 -11 39.5t-11 38.5l-23 80q-6 27 -18 75q-18 -61 -21 -67q-12 -37 -26 -76l-12.5 -41t-14.5 -39l-25 -74zM893 -266q0 51 21 92 q23 43 53 78q29 31 78 59q43 25 90 37h158q-33 -10 -66 -31q-41 -27 -61 -49q-29 -31 -45 -67q-18 -41 -19 -89q0 -25 10 -49q8 -18 29 -32q23 -14 45 -21q25 -6 58 -6q18 0 59 4q35 4 70 12v-131q-12 -8 -39 -14q-35 -8 -47 -10l-50 -6q-16 -2 -39 -3q-154 0 -227 54 q-78 55 -78 172z" />
<glyph unicode="&#x105;" horiz-adv-x="1226" d="M92 313q0 166 115 246q117 82 344 88l168 6v113q0 37 -4 94q-2 39 -17 74q-10 25 -39 47q-25 18 -67 18q-37 0 -66 -16q-27 -14 -43 -47q-16 -35 -22 -70q-6 -39 -6 -88q-135 0 -207 31q-70 31 -70 106q0 57 33 96.5t92 64t133 36.5q76 12 164 12q109 0 188.5 -18.5 t133.5 -58.5q55 -41 82 -109q27 -66 26 -162v-522q0 -41 6 -70q6 -31 21 -45q16 -16 39 -22q33 -8 57 -8h8v-109h-381l-43 141h-18q-45 -53 -64 -71q-29 -29 -63 -52q-29 -18 -78 -28q-47 -10 -100 -10q-72 0 -127 20q-61 23 -101 61q-47 47 -69 105q-25 61 -25 147z M410 305q0 -88 28 -133q29 -43 88 -43q43 0 80 18q33 16 60 54q29 39 39 82q14 57 14 108v154l-92 -6q-59 -2 -103 -19q-37 -14 -67 -47q-23 -25 -35 -70q-12 -43 -12 -98zM542 -266q0 51 21 92q23 43 53 78q29 31 78 59q43 25 90 37h158q-33 -10 -66 -31q-41 -27 -61 -49 q-29 -31 -45 -67q-18 -41 -19 -89q0 -25 10 -49q8 -18 29 -32q23 -14 45 -21q25 -6 58 -6q18 0 59 4q35 4 70 12v-131q-12 -8 -39 -14q-35 -8 -47 -10l-50 -6q-16 -2 -39 -3q-154 0 -227 54q-78 55 -78 172z" />
<glyph unicode="&#x106;" horiz-adv-x="1366" d="M113 733q0 168 45 303q47 143 133 238q89 98 221 153.5t307 55.5q119 0 205 -19q82 -16 145 -51q61 -33 88 -74q29 -45 29 -94q0 -35 -16 -71q-12 -29 -49 -56q-35 -27 -80 -37q-57 -14 -111 -14q0 61 -10 102q-12 53 -39 91q-33 45 -70 67q-43 25 -106 25 q-94 0 -164 -41t-108.5 -119t-57 -194.5t-18.5 -264.5q0 -143 22 -260q20 -109 72 -184q47 -72 127 -109t192 -37q82 0 134 17q55 16 104 47q46 28 80 61q39 39 61 70q15 -12 25 -37q10 -27 10 -51q0 -41 -22 -90q-23 -47 -78 -88q-57 -43 -144 -66q-96 -27 -219 -26 q-178 0 -311 55q-135 57 -221 151.5t-131 239.5t-45 307zM670 1579v27q23 29 49 67l55 78l53 82q29 47 41 74h322v-21q-14 -23 -64 -67q-49 -47 -98 -84l-113 -86q-55 -41 -106 -70h-139z" />
<glyph unicode="&#x107;" horiz-adv-x="1077" d="M96 545q0 168 39 276q41 115 105 178q70 70 159 97q96 29 199 28q92 0 174 -16q68 -14 127 -45q47 -25 78 -70q27 -39 27 -84q0 -41 -11 -65q-12 -33 -40.5 -55.5t-82.5 -38.5q-49 -14 -131 -15q0 51 -6 101q-6 43 -22 84q-14 35 -41 57t-64 22q-41 0 -80 -22 q-37 -22 -61 -74q-29 -59 -39 -137q-14 -100 -14 -219q0 -209 57 -311.5t186 -102.5q52 0 99 12q49 12 86 35t65 53q29 33 47 66q25 -14 37 -41q12 -25 12 -53q0 -37 -22 -78q-20 -39 -72 -74q-43 -29 -125 -53q-70 -20 -178 -20q-111 0 -207 28q-90 27 -159 96 q-68 68 -105 177q-37 107 -37 264zM447 1241v27q23 29 49 67l55 78l53 82q29 47 41 74h322v-21q-14 -23 -64 -67q-49 -47 -98 -84l-113 -86q-55 -41 -106 -70h-139z" />
<glyph unicode="&#x108;" horiz-adv-x="1366" d="M113 733q0 168 45 303q47 143 133 238q89 98 221 153.5t307 55.5q119 0 205 -19q82 -16 145 -51q61 -33 88 -74q29 -45 29 -94q0 -35 -16 -71q-12 -29 -49 -56q-35 -27 -80 -37q-57 -14 -111 -14q0 61 -10 102q-12 53 -39 91q-33 45 -70 67q-43 25 -106 25 q-94 0 -164 -41t-108.5 -119t-57 -194.5t-18.5 -264.5q0 -143 22 -260q20 -109 72 -184q47 -72 127 -109t192 -37q82 0 134 17q55 16 104 47q46 28 80 61q39 39 61 70q15 -12 25 -37q10 -27 10 -51q0 -41 -22 -90q-23 -47 -78 -88q-57 -43 -144 -66q-96 -27 -219 -26 q-178 0 -311 55q-135 57 -221 151.5t-131 239.5t-45 307zM413 1579v27l56 67l65 78q27 35 60 82q33 49 45 74h276q12 -25 45 -74q33 -47 60 -82l63 -78l57 -67v-27h-141l-49 39l-62 49l-59 49l-53 47l-53 -47l-60 -49l-29.5 -24.5l-29.5 -24.5l-49 -39h-142z" />
<glyph unicode="&#x109;" horiz-adv-x="1077" d="M96 545q0 168 39 276q41 115 105 178q70 70 159 97q96 29 199 28q92 0 174 -16q68 -14 127 -45q47 -25 78 -70q27 -39 27 -84q0 -41 -11 -65q-12 -33 -40.5 -55.5t-82.5 -38.5q-49 -14 -131 -15q0 51 -6 101q-6 43 -22 84q-14 35 -41 57t-64 22q-41 0 -80 -22 q-37 -22 -61 -74q-29 -59 -39 -137q-14 -100 -14 -219q0 -209 57 -311.5t186 -102.5q52 0 99 12q49 12 86 35t65 53q29 33 47 66q25 -14 37 -41q12 -25 12 -53q0 -37 -22 -78q-20 -39 -72 -74q-43 -29 -125 -53q-70 -20 -178 -20q-111 0 -207 28q-90 27 -159 96 q-68 68 -105 177q-37 107 -37 264zM227 1241v27l56 67l65 78q27 35 60 82q33 49 45 74h276q12 -25 45 -74q33 -47 60 -82l63 -78l57 -67v-27h-141l-49 39l-62 49l-59 49l-53 47l-53 -47l-60 -49l-29.5 -24.5l-29.5 -24.5l-49 -39h-142z" />
<glyph unicode="&#x10a;" horiz-adv-x="1366" d="M113 733q0 168 45 303q47 143 133 238q89 98 221 153.5t307 55.5q119 0 205 -19q82 -16 145 -51q61 -33 88 -74q29 -45 29 -94q0 -35 -16 -71q-12 -29 -49 -56q-35 -27 -80 -37q-57 -14 -111 -14q0 61 -10 102q-12 53 -39 91q-33 45 -70 67q-43 25 -106 25 q-94 0 -164 -41t-108.5 -119t-57 -194.5t-18.5 -264.5q0 -143 22 -260q20 -109 72 -184q47 -72 127 -109t192 -37q82 0 134 17q55 16 104 47q46 28 80 61q39 39 61 70q15 -12 25 -37q10 -27 10 -51q0 -41 -22 -90q-23 -47 -78 -88q-57 -43 -144 -66q-96 -27 -219 -26 q-178 0 -311 55q-135 57 -221 151.5t-131 239.5t-45 307zM621 1768q0 35 14 67q12 27 37 45q23 16 55 27q27 8 68 8t68 -8q33 -10 55 -27q25 -18 39 -45t14 -67q0 -39 -14.5 -66t-38.5 -45q-27 -20 -55 -29q-27 -8 -68 -8t-68 8q-29 8 -55 29q-25 18 -37 45q-14 33 -14 66z " />
<glyph unicode="&#x10b;" horiz-adv-x="1077" d="M96 545q0 168 39 276q41 115 105 178q70 70 159 97q96 29 199 28q92 0 174 -16q68 -14 127 -45q47 -25 78 -70q27 -39 27 -84q0 -41 -11 -65q-12 -33 -40.5 -55.5t-82.5 -38.5q-49 -14 -131 -15q0 51 -6 101q-6 43 -22 84q-14 35 -41 57t-64 22q-41 0 -80 -22 q-37 -22 -61 -74q-29 -59 -39 -137q-14 -100 -14 -219q0 -209 57 -311.5t186 -102.5q52 0 99 12q49 12 86 35t65 53q29 33 47 66q25 -14 37 -41q12 -25 12 -53q0 -37 -22 -78q-20 -39 -72 -74q-43 -29 -125 -53q-70 -20 -178 -20q-111 0 -207 28q-90 27 -159 96 q-68 68 -105 177q-37 107 -37 264zM418 1430q0 35 14 67q12 27 37 45q23 16 55 27q27 8 68 8t68 -8q33 -10 55 -27q25 -18 39 -45t14 -67q0 -39 -14.5 -66t-38.5 -45q-27 -20 -55 -29q-27 -8 -68 -8t-68 8q-29 8 -55 29q-25 18 -37 45q-14 33 -14 66z" />
<glyph unicode="&#x10c;" horiz-adv-x="1366" d="M113 733q0 168 45 303q47 143 133 238q89 98 221 153.5t307 55.5q119 0 205 -19q82 -16 145 -51q61 -33 88 -74q29 -45 29 -94q0 -35 -16 -71q-12 -29 -49 -56q-35 -27 -80 -37q-57 -14 -111 -14q0 61 -10 102q-12 53 -39 91q-33 45 -70 67q-43 25 -106 25 q-94 0 -164 -41t-108.5 -119t-57 -194.5t-18.5 -264.5q0 -143 22 -260q20 -109 72 -184q47 -72 127 -109t192 -37q82 0 134 17q55 16 104 47q46 28 80 61q39 39 61 70q15 -12 25 -37q10 -27 10 -51q0 -41 -22 -90q-23 -47 -78 -88q-57 -43 -144 -66q-96 -27 -219 -26 q-178 0 -311 55q-135 57 -221 151.5t-131 239.5t-45 307zM413 1880v27h142l49 -39l29.5 -24.5l29.5 -24.5q14 -10 21.5 -17.5t17.5 -15.5t21 -18l26.5 -21.5t26.5 -24.5q12 12 26.5 23.5t26.5 22.5q10 10 20.5 18t17.5 15t21 18l62 49l49 39h141v-27l-57 -67l-63 -78 q-41 -53 -60 -80q-31 -45 -45 -76h-276q-14 31 -45 76q-18 27 -60 80l-65 78z" />
<glyph unicode="&#x10d;" horiz-adv-x="1077" d="M96 545q0 168 39 276q41 115 105 178q70 70 159 97q96 29 199 28q92 0 174 -16q68 -14 127 -45q47 -25 78 -70q27 -39 27 -84q0 -41 -11 -65q-12 -33 -40.5 -55.5t-82.5 -38.5q-49 -14 -131 -15q0 51 -6 101q-6 43 -22 84q-14 35 -41 57t-64 22q-41 0 -80 -22 q-37 -22 -61 -74q-29 -59 -39 -137q-14 -100 -14 -219q0 -209 57 -311.5t186 -102.5q52 0 99 12q49 12 86 35t65 53q29 33 47 66q25 -14 37 -41q12 -25 12 -53q0 -37 -22 -78q-20 -39 -72 -74q-43 -29 -125 -53q-70 -20 -178 -20q-111 0 -207 28q-90 27 -159 96 q-68 68 -105 177q-37 107 -37 264zM229 1542v27h142l49 -39l29.5 -24.5l29.5 -24.5q14 -10 21.5 -17.5t17.5 -15.5t21 -18l26.5 -21.5t26.5 -24.5q12 12 26.5 23.5t26.5 22.5q10 10 20.5 18t17.5 15t21 18l62 49l49 39h141v-27l-57 -67l-63 -78q-41 -53 -60 -80 q-31 -45 -45 -76h-276q-14 31 -45 76q-18 27 -60 80l-65 78z" />
<glyph unicode="&#x10e;" horiz-adv-x="1570" d="M57 0v109h86q16 0 41 4q16 2 33 18q12 12 23 41q8 23 8 70v987q0 43 -8 65q-10 27 -23 37q-20 16 -33 19q-25 4 -41 4h-86v108h676q164 0 305 -45q133 -43 228 -133q96 -94 143 -219q49 -132 49 -307q0 -166 -47 -307q-47 -139 -137 -239.5t-227 -156.5 q-135 -55 -314 -55h-676zM571 127h115q104 0 184 43t134 127q57 90 81 197q27 113 27 264q0 291 -108 436q-106 143 -316 143h-117v-1210zM387 1880v27h142l49 -39l29.5 -24.5l29.5 -24.5q14 -10 21.5 -17.5t17.5 -15.5t21 -18l26.5 -21.5t26.5 -24.5q12 12 26.5 23.5 t26.5 22.5q10 10 20.5 18t17.5 15t21 18l62 49l49 39h141v-27l-57 -67l-63 -78q-41 -53 -60 -80q-31 -45 -45 -76h-276q-14 31 -45 76q-18 27 -60 80l-65 78z" />
<glyph unicode="&#x10f;" horiz-adv-x="1327" d="M94 547q0 152 27 256q27 106 82 180q52 71 129 104q80 35 176 35q58 0 104 -12q45 -12 84 -35q45 -27 68 -51q31 -35 49 -66h14q-2 20 -5 56.5t-3 50.5q0 8 -1 22.5t-1 20.5q0 8 -2 21.5t-2 19.5t-1 18.5t-1 16.5v24v113q0 39 -14 68q-14 27 -35 38q-23 14 -53 17 q-41 4 -64 4h-16v108h493v-1304q0 -49 15 -76q16 -31 37 -43q18 -12 53 -18q31 -6 65 -6h8v-109h-397l-57 160h-19q-16 -33 -53 -74q-33 -35 -67 -57q-43 -27 -86 -37q-49 -12 -109 -12q-98 0 -178 34q-82 37 -131 103q-55 76 -82 176q-27 104 -27 254zM410 549 q0 -209 43 -313q43 -102 147 -103q63 0 102 25q37 23 64 78t35 131q10 88 10 184q0 92 -10 180q-8 76 -35 131.5t-64 81.5q-39 27 -102 27q-53 0 -88 -27q-39 -29 -59 -82q-25 -63 -33 -133q-10 -88 -10 -180zM1235 1229v26l20 68q4 18 10 37.5l13 42.5q8 27 20 80 q14 61 16 73h238v-20l-37 -72l-49 -80l-55 -81l-54 -74h-122z" />
<glyph unicode="&#x110;" horiz-adv-x="1570" d="M57 0v109h86q16 0 41 4q16 2 33 18q12 12 23 41q8 23 8 70v460h-170v125h170v402q0 43 -8 65q-10 27 -23 37q-20 16 -33 19q-25 4 -41 4h-86v108h676q164 0 305 -45q133 -43 228 -133q96 -94 143 -219q49 -132 49 -307q0 -166 -47 -307q-47 -139 -137 -239.5t-227 -156.5 q-135 -55 -314 -55h-676zM571 127h115q104 0 184 43t134 127q57 90 81 197q27 113 27 264q0 291 -108 436q-106 143 -316 143h-117v-510h256v-125h-256v-575z" />
<glyph unicode="&#x111;" horiz-adv-x="1327" d="M94 516q0 145 26.5 243.5t82.5 170.5q49 63 129 98q74 33 176 33q58 0 104 -12q45 -12 84 -35q45 -27 68 -51q25 -29 49 -66h14q-2 20 -5 58t-3 55q0 6 -1 22.5t-1 22.5t-2 20.5t-2 22.5t-1 20t-1 19v26v21h-317v108h317v29q0 39 -14 68q-14 27 -35 38q-23 14 -53 17 q-41 4 -64 4h-16v108h493v-264h178v-108h-178v-932q0 -49 15 -76q16 -31 37 -43q18 -12 53 -18q31 -6 65 -6h8v-109h-397l-57 160h-19q-16 -33 -53 -74q-33 -35 -67 -57q-43 -27 -86 -37q-49 -12 -109 -12q-96 0 -178 32q-78 31 -131 97q-55 68 -82 166t-27 241zM410 518 q0 -194 43 -289q43 -96 147 -96q66 0 102 23q39 25 64 71q27 53 35 121q10 82 10 172q0 84 -10 166q-8 72 -35 123q-25 49 -64 74q-43 27 -102 26q-104 0 -147 -100.5t-43 -290.5z" />
<glyph unicode="&#x112;" horiz-adv-x="1335" d="M57 0v109h86q16 0 41 4q16 2 33 16q12 10 23 37q8 23 8 65v990q0 47 -8 69q-10 29 -23 41q-16 16 -33 19q-25 4 -41 4h-86v108h1137l8 -377h-143l-10 97q-10 80 -37 114q-31 41 -94 41h-345v-512h486v-123h-486v-577h410q33 0 53 12q23 12 37 33q18 27 27 49q6 20 14 62 l16 96h142l-15 -377h-1200zM377 1579v162h594v-162h-594z" />
<glyph unicode="&#x113;" horiz-adv-x="1167" d="M96 543q0 150 33 254t100 182q61 70 160 108q95 37 215 37q106 0 201 -32q88 -31 149 -93q63 -63 96 -153t33 -215v-105h-671q2 -100 22 -178q16 -63 55 -121q35 -49 84 -71q51 -23 113 -23q52 0 98 12q41 10 82 35q33 18 64 53q25 27 45 66q55 -31 55 -100 q0 -43 -24 -84q-23 -39 -74 -70q-45 -29 -125 -47q-78 -18 -180 -18q-125 0 -230 38q-96 37 -166 109q-68 72 -102 178q-33 101 -33 238zM416 657h354q0 84 -8 140q-8 57 -29 104q-18 45 -51 67.5t-74 22.5q-88 0 -137 -86t-55 -248zM324 1241v162h594v-162h-594z" />
<glyph unicode="&#x114;" horiz-adv-x="1335" d="M57 0v109h86q16 0 41 4q16 2 33 16q12 10 23 37q8 23 8 65v990q0 47 -8 69q-10 29 -23 41q-16 16 -33 19q-25 4 -41 4h-86v108h1137l8 -377h-143l-10 97q-10 80 -37 114q-31 41 -94 41h-345v-512h486v-123h-486v-577h410q33 0 53 12q23 12 37 33q18 27 27 49q6 20 14 62 l16 96h142l-15 -377h-1200zM356 1901h135q18 -72 68 -107q47 -33 125 -33t125 33q49 35 67 107h136q-4 -63 -23 -115q-22 -58 -61 -105q-39 -45 -102.5 -73.5t-141.5 -28.5t-141.5 28.5t-102.5 73.5q-40 46 -61 105q-19 52 -23 115z" />
<glyph unicode="&#x115;" horiz-adv-x="1167" d="M96 543q0 150 33 254t100 182q61 70 160 108q95 37 215 37q106 0 201 -32q88 -31 149 -93q63 -63 96 -153t33 -215v-105h-671q2 -100 22 -178q16 -63 55 -121q35 -49 84 -71q51 -23 113 -23q52 0 98 12q41 10 82 35q33 18 64 53q25 27 45 66q55 -31 55 -100 q0 -43 -24 -84q-23 -39 -74 -70q-45 -29 -125 -47q-78 -18 -180 -18q-125 0 -230 38q-96 37 -166 109q-68 72 -102 178q-33 101 -33 238zM416 657h354q0 84 -8 140q-8 57 -29 104q-18 45 -51 67.5t-74 22.5q-88 0 -137 -86t-55 -248zM276 1563h135q18 -72 68 -107 q47 -33 125 -33t125 33q49 35 67 107h136q-4 -63 -23 -115q-22 -58 -61 -105q-39 -45 -102.5 -73.5t-141.5 -28.5t-141.5 28.5t-102.5 73.5q-40 46 -61 105q-19 52 -23 115z" />
<glyph unicode="&#x116;" horiz-adv-x="1335" d="M57 0v109h86q16 0 41 4q16 2 33 16q12 10 23 37q8 23 8 65v990q0 47 -8 69q-10 29 -23 41q-16 16 -33 19q-25 4 -41 4h-86v108h1137l8 -377h-143l-10 97q-10 80 -37 114q-31 41 -94 41h-345v-512h486v-123h-486v-577h410q33 0 53 12q23 12 37 33q18 27 27 49q6 20 14 62 l16 96h142l-15 -377h-1200zM504 1739q0 35 14 67q12 27 37 45q23 16 55 27q27 8 68 8t68 -8q33 -10 55 -27q25 -18 39 -45t14 -67q0 -39 -14.5 -66t-38.5 -45q-27 -20 -55 -29q-27 -8 -68 -8t-68 8q-29 8 -55 29q-25 18 -37 45q-14 33 -14 66z" />
<glyph unicode="&#x117;" horiz-adv-x="1167" d="M96 543q0 150 33 254t100 182q61 70 160 108q95 37 215 37q106 0 201 -32q88 -31 149 -93q63 -63 96 -153t33 -215v-105h-671q2 -100 22 -178q16 -63 55 -121q35 -49 84 -71q51 -23 113 -23q52 0 98 12q41 10 82 35q33 18 64 53q25 27 45 66q55 -31 55 -100 q0 -43 -24 -84q-23 -39 -74 -70q-45 -29 -125 -47q-78 -18 -180 -18q-125 0 -230 38q-96 37 -166 109q-68 72 -102 178q-33 101 -33 238zM416 657h354q0 84 -8 140q-8 57 -29 104q-18 45 -51 67.5t-74 22.5q-88 0 -137 -86t-55 -248zM434 1430q0 35 14 67q12 27 37 45 q23 16 55 27q27 8 68 8t68 -8q33 -10 55 -27q25 -18 39 -45t14 -67q0 -39 -14.5 -66t-38.5 -45q-27 -20 -55 -29q-27 -8 -68 -8t-68 8q-29 8 -55 29q-25 18 -37 45q-14 33 -14 66z" />
<glyph unicode="&#x118;" horiz-adv-x="1335" d="M57 0v109h86q16 0 41 4q16 2 33 16q12 10 23 37q8 23 8 65v990q0 47 -8 69q-10 29 -23 41q-16 16 -33 19q-25 4 -41 4h-86v108h1137l8 -377h-143l-10 97q-10 80 -37 114q-31 41 -94 41h-345v-512h486v-123h-486v-577h410q33 0 53 12q23 12 37 33q18 27 27 49q6 20 14 62 l16 96h142l-15 -377h-1200zM712 -266q0 51 21 92q23 43 53 78q29 31 78 59q43 25 90 37h158q-33 -10 -66 -31q-41 -27 -61 -49q-29 -31 -45 -67q-18 -41 -19 -89q0 -25 10 -49q8 -18 29 -32q23 -14 45 -21q25 -6 58 -6q18 0 59 4q35 4 70 12v-131q-12 -8 -39 -14 q-35 -8 -47 -10l-50 -6q-16 -2 -39 -3q-154 0 -227 54q-78 55 -78 172z" />
<glyph unicode="&#x119;" horiz-adv-x="1167" d="M96 543q0 150 33 254t100 182q61 70 160 108q95 37 215 37q106 0 201 -32q88 -31 149 -93q63 -63 96 -153t33 -215v-105h-671q2 -100 22 -178q16 -63 55 -121q35 -49 84 -71q51 -23 113 -23q52 0 98 12q41 10 82 35q33 18 64 53q25 27 45 66q55 -31 55 -100 q0 -43 -24 -84q-23 -39 -74 -70q-45 -29 -125 -47q-78 -18 -180 -18q-125 0 -230 38q-96 37 -166 109q-68 72 -102 178q-33 101 -33 238zM416 657h354q0 84 -8 140q-8 57 -29 104q-18 45 -51 67.5t-74 22.5q-88 0 -137 -86t-55 -248zM506 -235q0 51 21 92q23 43 53 78 q29 31 78 59q43 25 90 37h158q-33 -10 -66 -31q-41 -27 -61 -49q-29 -31 -45 -67q-18 -41 -19 -89q0 -25 10 -49q8 -18 29 -32q23 -14 45 -21q25 -6 58 -6q18 0 59 4q35 4 70 12v-131q-12 -8 -39 -14q-35 -8 -47 -10l-50 -6q-16 -2 -39 -3q-154 0 -227 54q-78 55 -78 172z " />
<glyph unicode="&#x11a;" horiz-adv-x="1335" d="M57 0v109h86q16 0 41 4q16 2 33 16q12 10 23 37q8 23 8 65v990q0 47 -8 69q-10 29 -23 41q-16 16 -33 19q-25 4 -41 4h-86v108h1137l8 -377h-143l-10 97q-10 80 -37 114q-31 41 -94 41h-345v-512h486v-123h-486v-577h410q33 0 53 12q23 12 37 33q18 27 27 49q6 20 14 62 l16 96h142l-15 -377h-1200zM311 1880v27h142l49 -39l29.5 -24.5l29.5 -24.5q14 -10 21.5 -17.5t17.5 -15.5t21 -18l26.5 -21.5t26.5 -24.5q12 12 26.5 23.5t26.5 22.5q10 10 20.5 18t17.5 15t21 18l62 49l49 39h141v-27l-57 -67l-63 -78q-41 -53 -60 -80q-31 -45 -45 -76 h-276q-14 31 -45 76q-18 27 -60 80l-65 78z" />
<glyph unicode="&#x11b;" horiz-adv-x="1167" d="M96 543q0 150 33 254t100 182q61 70 160 108q95 37 215 37q106 0 201 -32q88 -31 149 -93q63 -63 96 -153t33 -215v-105h-671q2 -100 22 -178q16 -63 55 -121q35 -49 84 -71q51 -23 113 -23q52 0 98 12q41 10 82 35q33 18 64 53q25 27 45 66q55 -31 55 -100 q0 -43 -24 -84q-23 -39 -74 -70q-45 -29 -125 -47q-78 -18 -180 -18q-125 0 -230 38q-96 37 -166 109q-68 72 -102 178q-33 101 -33 238zM416 657h354q0 84 -8 140q-8 57 -29 104q-18 45 -51 67.5t-74 22.5q-88 0 -137 -86t-55 -248zM233 1542v27h142l49 -39l29.5 -24.5 l29.5 -24.5q14 -10 21.5 -17.5t17.5 -15.5t21 -18l26.5 -21.5t26.5 -24.5q12 12 26.5 23.5t26.5 22.5q10 10 20.5 18t17.5 15t21 18l62 49l49 39h141v-27l-57 -67l-63 -78q-41 -53 -60 -80q-31 -45 -45 -76h-276q-14 31 -45 76q-18 27 -60 80l-65 78z" />
<glyph unicode="&#x11c;" horiz-adv-x="1574" d="M113 733q0 164 49 303q49 137 145 238q95 98 240 153t330 56q127 0 223 -19q88 -16 160 -51q70 -33 98 -74q31 -43 31 -94q0 -41 -17 -67q-18 -33 -51 -56q-33 -25 -84 -37q-57 -14 -113 -14q0 66 -14 115t-47 88q-29 35 -80 57q-47 20 -113 21q-109 0 -190 -41 q-80 -41 -129 -119q-51 -84 -72 -195q-23 -123 -22 -264q0 -147 24 -262q27 -119 76 -192q55 -80 135 -119q86 -41 205 -41q27 0 76 4t74 10v301q0 84 -37 115t-109 31h-27v108h644v-108h-27q-33 0 -53 -7q-23 -6 -39.5 -26.5t-22.5 -46.5q-6 -31 -6 -74v-336 q-117 -53 -242 -82q-127 -29 -262 -28q-190 0 -331 55q-143 55 -236 151q-90 94 -139 240q-47 141 -47 307zM475 1579v27l56 67l65 78q27 35 60 82q33 49 45 74h276q12 -25 45 -74q33 -47 60 -82l63 -78l57 -67v-27h-141l-49 39l-62 49l-59 49l-53 47l-53 -47l-60 -49 l-29.5 -24.5l-29.5 -24.5l-49 -39h-142z" />
<glyph unicode="&#x11d;" horiz-adv-x="1146" d="M4 -207q0 109 72 168q70 57 205 70q-37 16 -55.5 26.5t-47.5 38.5q-23 23 -35 51.5t-12 65.5q0 31 14 63q12 28 37 56q18 20 57.5 49t73.5 47q-37 12 -84 45q-37 25 -65 68q-28 40 -43 92q-16 55 -17 112q0 180 105 279q106 100 323 100q74 0 136 -18q55 -16 108 -45 q16 18 37 39q6 6 47 37q16 12 58 28q25 10 71 11q39 0 63.5 -8.5t47.5 -26.5q20 -16 28 -37q8 -18 9 -45q0 -23 -7 -45q-4 -16 -24 -37q-14 -14 -45 -24.5t-70 -10.5q0 22 -6 37q-6 14 -18 27q-10 10 -25 16q-16 6 -29 6q-18 0 -36 -6q-16 -6 -31 -16q20 -20 39 -52 q25 -41 33 -63.5t20 -71.5q8 -33 8 -74q0 -78 -24 -143q-25 -63 -76 -113q-51 -47 -129 -75q-74 -27 -185 -27h-28q-8 0 -17.5 1t-17.5 1q-6 0 -16.5 1t-14.5 1q-6 0 -14 1t-10 1l-27 -18q-18 -12 -25 -23q-10 -14 -16 -28q-6 -16 -6 -35q0 -35 27 -49q29 -16 69 -17h248 q98 0 176 -22q74 -22 123 -62q51 -41 72 -98q23 -61 22 -131q0 -96 -36.5 -170t-108.5 -125q-74 -52 -184 -80q-106 -27 -265 -27q-244 0 -360 72q-119 74 -119 213zM246 -203q0 -84 61 -125q63 -41 180 -41q180 0 262 51.5t82 153.5q0 66 -40 90q-43 27 -125 27h-238 q-33 0 -63 -6q-33 -6 -58 -23q-29 -18 -45 -47q-16 -27 -16 -80zM383 745q0 -41 8 -98q6 -43 25 -74q20 -35 43 -49q25 -16 67 -16q39 0 68 16q25 14 43 49q16 33 22.5 76t6.5 99q0 58 -7 104q-4 37 -24 80q-14 33 -43 51q-28 18 -68 18q-37 0 -67 -20q-29 -18 -43 -51 q-18 -43 -25 -82q-6 -46 -6 -103zM170 1241v27l56 67l65 78q27 35 60 82q33 49 45 74h276q12 -25 45 -74q33 -47 60 -82l63 -78l57 -67v-27h-141l-49 39l-62 49l-59 49l-53 47l-53 -47l-60 -49l-29.5 -24.5l-29.5 -24.5l-49 -39h-142z" />
<glyph unicode="&#x11e;" horiz-adv-x="1574" d="M113 733q0 164 49 303q49 137 145 238q95 98 240 153t330 56q127 0 223 -19q88 -16 160 -51q70 -33 98 -74q31 -43 31 -94q0 -41 -17 -67q-18 -33 -51 -56q-33 -25 -84 -37q-57 -14 -113 -14q0 66 -14 115t-47 88q-29 35 -80 57q-47 20 -113 21q-109 0 -190 -41 q-80 -41 -129 -119q-51 -84 -72 -195q-23 -123 -22 -264q0 -147 24 -262q27 -119 76 -192q55 -80 135 -119q86 -41 205 -41q27 0 76 4t74 10v301q0 84 -37 115t-109 31h-27v108h644v-108h-27q-33 0 -53 -7q-23 -6 -39.5 -26.5t-22.5 -46.5q-6 -31 -6 -74v-336 q-117 -53 -242 -82q-127 -29 -262 -28q-190 0 -331 55q-143 55 -236 151q-90 94 -139 240q-47 141 -47 307zM510 1901h135q18 -72 68 -107q47 -33 125 -33t125 33q49 35 67 107h136q-4 -63 -23 -115q-22 -58 -61 -105q-39 -45 -102.5 -73.5t-141.5 -28.5t-141.5 28.5 t-102.5 73.5q-40 46 -61 105q-19 52 -23 115z" />
<glyph unicode="&#x11f;" horiz-adv-x="1146" d="M4 -207q0 109 72 168q70 57 205 70q-37 16 -55.5 26.5t-47.5 38.5q-23 23 -35 51.5t-12 65.5q0 31 14 63q12 28 37 56q18 20 57.5 49t73.5 47q-37 12 -84 45q-37 25 -65 68q-28 40 -43 92q-16 55 -17 112q0 180 105 279q106 100 323 100q74 0 136 -18q55 -16 108 -45 q16 18 37 39q6 6 47 37q16 12 58 28q25 10 71 11q39 0 63.5 -8.5t47.5 -26.5q20 -16 28 -37q8 -18 9 -45q0 -23 -7 -45q-4 -16 -24 -37q-14 -14 -45 -24.5t-70 -10.5q0 22 -6 37q-6 14 -18 27q-10 10 -25 16q-16 6 -29 6q-18 0 -36 -6q-16 -6 -31 -16q20 -20 39 -52 q25 -41 33 -63.5t20 -71.5q8 -33 8 -74q0 -78 -24 -143q-25 -63 -76 -113q-51 -47 -129 -75q-74 -27 -185 -27h-28q-8 0 -17.5 1t-17.5 1q-6 0 -16.5 1t-14.5 1q-6 0 -14 1t-10 1l-27 -18q-18 -12 -25 -23q-10 -14 -16 -28q-6 -16 -6 -35q0 -35 27 -49q29 -16 69 -17h248 q98 0 176 -22q74 -22 123 -62q51 -41 72 -98q23 -61 22 -131q0 -96 -36.5 -170t-108.5 -125q-74 -52 -184 -80q-106 -27 -265 -27q-244 0 -360 72q-119 74 -119 213zM246 -203q0 -84 61 -125q63 -41 180 -41q180 0 262 51.5t82 153.5q0 66 -40 90q-43 27 -125 27h-238 q-33 0 -63 -6q-33 -6 -58 -23q-29 -18 -45 -47q-16 -27 -16 -80zM383 745q0 -41 8 -98q6 -43 25 -74q20 -35 43 -49q25 -16 67 -16q39 0 68 16q25 14 43 49q16 33 22.5 76t6.5 99q0 58 -7 104q-4 37 -24 80q-14 33 -43 51q-28 18 -68 18q-37 0 -67 -20q-29 -18 -43 -51 q-18 -43 -25 -82q-6 -46 -6 -103zM196 1563h135q18 -72 68 -107q47 -33 125 -33t125 33q49 35 67 107h136q-4 -63 -23 -115q-22 -58 -61 -105q-39 -45 -102.5 -73.5t-141.5 -28.5t-141.5 28.5t-102.5 73.5q-40 46 -61 105q-19 52 -23 115z" />
<glyph unicode="&#x120;" horiz-adv-x="1574" d="M113 733q0 164 49 303q49 137 145 238q95 98 240 153t330 56q127 0 223 -19q88 -16 160 -51q70 -33 98 -74q31 -43 31 -94q0 -41 -17 -67q-18 -33 -51 -56q-33 -25 -84 -37q-57 -14 -113 -14q0 66 -14 115t-47 88q-29 35 -80 57q-47 20 -113 21q-109 0 -190 -41 q-80 -41 -129 -119q-51 -84 -72 -195q-23 -123 -22 -264q0 -147 24 -262q27 -119 76 -192q55 -80 135 -119q86 -41 205 -41q27 0 76 4t74 10v301q0 84 -37 115t-109 31h-27v108h644v-108h-27q-33 0 -53 -7q-23 -6 -39.5 -26.5t-22.5 -46.5q-6 -31 -6 -74v-336 q-117 -53 -242 -82q-127 -29 -262 -28q-190 0 -331 55q-143 55 -236 151q-90 94 -139 240q-47 141 -47 307zM662 1768q0 35 14 67q12 27 37 45q23 16 55 27q27 8 68 8t68 -8q33 -10 55 -27q25 -18 39 -45t14 -67q0 -39 -14.5 -66t-38.5 -45q-27 -20 -55 -29q-27 -8 -68 -8 t-68 8q-29 8 -55 29q-25 18 -37 45q-14 33 -14 66z" />
<glyph unicode="&#x121;" horiz-adv-x="1146" d="M4 -207q0 109 72 168q70 57 205 70q-37 16 -55.5 26.5t-47.5 38.5q-23 23 -35 51.5t-12 65.5q0 31 14 63q12 28 37 56q18 20 57.5 49t73.5 47q-37 12 -84 45q-37 25 -65 68q-28 40 -43 92q-16 55 -17 112q0 180 105 279q106 100 323 100q74 0 136 -18q55 -16 108 -45 q16 18 37 39q6 6 47 37q16 12 58 28q25 10 71 11q39 0 63.5 -8.5t47.5 -26.5q20 -16 28 -37q8 -18 9 -45q0 -23 -7 -45q-4 -16 -24 -37q-14 -14 -45 -24.5t-70 -10.5q0 22 -6 37q-6 14 -18 27q-10 10 -25 16q-16 6 -29 6q-18 0 -36 -6q-16 -6 -31 -16q20 -20 39 -52 q25 -41 33 -63.5t20 -71.5q8 -33 8 -74q0 -78 -24 -143q-25 -63 -76 -113q-51 -47 -129 -75q-74 -27 -185 -27h-28q-8 0 -17.5 1t-17.5 1q-6 0 -16.5 1t-14.5 1q-6 0 -14 1t-10 1l-27 -18q-18 -12 -25 -23q-10 -14 -16 -28q-6 -16 -6 -35q0 -35 27 -49q29 -16 69 -17h248 q98 0 176 -22q74 -22 123 -62q51 -41 72 -98q23 -61 22 -131q0 -96 -36.5 -170t-108.5 -125q-74 -52 -184 -80q-106 -27 -265 -27q-244 0 -360 72q-119 74 -119 213zM246 -203q0 -84 61 -125q63 -41 180 -41q180 0 262 51.5t82 153.5q0 66 -40 90q-43 27 -125 27h-238 q-33 0 -63 -6q-33 -6 -58 -23q-29 -18 -45 -47q-16 -27 -16 -80zM383 745q0 -41 8 -98q6 -43 25 -74q20 -35 43 -49q25 -16 67 -16q39 0 68 16q25 14 43 49q16 33 22.5 76t6.5 99q0 58 -7 104q-4 37 -24 80q-14 33 -43 51q-28 18 -68 18q-37 0 -67 -20q-29 -18 -43 -51 q-18 -43 -25 -82q-6 -46 -6 -103zM350 1430q0 35 14 67q12 27 37 45q23 16 55 27q27 8 68 8t68 -8q33 -10 55 -27q25 -18 39 -45t14 -67q0 -39 -14.5 -66t-38.5 -45q-27 -20 -55 -29q-27 -8 -68 -8t-68 8q-29 8 -55 29q-25 18 -37 45q-14 33 -14 66z" />
<glyph unicode="&#x122;" horiz-adv-x="1574" d="M113 733q0 164 49 303q49 137 145 238q95 98 240 153t330 56q127 0 223 -19q88 -16 160 -51q70 -33 98 -74q31 -43 31 -94q0 -41 -17 -67q-18 -33 -51 -56q-33 -25 -84 -37q-57 -14 -113 -14q0 66 -14 115t-47 88q-29 35 -80 57q-47 20 -113 21q-109 0 -190 -41 q-80 -41 -129 -119q-51 -84 -72 -195q-23 -123 -22 -264q0 -147 24 -262q27 -119 76 -192q55 -80 135 -119q86 -41 205 -41q27 0 76 4t74 10v301q0 84 -37 115t-109 31h-27v108h644v-108h-27q-33 0 -53 -7q-23 -6 -39.5 -26.5t-22.5 -46.5q-6 -31 -6 -74v-336 q-117 -53 -242 -82q-127 -29 -262 -28q-190 0 -331 55q-143 55 -236 151q-90 94 -139 240q-47 141 -47 307zM633 -426q6 16 10.5 33.5t10.5 36.5l11 40.5t11 36.5q8 27 21 80q14 61 16 74h238v-20l-37 -72q-18 -33 -49 -82l-56 -82l-28.5 -38.5t-24.5 -33.5h-123v27z" />
<glyph unicode="&#x123;" horiz-adv-x="1146" d="M4 -207q0 109 72 168q70 57 205 70q-37 16 -55.5 26.5t-47.5 38.5q-23 23 -35 51.5t-12 65.5q0 31 14 63q12 28 37 56q18 20 57.5 49t73.5 47q-37 12 -84 45q-37 25 -65 68q-28 40 -43 92q-16 55 -17 112q0 180 105 279q106 100 323 100q74 0 136 -18q55 -16 108 -45 q16 18 37 39q6 6 47 37q16 12 58 28q25 10 71 11q39 0 63.5 -8.5t47.5 -26.5q20 -16 28 -37q8 -18 9 -45q0 -23 -7 -45q-4 -16 -24 -37q-14 -14 -45 -24.5t-70 -10.5q0 22 -6 37q-6 14 -18 27q-10 10 -25 16q-16 6 -29 6q-18 0 -36 -6q-16 -6 -31 -16q20 -20 39 -52 q25 -41 33 -63.5t20 -71.5q8 -33 8 -74q0 -78 -24 -143q-25 -63 -76 -113q-51 -47 -129 -75q-74 -27 -185 -27h-28q-8 0 -17.5 1t-17.5 1q-6 0 -16.5 1t-14.5 1q-6 0 -14 1t-10 1l-27 -18q-18 -12 -25 -23q-10 -14 -16 -28q-6 -16 -6 -35q0 -35 27 -49q29 -16 69 -17h248 q98 0 176 -22q74 -22 123 -62q51 -41 72 -98q23 -61 22 -131q0 -96 -36.5 -170t-108.5 -125q-74 -52 -184 -80q-106 -27 -265 -27q-244 0 -360 72q-119 74 -119 213zM246 -203q0 -84 61 -125q63 -41 180 -41q180 0 262 51.5t82 153.5q0 66 -40 90q-43 27 -125 27h-238 q-33 0 -63 -6q-33 -6 -58 -23q-29 -18 -45 -47q-16 -27 -16 -80zM383 745q0 -41 8 -98q6 -43 25 -74q20 -35 43 -49q25 -16 67 -16q39 0 68 16q25 14 43 49q16 33 22.5 76t6.5 99q0 58 -7 104q-4 37 -24 80q-14 33 -43 51q-28 18 -68 18q-37 0 -67 -20q-29 -18 -43 -51 q-18 -43 -25 -82q-6 -46 -6 -103zM422 1241v21l36 71q27 49 50 82l55 80l53 74h123v-27l-22 -69l-11.5 -41t-11.5 -37q-8 -27 -21 -80q-4 -18 -14 -74h-237z" />
<glyph unicode="&#x124;" horiz-adv-x="1675" d="M57 0v109h86q16 0 41 4q16 2 33 18q12 12 23 41q8 23 8 70v987q0 43 -8 65q-10 27 -23 37q-16 14 -35 17q-37 6 -39 6h-86v108h707v-108h-88q-4 0 -41 -6q-16 -2 -33 -19q-12 -12 -22 -39q-8 -23 -9 -69v-396h535v396q0 47 -8 69q-10 27 -23 39q-16 16 -33 19 q-37 6 -41 6h-88v108h707v-108h-86q-4 0 -41 -6q-16 -2 -33 -19q-12 -12 -22 -39q-8 -23 -8 -69v-990q0 -43 8 -65q9 -25 24 -37q16 -14 33 -16q25 -4 39 -4h86v-109h-707v109h88q16 0 41 4q16 2 33 18q12 12 23 41q8 23 8 70v458h-535v-458q0 -47 9 -70q10 -29 22 -41 q16 -16 33 -18q25 -4 41 -4h88v-109h-707zM477 1579v27l56 67l65 78q27 35 60 82q33 49 45 74h276q12 -25 45 -74q33 -47 60 -82l63 -78l57 -67v-27h-141l-49 39l-62 49l-59 49l-53 47l-53 -47l-60 -49l-29.5 -24.5l-29.5 -24.5l-49 -39h-142z" />
<glyph unicode="&#x125;" horiz-adv-x="1363" d="M35 1448v108h481v-337q0 -55 -2 -86t-6 -84l-8 -91h18q27 51 66 91q34 34 73 49q53 20 82 22q57 4 92 4q74 0 142 -22q61 -20 106 -72q47 -55 68 -123q23 -78 22 -178v-475q0 -51 9 -76q12 -35 24 -45t43 -18q25 -6 62 -6h6v-109h-455v674q0 70 -8 117q-10 53 -29 88 q-18 33 -51 53q-31 18 -76 18q-49 0 -86 -26q-29 -20 -53 -70q-23 -43 -31 -100q-8 -51 -8 -121v-391q0 -43 10 -70q8 -23 29 -39q20 -18 47 -20q37 -4 62 -4h6v-109h-629v109h4q27 0 64 4q27 2 51 20q20 14 33 43q12 28 12 74v1073q0 43 -15 66q-16 29 -36 38 q-23 14 -48 17q-33 4 -47 4h-24zM305 1634v27l56 67l65 78q27 35 60 82q33 49 45 74h276q12 -25 45 -74q33 -47 60 -82l63 -78l57 -67v-27h-141l-49 39l-62 49l-59 49l-53 47l-53 -47l-60 -49l-29.5 -24.5l-29.5 -24.5l-49 -39h-142z" />
<glyph unicode="&#x126;" horiz-adv-x="1675" d="M37 1022v108h211v99q0 43 -8 65q-10 27 -23 37q-20 16 -35 19q-25 4 -39 4h-86v108h707v-108h-88q-16 0 -41 -4q-16 -2 -33 -19q-12 -12 -22 -41q-8 -23 -9 -69v-91h535v91q0 47 -8 69q-10 29 -23 41q-16 16 -33 19q-25 4 -41 4h-88v108h707v-108h-86q-16 0 -41 -4 q-16 -2 -33 -19q-12 -12 -22 -41q-8 -23 -8 -69v-91h210v-108h-210v-791q0 -43 8 -65q9 -25 24 -37q16 -14 33 -16q25 -4 39 -4h86v-109h-707v109h88q16 0 41 4q16 2 33 18q12 12 23 41q8 23 8 70v458h-535v-458q0 -47 9 -70q10 -29 22 -41q16 -16 33 -18q25 -4 41 -4h88 v-109h-707v109h86q16 0 41 4q16 2 33 18q12 12 23 41q8 23 8 70v780h-211zM571 825h535v197h-535v-197z" />
<glyph unicode="&#x127;" horiz-adv-x="1363" d="M27 1184v108h178v31q0 43 -15 66q-16 29 -36 38q-23 14 -48 17q-33 4 -47 4h-24v108h481v-264h318v-108h-318v-27q0 -55 -2 -86t-6 -84l-8 -90h18q27 51 66 90q37 37 73 51q47 18 82 21q57 4 92 4q74 0 142 -23q61 -20 106 -71q47 -55 68 -123q23 -78 22 -178v-414 q0 -51 9 -76q12 -35 24 -45t43 -18q25 -6 62 -6h6v-109h-455v612q0 70 -8 117t-29 88q-16 33 -51 53q-31 18 -76 19q-49 0 -86 -27q-29 -20 -53 -69q-23 -43 -31 -101q-8 -51 -8 -121v-329q0 -43 10 -70q8 -23 29 -39q20 -18 47 -20q37 -4 62 -4h6v-109h-629v109h4 q27 0 64 4q27 2 51 20q20 14 33 43q12 28 12 74v934h-178z" />
<glyph unicode="&#x128;" horiz-adv-x="819" d="M57 0v109h86q16 0 41 4q16 2 33 18q12 12 23 41q8 23 8 70v979q0 47 -8 69q-10 27 -23 39q-16 16 -33 19q-37 6 -41 6h-86v108h707v-108h-86q-4 0 -41 -6q-20 -4 -35 -19q-10 -10 -20 -39q-8 -23 -9 -69v-979q0 -47 9 -70q12 -33 20 -41q14 -14 35 -18q25 -4 41 -4h86 v-109h-707zM2 1600q4 68 23 116q20 51 55 97q31 39 80 65q47 25 100 25q57 0 99 -21q76 -37 84 -43l71 -45q33 -20 66 -20q18 0 38.5 10t30.5 22q14 18 21 35q8 23 10 41h133q-4 -68 -22 -117q-20 -51 -55 -96q-33 -41 -78 -65.5t-101 -24.5q-59 0 -100 21l-82 43l-72 45 q-33 20 -67 20q-25 0 -41 -8q-14 -8 -29 -25q-14 -18 -20 -34q-8 -23 -11 -41h-133z" />
<glyph unicode="&#x129;" horiz-adv-x="720" d="M35 0v109h24q14 0 47 4q27 4 47.5 18t36.5 41q14 23 15 70v622q0 43 -15 66q-15 25 -36 37q-29 16 -48 18q-33 4 -47 4h-24v109h481v-856q0 -47 14 -70q16 -27 37 -41t47 -18q33 -4 48 -4h24v-109h-651zM-54 1262q4 68 23 116q20 51 55 97q31 39 80 65q47 25 100 25 q57 0 99 -21q76 -37 84 -43l71 -45q33 -20 66 -20q18 0 38.5 10t30.5 22q14 18 21 35q8 23 10 41h133q-4 -68 -22 -117q-20 -51 -55 -96q-33 -41 -78 -65.5t-101 -24.5q-59 0 -100 21l-82 43l-72 45q-33 20 -67 20q-25 0 -41 -8q-14 -8 -29 -25q-14 -18 -20 -34 q-8 -23 -11 -41h-133z" />
<glyph unicode="&#x12a;" horiz-adv-x="819" d="M57 0v109h86q16 0 41 4q16 2 33 18q12 12 23 41q8 23 8 70v979q0 47 -8 69q-10 27 -23 39q-16 16 -33 19q-37 6 -41 6h-86v108h707v-108h-86q-4 0 -41 -6q-20 -4 -35 -19q-10 -10 -20 -39q-8 -23 -9 -69v-979q0 -47 9 -70q12 -33 20 -41q14 -14 35 -18q25 -4 41 -4h86 v-109h-707zM113 1579v162h594v-162h-594z" />
<glyph unicode="&#x12b;" horiz-adv-x="720" d="M35 0v109h24q14 0 47 4q27 4 47.5 18t36.5 41q14 23 15 70v622q0 43 -15 66q-15 25 -36 37q-29 16 -48 18q-33 4 -47 4h-24v109h481v-856q0 -47 14 -70q16 -27 37 -41t47 -18q33 -4 48 -4h24v-109h-651zM31 1241v162h594v-162h-594z" />
<glyph unicode="&#x12c;" horiz-adv-x="819" d="M57 0v109h86q16 0 41 4q16 2 33 18q12 12 23 41q8 23 8 70v979q0 47 -8 69q-10 27 -23 39q-16 16 -33 19q-37 6 -41 6h-86v108h707v-108h-86q-4 0 -41 -6q-20 -4 -35 -19q-10 -10 -20 -39q-8 -23 -9 -69v-979q0 -47 9 -70q12 -33 20 -41q14 -14 35 -18q25 -4 41 -4h86 v-109h-707zM82 1901h135q18 -72 68 -107q47 -33 125 -33t125 33q49 35 67 107h136q-4 -63 -23 -115q-22 -58 -61 -105q-39 -45 -102.5 -73.5t-141.5 -28.5t-141.5 28.5t-102.5 73.5q-40 46 -61 105q-19 52 -23 115z" />
<glyph unicode="&#x12d;" horiz-adv-x="720" d="M35 0v109h24q14 0 47 4q27 4 47.5 18t36.5 41q14 23 15 70v622q0 43 -15 66q-15 25 -36 37q-29 16 -48 18q-33 4 -47 4h-24v109h481v-856q0 -47 14 -70q16 -27 37 -41t47 -18q33 -4 48 -4h24v-109h-651zM16 1563h135q18 -72 68 -107q47 -33 125 -33t125 33q49 35 67 107 h136q-4 -63 -23 -115q-22 -58 -61 -105q-39 -45 -102.5 -73.5t-141.5 -28.5t-141.5 28.5t-102.5 73.5q-40 46 -61 105q-19 52 -23 115z" />
<glyph unicode="&#x12e;" horiz-adv-x="819" d="M57 0v109h86q16 0 41 4q16 2 33 18q12 12 23 41q8 23 8 70v979q0 47 -8 69q-10 27 -23 39q-16 16 -33 19q-37 6 -41 6h-86v108h707v-108h-86q-4 0 -41 -6q-20 -4 -35 -19q-10 -10 -20 -39q-8 -23 -9 -69v-979q0 -47 9 -70q12 -33 20 -41q14 -14 35 -18q25 -4 41 -4h86 v-109h-707zM200 -266q0 51 21 92q23 43 53 78q29 31 78 59q43 25 90 37h158q-33 -10 -66 -31q-41 -27 -61 -49q-29 -31 -45 -67q-18 -41 -19 -89q0 -25 10 -49q8 -18 29 -32q23 -14 45 -21q25 -6 58 -6q18 0 59 4q35 4 70 12v-131q-12 -8 -39 -14q-35 -8 -47 -10l-50 -6 q-16 -2 -39 -3q-154 0 -227 54q-78 55 -78 172z" />
<glyph unicode="&#x12f;" horiz-adv-x="720" d="M35 0v109h24q14 0 47 4q27 4 47.5 18t36.5 41q14 23 15 70v622q0 43 -15 66q-15 25 -36 37q-29 16 -48 18q-33 4 -47 4h-24v109h481v-856q0 -47 14 -70q16 -27 37 -41t47 -18q33 -4 48 -4h24v-109h-651zM176 1430q0 35 14 67q12 27 37 45.5t54 26.5q27 8 69 8q41 0 68 -8 q33 -10 55 -27q25 -18 39 -45t14 -67q0 -39 -14 -66t-39 -45q-27 -20 -55 -29q-27 -8 -68 -8q-43 0 -69 8q-25 8 -54 29q-25 18 -37 45q-14 33 -14 66zM143 -266q0 51 21 92q23 43 53 78q29 31 78 59q43 25 90 37h158q-33 -10 -66 -31q-41 -27 -61 -49q-29 -31 -45 -67 q-18 -41 -19 -89q0 -25 10 -49q8 -18 29 -32q23 -14 45 -21q25 -6 58 -6q18 0 59 4q35 4 70 12v-131q-12 -8 -39 -14q-35 -8 -47 -10l-50 -6q-16 -2 -39 -3q-154 0 -227 54q-78 55 -78 172z" />
<glyph unicode="&#x130;" horiz-adv-x="819" d="M57 0v109h86q16 0 41 4q16 2 33 18q12 12 23 41q8 23 8 70v979q0 47 -8 69q-10 27 -23 39q-16 16 -33 19q-37 6 -41 6h-86v108h707v-108h-86q-4 0 -41 -6q-20 -4 -35 -19q-10 -10 -20 -39q-8 -23 -9 -69v-979q0 -47 9 -70q12 -33 20 -41q14 -14 35 -18q25 -4 41 -4h86 v-109h-707zM232 1768q0 35 14 67q12 27 37 45q23 16 55 27q27 8 68 8t68 -8q33 -10 55 -27q25 -18 39 -45t14 -67q0 -39 -14.5 -66t-38.5 -45q-27 -20 -55 -29q-27 -8 -68 -8t-68 8q-29 8 -55 29q-25 18 -37 45q-14 33 -14 66z" />
<glyph unicode="&#x131;" horiz-adv-x="720" d="M35 0v109h24q14 0 47 4q27 4 47.5 18t36.5 41q14 23 15 70v622q0 43 -15 66q-15 25 -36 37q-29 16 -48 18q-33 4 -47 4h-24v109h481v-856q0 -47 14 -70q16 -27 37 -41t47 -18q33 -4 48 -4h24v-109h-651z" />
<glyph unicode="&#x132;" horiz-adv-x="1574" d="M57 0v109h86q16 0 41 4q16 2 33 18q12 12 23 41q8 23 8 70v979q0 47 -8 69q-10 27 -23 39q-16 16 -33 19q-37 6 -41 6h-86v108h707v-108h-86q-4 0 -41 -6q-20 -4 -35 -19q-10 -10 -20 -39q-8 -23 -9 -69v-979q0 -47 9 -70q12 -33 20 -41q14 -14 35 -18q25 -4 41 -4h86 v-109h-707zM741 -373h37q51 0 96 18.5t82 61.5q35 41 58 113q23 74 22 174v1235q0 43 -8 65q-10 27 -23 37q-20 16 -32 19q-25 4 -41 4h-86v108h706v-108h-86q-16 0 -41 -4q-20 -4 -35 -19q-12 -12 -22 -41q-8 -23 -8 -69v-1225q0 -98 -21 -166q-23 -72 -57 -125 q-37 -53 -90 -92q-63 -45 -111 -62q-72 -25 -129 -32q-76 -10 -137 -11h-74v119z" />
<glyph unicode="&#x133;" horiz-adv-x="1425" d="M35 0v109h24q14 0 47 4q27 4 47.5 18t36.5 41q14 23 15 70v622q0 43 -15 66q-15 25 -36 37q-29 16 -48 18q-33 4 -47 4h-24v109h481v-856q0 -47 14 -70q16 -27 37 -41t47 -18q33 -4 48 -4h24v-109h-651zM176 1430q0 35 14 67q12 27 37 45.5t54 26.5q27 8 69 8q41 0 68 -8 q33 -10 55 -27q25 -18 39 -45t14 -67q0 -39 -14 -66t-39 -45q-27 -20 -55 -29q-27 -8 -68 -8q-43 0 -69 8q-25 8 -54 29q-25 18 -37 45q-14 33 -14 66zM680 -365h14q55 0 99 19q45 18 73.5 59t44.5 113q14 66 15 174v854q0 43 -12 70q-10 20 -37 41q-25 18 -52 20 q-41 4 -63 4h-6v109h481v-1114q0 -139 -39 -229.5t-106 -145.5q-70 -57 -164 -78q-100 -23 -207 -23h-41v127zM899 1430q0 35 15 67q12 27 36.5 45.5t53.5 26.5q27 8 69 8q41 0 68 -8q33 -10 55 -27q25 -18 39 -45t14 -67q0 -39 -14 -66t-39 -45q-27 -20 -55 -29 q-27 -8 -68 -8q-43 0 -69 8q-25 8 -54 29q-25 18 -36 45q-15 33 -15 66z" />
<glyph unicode="&#x134;" horiz-adv-x="753" d="M-80 -373h37q51 0 96 18.5t82 61.5q35 41 58 113q23 74 22 174v1235q0 43 -8 65q-10 27 -23 37q-20 16 -32 19q-25 4 -41 4h-86v108h706v-108h-86q-16 0 -41 -4q-20 -4 -35 -19q-12 -12 -22 -41q-8 -23 -8 -69v-1225q0 -98 -21 -166q-23 -72 -57 -125q-37 -53 -90 -92 q-63 -45 -111 -62q-72 -25 -129 -32q-76 -10 -137 -11h-74v119zM12 1579v27l56 67l65 78q27 35 60 82q33 49 45 74h276q12 -25 45 -74q33 -47 60 -82l63 -78l57 -67v-27h-141l-49 39l-62 49l-59 49l-53 47l-53 -47l-60 -49l-29.5 -24.5l-29.5 -24.5l-49 -39h-142z" />
<glyph unicode="&#x135;" horiz-adv-x="706" d="M-8 -365h12q49 0 86 19q39 18 62 59q31 53 41 113q12 72 12 174v854q0 43 -12 70q-10 20 -37 41q-25 18 -52 20q-41 4 -63 4h-6v109h481v-1114q0 -137 -37 -230q-37 -90 -100 -145q-66 -57 -154 -78q-94 -23 -194 -23h-39v127zM-41 1241v27l56 67l65 78q27 35 60 82 q33 49 45 74h276q12 -25 45 -74q33 -47 60 -82l63 -78l57 -67v-27h-141l-49 39l-62 49l-59 49l-53 47l-53 -47l-60 -49l-29.5 -24.5l-29.5 -24.5l-49 -39h-142z" />
<glyph unicode="&#x136;" horiz-adv-x="1501" d="M57 0v109h86q16 0 41 4q16 2 33 16q12 10 23 37q8 23 8 65v998q0 43 -8 65q-10 27 -23 37q-20 16 -33 19q-25 4 -41 4h-86v108h707v-108h-86q-12 0 -41 -4q-18 -2 -35 -19q-12 -12 -22 -41q-8 -23 -9 -69v-478l318 347q27 27 55.5 63.5t36.5 52.5q12 23 18 47q6 22 7 43 q0 35 -25 47.5t-90 12.5v106h555v-106q-43 0 -80 -12.5t-74 -37t-69 -57.5l-72 -73l-270 -297l381 -605q33 -53 57 -79q33 -35 55 -52q23 -14 58 -26q25 -8 63 -8h8v-109h-110q-98 0 -138 4q-51 6 -102 16.5t-78 24.5q-31 15 -55 37q-29 25 -43 47q-33 49 -39 59l-276 471 l-91 -71v-346q0 -47 9 -70q10 -29 22 -41q16 -16 35 -18q29 -4 41 -4h86v-109h-707zM637 -426q6 16 10.5 33.5t10.5 36.5l11 40.5t11 36.5q8 27 21 80q14 61 16 74h238v-20l-37 -72q-18 -33 -49 -82l-56 -82l-28.5 -38.5t-24.5 -33.5h-123v27z" />
<glyph unicode="&#x137;" horiz-adv-x="1302" d="M35 0v109h24q14 0 47 4q27 4 47.5 18t36.5 41q14 23 15 70v1081q0 43 -15 66q-16 29 -36 38q-23 14 -48 17q-33 4 -47 4h-24v108h481v-790q0 -8 -1 -29.5t-1 -34.5q0 -47 -2 -69l-6 -80l258 289q35 39 45 61q10 25 10 37q0 25 -28 41q-27 14 -78 14v103h516v-103 q-76 0 -139 -41q-76 -49 -150 -133l-129 -147l272 -406q59 -84 109 -121q53 -39 104 -38h7v-109h-29q-137 0 -189 4q-76 6 -131 25q-57 18 -94 53q-41 39 -80 100l-182 287l-82 -61v-166q0 -47 14 -70q16 -27 37 -41t47 -18q33 -4 48 -4h24v-109h-651zM522 -426 q6 16 10.5 33.5t10.5 36.5l11 40.5t11 36.5q8 27 21 80q14 61 16 74h238v-20l-37 -72q-18 -33 -49 -82l-56 -82l-28.5 -38.5t-24.5 -33.5h-123v27z" />
<glyph unicode="&#x138;" horiz-adv-x="1302" d="M35 0v109h24q14 0 47 4q27 4 47.5 18t36.5 41q14 23 15 70v622q0 43 -15 66q-15 25 -36 37q-29 16 -48 18q-33 4 -47 4h-24v109h481v-332q0 -8 -1 -29.5t-1 -34.5q0 -47 -2 -69l-6 -80l258 289q35 39 45 61q10 25 10 37q0 25 -28 41q-27 14 -78 14v103h516v-103 q-76 0 -139 -41q-76 -49 -150 -133l-129 -147l272 -406q59 -84 109 -121q53 -39 104 -38h7v-109h-29q-137 0 -189 4q-76 6 -131 25q-57 18 -94 53q-41 39 -80 100l-182 287l-82 -61v-166q0 -47 14 -70q16 -27 37 -41t47 -18q33 -4 48 -4h24v-109h-651z" />
<glyph unicode="&#x139;" horiz-adv-x="1337" d="M57 0v109h86q16 0 41 4q16 2 33 18q12 12 23 41q8 23 8 70v979q0 47 -8 69q-10 29 -23 41q-16 16 -33 19q-25 4 -41 4h-86v108h707v-108h-86q-16 0 -41 -4q-12 -2 -33 -19q-12 -10 -22 -37q-8 -23 -9 -65v-1104h381q74 0 113 45t57 133l33 154h115l-15 -457h-1200z M344 1579v27q23 29 49 67l55 78l53 82q29 47 41 74h322v-21q-14 -23 -64 -67q-49 -47 -98 -84l-113 -86q-55 -41 -106 -70h-139z" />
<glyph unicode="&#x13a;" horiz-adv-x="720" d="M35 0v109h24q14 0 47 4q27 4 47.5 18t36.5 41q14 23 15 70v1081q0 43 -15 66q-16 29 -36 38q-23 14 -48 17q-33 4 -47 4h-24v108h481v-1314q0 -47 14 -70q16 -27 37 -41t47 -18q33 -4 48 -4h24v-109h-651zM228 1636v27q23 29 49 67l55 78l53 82q29 47 41 74h322v-21 q-14 -23 -64 -67q-49 -47 -98 -84l-113 -86q-55 -41 -106 -70h-139z" />
<glyph unicode="&#x13b;" horiz-adv-x="1337" d="M57 0v109h86q16 0 41 4q16 2 33 18q12 12 23 41q8 23 8 70v979q0 47 -8 69q-10 29 -23 41q-16 16 -33 19q-25 4 -41 4h-86v108h707v-108h-86q-16 0 -41 -4q-12 -2 -33 -19q-12 -10 -22 -37q-8 -23 -9 -65v-1104h381q74 0 113 45t57 133l33 154h115l-15 -457h-1200z M497 -426q6 16 10.5 33.5t10.5 36.5l11 40.5t11 36.5q8 27 21 80q14 61 16 74h238v-20l-37 -72q-18 -33 -49 -82l-56 -82l-28.5 -38.5t-24.5 -33.5h-123v27z" />
<glyph unicode="&#x13c;" horiz-adv-x="720" d="M35 0v109h24q14 0 47 4q27 4 47.5 18t36.5 41q14 23 15 70v1081q0 43 -15 66q-16 29 -36 38q-23 14 -48 17q-33 4 -47 4h-24v108h481v-1314q0 -47 14 -70q16 -27 37 -41t47 -18q33 -4 48 -4h24v-109h-651zM168 -426q6 16 10.5 33.5t10.5 36.5l11 40.5t11 36.5q8 27 21 80 q14 61 16 74h238v-20l-37 -72q-18 -33 -49 -82l-56 -82l-28.5 -38.5t-24.5 -33.5h-123v27z" />
<glyph unicode="&#x13d;" horiz-adv-x="1337" d="M57 0v109h86q16 0 41 4q16 2 33 18q12 12 23 41q8 23 8 70v979q0 47 -8 69q-10 29 -23 41q-16 16 -33 19q-25 4 -41 4h-86v108h707v-108h-86q-16 0 -41 -4q-12 -2 -33 -19q-12 -10 -22 -37q-8 -23 -9 -65v-1104h381q74 0 113 45t57 133l33 154h115l-15 -457h-1200z M924 1137v26l20 68q4 18 10 37.5l13 42.5q8 27 20 80q14 61 16 73h238v-20l-37 -72l-49 -80l-55 -81l-54 -74h-122z" />
<glyph unicode="&#x13e;" horiz-adv-x="720" d="M35 0v109h24q14 0 47 4q27 4 47.5 18t36.5 41q14 23 15 70v1081q0 43 -15 66q-16 29 -36 38q-23 14 -48 17q-33 4 -47 4h-24v108h481v-1314q0 -47 14 -70q16 -27 37 -41t47 -18q33 -4 48 -4h24v-109h-651zM629 1229v26l20 68q4 18 10 37.5l13 42.5q8 27 20 80 q14 61 16 73h238v-20l-37 -72l-49 -80l-55 -81l-54 -74h-122z" />
<glyph unicode="&#x13f;" horiz-adv-x="1337" d="M57 0v109h86q16 0 41 4q16 2 33 18q12 12 23 41q8 23 8 70v979q0 47 -8 69q-10 29 -23 41q-16 16 -33 19q-25 4 -41 4h-86v108h707v-108h-86q-16 0 -41 -4q-12 -2 -33 -19q-12 -10 -22 -37q-8 -23 -9 -65v-1104h381q74 0 113 45t57 133l33 154h115l-15 -457h-1200z M756 760q0 35 14 67q12 27 37 45q23 16 55 27q27 8 68 8t68 -8q33 -10 55 -27q25 -18 39 -45t14 -67q0 -39 -14.5 -66t-38.5 -45q-27 -20 -55 -29q-27 -8 -68 -8t-68 8q-29 8 -55 29q-25 18 -37 45q-14 33 -14 66z" />
<glyph unicode="&#x140;" horiz-adv-x="956" d="M35 0v109h24q14 0 47 4q27 4 47.5 18t36.5 41q14 23 15 70v1081q0 43 -15 66q-16 29 -36 38q-23 14 -48 17q-33 4 -47 4h-24v108h481v-1314q0 -47 14 -70q16 -27 37 -41t47 -18q33 -4 48 -4h24v-109h-651zM658 672q0 35 14 67q12 27 37 45q23 16 55 27q27 8 68 8t68 -8 q33 -10 55 -27q25 -18 39 -45t14 -67q0 -39 -14.5 -66t-38.5 -45q-27 -20 -55 -29q-27 -8 -68 -8t-68 8q-29 8 -55 29q-25 18 -37 45q-14 33 -14 66z" />
<glyph unicode="&#x141;" horiz-adv-x="1337" d="M57 0v109h86q16 0 41 4q16 2 33 18q12 12 23 41q8 23 8 70v323l-170 -96v139l170 99v514q0 47 -8 69q-10 29 -23 41q-16 16 -33 19q-25 4 -41 4h-86v108h707v-108h-86q-14 0 -39 -4q-12 -2 -33 -19q-12 -10 -22 -37q-6 -18 -11 -65v-334l295 172v-143l-295 -172v-627h381 q74 0 113 45t57 133l33 154h115l-15 -457h-1200z" />
<glyph unicode="&#x142;" horiz-adv-x="720" d="M35 0v109h24q14 0 47 4q27 4 47.5 18t36.5 41q14 23 15 70v299l-150 -84v139l150 86v641q0 43 -15 66q-16 29 -36 38q-23 14 -48 17q-33 4 -47 4h-24v108h481v-696l164 92v-143l-164 -92v-475q0 -47 14 -70q16 -27 37 -41t47 -18q33 -4 48 -4h24v-109h-651z" />
<glyph unicode="&#x143;" horiz-adv-x="1613" d="M57 0v109h86q16 0 41 4q16 2 33 18q12 12 23 41q8 23 8 70v987q0 43 -8 65q-10 27 -23 37q-20 16 -35 19q-25 4 -39 4h-86v108h455l723 -1022v789q0 43 -8 65q-10 27 -23 37q-20 16 -35 19q-25 4 -39 4h-86v108h535v-108h-86q-16 0 -41 -4q-16 -2 -33 -19 q-12 -12 -22 -41q-8 -23 -8 -69v-1221h-189l-799 1128v-886q0 -47 9 -70q10 -29 22 -41q16 -16 33 -18q25 -4 41 -4h86v-109h-535zM713 1579v27q23 29 49 67l55 78l53 82q29 47 41 74h322v-21q-14 -23 -64 -67q-49 -47 -98 -84l-113 -86q-55 -41 -106 -70h-139z" />
<glyph unicode="&#x144;" horiz-adv-x="1363" d="M41 0v109h4q27 0 64 4q27 2 51 20q20 14 33 43q12 28 12 74v606q0 43 -10 70q-8 18 -31 39q-20 18 -45 20q-37 4 -62 4h-6v109h430l27 -146h10q29 55 66 92q33 33 73 52q35 16 82 22q43 6 92 6q74 0 142 -22q61 -20 106 -72q47 -55 68 -123q23 -78 22 -178v-475 q0 -51 9 -76q12 -35 24 -45t43 -18q25 -6 62 -6h6v-109h-455v674q0 70 -8 117q-10 53 -29 88q-18 33 -51 53q-31 18 -76 18q-49 0 -86 -26q-29 -20 -53 -70q-23 -43 -31 -100q-8 -51 -8 -121v-391q0 -43 10 -70q8 -23 29 -39q20 -18 47 -20q37 -4 62 -4h6v-109h-629z M553 1241v27q23 29 49 67l55 78l53 82q29 47 41 74h322v-21q-14 -23 -64 -67q-49 -47 -98 -84l-113 -86q-55 -41 -106 -70h-139z" />
<glyph unicode="&#x145;" horiz-adv-x="1613" d="M57 0v109h86q16 0 41 4q16 2 33 18q12 12 23 41q8 23 8 70v987q0 43 -8 65q-10 27 -23 37q-20 16 -35 19q-25 4 -39 4h-86v108h455l723 -1022v789q0 43 -8 65q-10 27 -23 37q-20 16 -35 19q-25 4 -39 4h-86v108h535v-108h-86q-16 0 -41 -4q-16 -2 -33 -19 q-12 -12 -22 -41q-8 -23 -8 -69v-1221h-189l-799 1128v-886q0 -47 9 -70q10 -29 22 -41q16 -16 33 -18q25 -4 41 -4h86v-109h-535zM647 -426q6 16 10.5 33.5t10.5 36.5l11 40.5t11 36.5q8 27 21 80q14 61 16 74h238v-20l-37 -72q-18 -33 -49 -82l-56 -82l-28.5 -38.5 t-24.5 -33.5h-123v27z" />
<glyph unicode="&#x146;" horiz-adv-x="1363" d="M41 0v109h4q27 0 64 4q27 2 51 20q20 14 33 43q12 28 12 74v606q0 43 -10 70q-8 18 -31 39q-20 18 -45 20q-37 4 -62 4h-6v109h430l27 -146h10q29 55 66 92q33 33 73 52q35 16 82 22q43 6 92 6q74 0 142 -22q61 -20 106 -72q47 -55 68 -123q23 -78 22 -178v-475 q0 -51 9 -76q12 -35 24 -45t43 -18q25 -6 62 -6h6v-109h-455v674q0 70 -8 117q-10 53 -29 88q-18 33 -51 53q-31 18 -76 18q-49 0 -86 -26q-29 -20 -53 -70q-23 -43 -31 -100q-8 -51 -8 -121v-391q0 -43 10 -70q8 -23 29 -39q20 -18 47 -20q37 -4 62 -4h6v-109h-629z M508 -426q6 16 10.5 33.5t10.5 36.5l11 40.5t11 36.5q8 27 21 80q14 61 16 74h238v-20l-37 -72q-18 -33 -49 -82l-56 -82l-28.5 -38.5t-24.5 -33.5h-123v27z" />
<glyph unicode="&#x147;" horiz-adv-x="1613" d="M57 0v109h86q16 0 41 4q16 2 33 18q12 12 23 41q8 23 8 70v987q0 43 -8 65q-10 27 -23 37q-20 16 -35 19q-25 4 -39 4h-86v108h455l723 -1022v789q0 43 -8 65q-10 27 -23 37q-20 16 -35 19q-25 4 -39 4h-86v108h535v-108h-86q-16 0 -41 -4q-16 -2 -33 -19 q-12 -12 -22 -41q-8 -23 -8 -69v-1221h-189l-799 1128v-886q0 -47 9 -70q10 -29 22 -41q16 -16 33 -18q25 -4 41 -4h86v-109h-535zM487 1880v27h142l49 -39l29.5 -24.5l29.5 -24.5q14 -10 21.5 -17.5t17.5 -15.5t21 -18l26.5 -21.5t26.5 -24.5q12 12 26.5 23.5t26.5 22.5 q10 10 20.5 18t17.5 15t21 18l62 49l49 39h141v-27l-57 -67l-63 -78q-41 -53 -60 -80q-31 -45 -45 -76h-276q-14 31 -45 76q-18 27 -60 80l-65 78z" />
<glyph unicode="&#x148;" horiz-adv-x="1363" d="M41 0v109h4q27 0 64 4q27 2 51 20q20 14 33 43q12 28 12 74v606q0 43 -10 70q-8 18 -31 39q-20 18 -45 20q-37 4 -62 4h-6v109h430l27 -146h10q29 55 66 92q33 33 73 52q35 16 82 22q43 6 92 6q74 0 142 -22q61 -20 106 -72q47 -55 68 -123q23 -78 22 -178v-475 q0 -51 9 -76q12 -35 24 -45t43 -18q25 -6 62 -6h6v-109h-455v674q0 70 -8 117q-10 53 -29 88q-18 33 -51 53q-31 18 -76 18q-49 0 -86 -26q-29 -20 -53 -70q-23 -43 -31 -100q-8 -51 -8 -121v-391q0 -43 10 -70q8 -23 29 -39q20 -18 47 -20q37 -4 62 -4h6v-109h-629z M325 1542v27h142l49 -39l29.5 -24.5l29.5 -24.5q14 -10 21.5 -17.5t17.5 -15.5t21 -18l26.5 -21.5t26.5 -24.5q12 12 26.5 23.5t26.5 22.5q10 10 20.5 18t17.5 15t21 18l62 49l49 39h141v-27l-57 -67l-63 -78q-41 -53 -60 -80q-31 -45 -45 -76h-276q-14 31 -45 76 q-18 27 -60 80l-65 78z" />
<glyph unicode="&#x149;" horiz-adv-x="1748" d="M426 0v109h4q27 0 64 4q27 2 51 20q20 14 33 43q12 28 12 74v606q0 43 -10 70q-8 18 -31 39q-20 18 -45 20q-37 4 -62 4h-6v109h430l27 -146h10q29 55 66 92q33 33 73 52q35 16 82 22q43 6 92 6q74 0 142 -22q61 -20 106 -72q47 -55 68 -123q23 -78 22 -178v-475 q0 -51 9 -76q12 -35 24 -45t43 -18q25 -6 62 -6h6v-109h-455v674q0 70 -8 117q-10 53 -29 88q-18 33 -51 53q-31 18 -76 18q-49 0 -86 -26q-29 -20 -53 -70q-23 -43 -31 -100q-8 -51 -8 -121v-391q0 -43 10 -70q8 -23 29 -39q20 -18 47 -20q37 -4 62 -4h6v-109h-629zM33 836 v106q23 8 78 33q41 18 57 33q18 16 33 41q12 20 12 53q0 20 -12 33q-6 6 -27 22q-6 4 -19 11.5t-17 11.5q-25 16 -35 28q-18 23 -28.5 45.5t-10.5 67.5q0 68 43 104.5t104 36.5q86 0 137.5 -59.5t51.5 -165.5q0 -68 -21 -127q-23 -61 -63 -113q-39 -47 -113 -92 q-70 -42 -170 -69z" />
<glyph unicode="&#x14a;" horiz-adv-x="1613" d="M57 0v109h86q16 0 41 4q16 2 33 18q12 12 23 41q8 23 8 70v987q0 43 -8 65q-10 27 -23 37q-20 16 -35 19q-25 4 -39 4h-86v108h455l723 -977v744q0 43 -8 65q-10 27 -23 37q-20 16 -35 19q-25 4 -39 4h-86v108h535v-108h-86q-16 0 -41 -4q-16 -2 -33 -19q-12 -12 -22 -41 q-8 -23 -8 -69v-1237q0 -145 -23 -230q-23 -86 -70 -145q-45 -57 -106 -78q-68 -23 -141 -23h-68v119h49q43 0 78 21q41 25 66 61q27 41 45 111q16 59 16 162v18l-834 1128v-886q0 -47 9 -70q10 -29 22 -41q16 -16 33 -18q25 -4 41 -4h86v-109h-535z" />
<glyph unicode="&#x14b;" horiz-adv-x="1359" d="M41 0v109h4q27 0 64 4q27 2 51 20q20 14 33 43q12 28 12 74v606q0 43 -10 70q-8 18 -31 39q-20 18 -45 20q-37 4 -62 4h-6v109h430l27 -146h10q29 55 66 92q33 33 73 52q35 16 82 22q43 6 92 6q74 0 142 -22q61 -20 106 -72q47 -55 68 -123q23 -78 22 -178v-745 q0 -137 -36 -230q-37 -90 -101 -145q-66 -57 -153 -78q-94 -23 -195 -23h-39v127h12q49 0 86 19q39 18 62 59q29 49 39 113q14 82 14 174v674q0 70 -8 117q-10 53 -29 88q-18 33 -51 53q-31 18 -76 18q-49 0 -86 -26q-29 -20 -53 -70q-23 -43 -31 -100q-8 -51 -8 -121v-391 q0 -43 10 -70q8 -23 29 -39q20 -18 47 -20q37 -4 62 -4h6v-109h-629z" />
<glyph unicode="&#x14c;" horiz-adv-x="1611" d="M113 735q0 170 43 309q43 137 129 235.5t217 152t307 53.5q164 0 295 -53q125 -51 217 -152q86 -94 133 -238q45 -135 45 -309q0 -172 -45 -307q-47 -143 -135 -240q-86 -96 -217 -151q-129 -55 -295 -55q-176 0 -305 55q-135 57 -217 151q-84 96 -129 240 q-43 139 -43 309zM457 733q0 -147 18.5 -262t61.5 -195q43 -78 108 -120q68 -43 162 -43t162 43q70 45 108 120q41 82 60 195q18 115 18 262.5t-18 261.5q-18 113 -60 195q-37 76 -106 121q-61 41 -161.5 41t-164.5 -41q-66 -43 -108 -121q-43 -80 -61.5 -195t-18.5 -262z M506 1579v162h594v-162h-594z" />
<glyph unicode="&#x14d;" horiz-adv-x="1253" d="M96 553q0 289 135.5 430t399.5 141q121 0 221 -34q96 -33 166 -107q68 -71 104.5 -178.5t36.5 -251.5q0 -289 -135 -430q-137 -143 -399 -143q-123 0 -222 36q-100 37 -165 107q-68 71 -105 178.5t-37 251.5zM414 553q0 -111 12 -193q12 -84 36.5 -139t65.5 -83.5 t100.5 -28.5t100.5 28.5t65.5 83.5t36.5 139q10 70 10.5 193t-10.5 192q-10 74 -38 138q-23 53 -66 82q-41 29 -100.5 28.5t-100.5 -28.5q-43 -29 -65 -82q-23 -49 -35 -138q-12 -81 -12 -192zM324 1241v162h594v-162h-594z" />
<glyph unicode="&#x14e;" horiz-adv-x="1611" d="M113 735q0 170 43 309q43 137 129 235.5t217 152t307 53.5q164 0 295 -53q125 -51 217 -152q86 -94 133 -238q45 -135 45 -309q0 -172 -45 -307q-47 -143 -135 -240q-86 -96 -217 -151q-129 -55 -295 -55q-176 0 -305 55q-135 57 -217 151q-84 96 -129 240 q-43 139 -43 309zM457 733q0 -147 18.5 -262t61.5 -195q43 -78 108 -120q68 -43 162 -43t162 43q70 45 108 120q41 82 60 195q18 115 18 262.5t-18 261.5q-18 113 -60 195q-37 76 -106 121q-61 41 -161.5 41t-164.5 -41q-66 -43 -108 -121q-43 -80 -61.5 -195t-18.5 -262z M471 1901h135q18 -72 68 -107q47 -33 125 -33t125 33q49 35 67 107h136q-4 -63 -23 -115q-22 -58 -61 -105q-39 -45 -102.5 -73.5t-141.5 -28.5t-141.5 28.5t-102.5 73.5q-40 46 -61 105q-19 52 -23 115z" />
<glyph unicode="&#x14f;" horiz-adv-x="1253" d="M96 553q0 289 135.5 430t399.5 141q121 0 221 -34q96 -33 166 -107q68 -71 104.5 -178.5t36.5 -251.5q0 -289 -135 -430q-137 -143 -399 -143q-123 0 -222 36q-100 37 -165 107q-68 71 -105 178.5t-37 251.5zM414 553q0 -111 12 -193q12 -84 36.5 -139t65.5 -83.5 t100.5 -28.5t100.5 28.5t65.5 83.5t36.5 139q10 70 10.5 193t-10.5 192q-10 74 -38 138q-23 53 -66 82q-41 29 -100.5 28.5t-100.5 -28.5q-43 -29 -65 -82q-23 -49 -35 -138q-12 -81 -12 -192zM295 1563h135q18 -72 68 -107q47 -33 125 -33t125 33q49 35 67 107h136 q-4 -63 -23 -115q-22 -58 -61 -105q-39 -45 -102.5 -73.5t-141.5 -28.5t-141.5 28.5t-102.5 73.5q-40 46 -61 105q-19 52 -23 115z" />
<glyph unicode="&#x150;" horiz-adv-x="1611" d="M113 735q0 170 43 309q43 137 129 235.5t217 152t307 53.5q164 0 295 -53q125 -51 217 -152q86 -94 133 -238q45 -135 45 -309q0 -172 -45 -307q-47 -143 -135 -240q-86 -96 -217 -151q-129 -55 -295 -55q-176 0 -305 55q-135 57 -217 151q-84 96 -129 240 q-43 139 -43 309zM457 733q0 -147 18.5 -262t61.5 -195q43 -78 108 -120q68 -43 162 -43t162 43q70 45 108 120q41 82 60 195q18 115 18 262.5t-18 261.5q-18 113 -60 195q-37 76 -106 121q-61 41 -161.5 41t-164.5 -41q-66 -43 -108 -121q-43 -80 -61.5 -195t-18.5 -262z M473 1579v27q23 33 45 71l22.5 36l25.5 42l22 38l23 40q22 40 36 74h261v-21q-12 -18 -31 -43q-23 -31 -43 -53q-12 -14 -55 -57l-58 -58l-55 -53q-10 -10 -28.5 -24.5t-22.5 -18.5h-142zM863 1579v27l45 71q33 53 47 78q10 18 22.5 38t22.5 40q22 40 37 74h260v-21 q-12 -18 -31 -43q-23 -31 -43 -53q-12 -14 -55 -57l-58 -58l-55 -53q-10 -10 -28.5 -24.5t-22.5 -18.5h-141z" />
<glyph unicode="&#x151;" horiz-adv-x="1253" d="M96 553q0 289 135.5 430t399.5 141q121 0 221 -34q96 -33 166 -107q68 -71 104.5 -178.5t36.5 -251.5q0 -289 -135 -430q-137 -143 -399 -143q-123 0 -222 36q-100 37 -165 107q-68 71 -105 178.5t-37 251.5zM414 553q0 -111 12 -193q12 -84 36.5 -139t65.5 -83.5 t100.5 -28.5t100.5 28.5t65.5 83.5t36.5 139q10 70 10.5 193t-10.5 192q-10 74 -38 138q-23 53 -66 82q-41 29 -100.5 28.5t-100.5 -28.5q-43 -29 -65 -82q-23 -49 -35 -138q-12 -81 -12 -192zM294 1241v27q23 33 45 71l22.5 36l25.5 42l22 38l23 40q22 40 36 74h261v-21 q-12 -18 -31 -43q-23 -31 -43 -53q-12 -14 -55 -57l-58 -58l-55 -53q-10 -10 -28.5 -24.5t-22.5 -18.5h-142zM684 1241v27l45 71q33 53 47 78q10 18 22.5 38t22.5 40q22 40 37 74h260v-21q-12 -18 -31 -43q-23 -31 -43 -53q-12 -14 -55 -57l-58 -58l-55 -53 q-10 -10 -28.5 -24.5t-22.5 -18.5h-141z" />
<glyph unicode="&#x152;" horiz-adv-x="2086" d="M113 735q0 170 43 309q43 137 129 235.5t217 152t307 53.5q55 0 113 -6q72 -8 104 -17h918l8 -377h-144l-10 97q-10 76 -39 114q-31 41 -92 41h-344v-512h485v-123h-485v-577h410q33 0 53 12q23 12 37 33q18 27 26 49q6 20 15 62l16 96h141l-14 -377h-987 q-37 -8 -102 -14q-58 -6 -111 -6q-176 0 -305 55q-135 57 -217 151q-84 96 -129 240q-43 139 -43 309zM457 733q0 -147 18.5 -262t61.5 -195q43 -78 108 -120q68 -43 162 -43q63 0 106 14t84 45v1118q-35 25 -82 43q-49 18 -106 19q-100 0 -164 -41q-66 -43 -108 -121 q-43 -80 -61.5 -195t-18.5 -262z" />
<glyph unicode="&#x153;" horiz-adv-x="1914" d="M96 553q0 289 135.5 430t399.5 141q117 0 207 -38.5t159 -118.5q68 82 152 118q86 39 201 39q106 0 200 -32q90 -31 152 -93q59 -59 94 -153q33 -90 33 -215v-105h-670q0 -2 -1 -6t-1 -6v-12q6 -106 25 -166q20 -68 55 -115q33 -45 84 -67q47 -20 111 -21q52 0 98 12 q41 10 82 35q33 18 63 53q25 27 45 66q55 -31 56 -100q0 -47 -23 -84q-25 -39 -74 -70q-45 -29 -122.5 -47t-180.5 -18q-117 0 -211 40q-96 41 -161 117q-72 -84 -162 -119q-100 -39 -217 -38q-123 0 -222 36q-100 37 -165 107q-68 71 -105 178.5t-37 251.5zM414 553 q0 -111 12 -193q12 -84 36.5 -139t65.5 -83.5t101 -28.5q53 0 96 26q37 23 63 78q29 59 39 127q10 70 15 176v55q0 207 -51 316q-49 106 -164 106q-59 0 -101 -28q-43 -29 -65 -82q-23 -49 -35 -138q-12 -81 -12 -192zM1161 657h355q0 162 -39 246q-41 88 -123 88 q-84 0 -137 -86q-50 -80 -56 -248z" />
<glyph unicode="&#x154;" horiz-adv-x="1447" d="M57 0v109h86q14 0 39 4q18 2 35 16q12 10 23 37q8 23 8 65v998q0 43 -8 65q-10 27 -23 37q-20 16 -35 19q-25 4 -39 4h-86v108h660q293 0 426 -96q135 -98 135 -283q0 -80 -25 -145q-25 -63 -63 -109q-41 -47 -88 -79q-41 -27 -103 -54l244 -420q23 -41 51 -75 q23 -27 49 -51q25 -22 50 -31q27 -10 55 -10h8v-109h-67q-92 0 -160 6q-66 6 -121 28.5t-88 55.5q-43 43 -70 94l-243 451h-136v-404q0 -43 9 -65q10 -27 22 -37q16 -14 35 -16q25 -4 39 -4h88v-109h-707zM571 754h115q72 0 119 18.5t75.5 57t41 94t12.5 131.5q0 82 -14 133 q-16 59 -43 88q-31 35 -78 49q-53 16 -117 16h-111v-587zM549 1579v27q23 29 49 67l55 78l53 82q29 47 41 74h322v-21q-14 -23 -64 -67q-49 -47 -98 -84l-113 -86q-55 -41 -106 -70h-139z" />
<glyph unicode="&#x155;" horiz-adv-x="1069" d="M41 0v109h6q35 0 64 6q33 8 51 20q16 12 31 43q12 27 12 78v594q0 41 -10 72q-8 25 -31 43q-20 18 -45 20q-37 4 -62 4h-6v109h414l41 -160h10q27 57 43 80q27 37 59 57q39 25 78 35q45 12 109 12q120 0 178 -43q57 -43 57 -123q0 -92 -67 -145q-70 -53 -193 -53 q0 33 -4 73q-2 31 -16 54q-12 20 -31 33q-16 10 -49 10q-37 0 -62 -19q-31 -23 -45 -45q-14 -20 -28 -65q-12 -39 -19 -72q-4 -25 -8 -70q-2 -23 -2 -57v-354q0 -49 10 -72q12 -28 31 -43q18 -16 45 -18q37 -4 57 -4h66v-109h-684zM369 1241v27q23 29 49 67l55 78l53 82 q29 47 41 74h322v-21q-14 -23 -64 -67q-49 -47 -98 -84l-113 -86q-55 -41 -106 -70h-139z" />
<glyph unicode="&#x156;" horiz-adv-x="1447" d="M57 0v109h86q14 0 39 4q18 2 35 16q12 10 23 37q8 23 8 65v998q0 43 -8 65q-10 27 -23 37q-20 16 -35 19q-25 4 -39 4h-86v108h660q293 0 426 -96q135 -98 135 -283q0 -80 -25 -145q-25 -63 -63 -109q-41 -47 -88 -79q-41 -27 -103 -54l244 -420q23 -41 51 -75 q23 -27 49 -51q25 -22 50 -31q27 -10 55 -10h8v-109h-67q-92 0 -160 6q-66 6 -121 28.5t-88 55.5q-43 43 -70 94l-243 451h-136v-404q0 -43 9 -65q10 -27 22 -37q16 -14 35 -16q25 -4 39 -4h88v-109h-707zM571 754h115q72 0 119 18.5t75.5 57t41 94t12.5 131.5q0 82 -14 133 q-16 59 -43 88q-31 35 -78 49q-53 16 -117 16h-111v-587zM549 -426q6 16 10.5 33.5t10.5 36.5l11 40.5t11 36.5q8 27 21 80q14 61 16 74h238v-20l-37 -72q-18 -33 -49 -82l-56 -82l-28.5 -38.5t-24.5 -33.5h-123v27z" />
<glyph unicode="&#x157;" horiz-adv-x="1069" d="M41 0v109h6q35 0 64 6q33 8 51 20q16 12 31 43q12 27 12 78v594q0 41 -10 72q-8 25 -31 43q-20 18 -45 20q-37 4 -62 4h-6v109h414l41 -160h10q27 57 43 80q27 37 59 57q39 25 78 35q45 12 109 12q120 0 178 -43q57 -43 57 -123q0 -92 -67 -145q-70 -53 -193 -53 q0 33 -4 73q-2 31 -16 54q-12 20 -31 33q-16 10 -49 10q-37 0 -62 -19q-31 -23 -45 -45q-14 -20 -28 -65q-12 -39 -19 -72q-4 -25 -8 -70q-2 -23 -2 -57v-354q0 -49 10 -72q12 -28 31 -43q18 -16 45 -18q37 -4 57 -4h66v-109h-684zM186 -426q6 16 10.5 33.5t10.5 36.5 l11 40.5t11 36.5q8 27 21 80q14 61 16 74h238v-20l-37 -72q-18 -33 -49 -82l-56 -82l-28.5 -38.5t-24.5 -33.5h-123v27z" />
<glyph unicode="&#x158;" horiz-adv-x="1447" d="M57 0v109h86q14 0 39 4q18 2 35 16q12 10 23 37q8 23 8 65v998q0 43 -8 65q-10 27 -23 37q-20 16 -35 19q-25 4 -39 4h-86v108h660q293 0 426 -96q135 -98 135 -283q0 -80 -25 -145q-25 -63 -63 -109q-41 -47 -88 -79q-41 -27 -103 -54l244 -420q23 -41 51 -75 q23 -27 49 -51q25 -22 50 -31q27 -10 55 -10h8v-109h-67q-92 0 -160 6q-66 6 -121 28.5t-88 55.5q-43 43 -70 94l-243 451h-136v-404q0 -43 9 -65q10 -27 22 -37q16 -14 35 -16q25 -4 39 -4h88v-109h-707zM571 754h115q72 0 119 18.5t75.5 57t41 94t12.5 131.5q0 82 -14 133 q-16 59 -43 88q-31 35 -78 49q-53 16 -117 16h-111v-587zM307 1880v27h142l49 -39l29.5 -24.5l29.5 -24.5q14 -10 21.5 -17.5t17.5 -15.5t21 -18l26.5 -21.5t26.5 -24.5q12 12 26.5 23.5t26.5 22.5q10 10 20.5 18t17.5 15t21 18l62 49l49 39h141v-27l-57 -67l-63 -78 q-41 -53 -60 -80q-31 -45 -45 -76h-276q-14 31 -45 76q-18 27 -60 80l-65 78z" />
<glyph unicode="&#x159;" horiz-adv-x="1069" d="M41 0v109h6q35 0 64 6q33 8 51 20q16 12 31 43q12 27 12 78v594q0 41 -10 72q-8 25 -31 43q-20 18 -45 20q-37 4 -62 4h-6v109h414l41 -160h10q27 57 43 80q27 37 59 57q39 25 78 35q45 12 109 12q120 0 178 -43q57 -43 57 -123q0 -92 -67 -145q-70 -53 -193 -53 q0 33 -4 73q-2 31 -16 54q-12 20 -31 33q-16 10 -49 10q-37 0 -62 -19q-31 -23 -45 -45q-14 -20 -28 -65q-12 -39 -19 -72q-4 -25 -8 -70q-2 -23 -2 -57v-354q0 -49 10 -72q12 -28 31 -43q18 -16 45 -18q37 -4 57 -4h66v-109h-684zM184 1542v27h142l49 -39l29.5 -24.5 l29.5 -24.5q14 -10 21.5 -17.5t17.5 -15.5t21 -18l26.5 -21.5t26.5 -24.5q12 12 26.5 23.5t26.5 22.5q10 10 20.5 18t17.5 15t21 18l62 49l49 39h141v-27l-57 -67l-63 -78q-41 -53 -60 -80q-31 -45 -45 -76h-276q-14 31 -45 76q-18 27 -60 80l-65 78z" />
<glyph unicode="&#x15a;" horiz-adv-x="1198" d="M61 266q0 51 18.5 88t53.5 60q41 25 74 32q47 10 86 11q0 -90 20 -154q20 -66 60 -110q41 -49 88 -68q55 -23 112 -23q66 0 107 17q49 20 80 47q33 31 51 70q16 35 16 88t-20 92q-25 45 -64 76q-45 35 -108 65l-150 68q-100 41 -180 90q-74 45 -119 100q-47 57 -65 119 q-18 66 -19 137q0 92 37 170q33 70 107 129q72 57 157 84q96 29 201 29q113 0 195 -19q78 -16 135 -51q57 -33 80 -74q27 -47 26 -94q0 -35 -16 -67q-16 -31 -47 -54q-37 -27 -78 -37q-46 -12 -111 -12q0 43 -12 92.5t-37 92.5q-25 41 -67 69q-45 29 -101 29q-41 0 -77 -12 q-43 -14 -66 -35q-29 -27 -43 -60q-16 -39 -16 -82q0 -47 14 -82q16 -39 51 -73.5t103 -73.5q49 -29 170 -78q115 -47 180 -88q80 -49 121 -96q49 -57 69 -113q20 -59 21 -137q0 -102 -39 -182q-41 -84 -113 -142q-74 -59 -174 -92q-98 -33 -231 -32q-129 0 -230 26 q-86 23 -147 68q-55 40 -80 92q-23 47 -23 100zM502 1579v27q23 29 49 67l55 78l53 82q29 47 41 74h322v-21q-14 -23 -64 -67q-49 -47 -98 -84l-113 -86q-55 -41 -106 -70h-139z" />
<glyph unicode="&#x15b;" horiz-adv-x="997" d="M61 219q0 49 19 80q16 27 49 47q27 16 64 23q33 6 59 6q0 -59 16 -115q12 -43 45 -86q27 -35 70 -55q39 -18 90 -19q59 0 92 11q35 10 62 30q23 16 37 45q12 25 12 54q0 34 -12 61q-10 20 -41 49q-29 27 -78 47q-57 25 -121 47q-83 28 -148 62q-70 37 -106 74 q-45 45 -66 94q-23 55 -22 123q0 82 30.5 143t90.5 102q53 37 139 60q76 20 180 20q92 0 164 -16t113 -43q37 -25 61 -62q20 -33 21 -69q0 -68 -49.5 -104.5t-159.5 -36.5q0 106 -45 159q-46 55 -135 56q-37 0 -64 -9q-37 -10 -53 -22q-23 -16 -35 -41q-14 -29 -14 -55 q0 -35 12 -60q10 -23 45 -49q25 -20 86 -47q68 -31 137 -53q78 -29 125 -54q53 -29 100 -71q41 -37 64 -90q23 -51 23 -115q0 -88 -29 -152q-31 -70 -86 -112q-61 -47 -141 -72q-84 -25 -189 -24q-111 0 -190 18q-76 18 -127 49q-47 31 -72 78q-23 45 -23 94zM385 1241v27 q23 29 49 67l55 78l53 82q29 47 41 74h322v-21q-14 -23 -64 -67q-49 -47 -98 -84l-113 -86q-55 -41 -106 -70h-139z" />
<glyph unicode="&#x15c;" horiz-adv-x="1198" d="M61 266q0 51 18.5 88t53.5 60q41 25 74 32q47 10 86 11q0 -90 20 -154q20 -66 60 -110q41 -49 88 -68q55 -23 112 -23q66 0 107 17q49 20 80 47q33 31 51 70q16 35 16 88t-20 92q-25 45 -64 76q-45 35 -108 65l-150 68q-100 41 -180 90q-74 45 -119 100q-47 57 -65 119 q-18 66 -19 137q0 92 37 170q33 70 107 129q72 57 157 84q96 29 201 29q113 0 195 -19q78 -16 135 -51q57 -33 80 -74q27 -47 26 -94q0 -35 -16 -67q-16 -31 -47 -54q-37 -27 -78 -37q-46 -12 -111 -12q0 43 -12 92.5t-37 92.5q-25 41 -67 69q-45 29 -101 29q-41 0 -77 -12 q-43 -14 -66 -35q-29 -27 -43 -60q-16 -39 -16 -82q0 -47 14 -82q16 -39 51 -73.5t103 -73.5q49 -29 170 -78q115 -47 180 -88q80 -49 121 -96q49 -57 69 -113q20 -59 21 -137q0 -102 -39 -182q-41 -84 -113 -142q-74 -59 -174 -92q-98 -33 -231 -32q-129 0 -230 26 q-86 23 -147 68q-55 40 -80 92q-23 47 -23 100zM245 1579v27l56 67l65 78q27 35 60 82q33 49 45 74h276q12 -25 45 -74q33 -47 60 -82l63 -78l57 -67v-27h-141l-49 39l-62 49l-59 49l-53 47l-53 -47l-60 -49l-29.5 -24.5l-29.5 -24.5l-49 -39h-142z" />
<glyph unicode="&#x15d;" horiz-adv-x="997" d="M61 219q0 49 19 80q16 27 49 47q27 16 64 23q33 6 59 6q0 -59 16 -115q12 -43 45 -86q27 -35 70 -55q39 -18 90 -19q59 0 92 11q35 10 62 30q23 16 37 45q12 25 12 54q0 34 -12 61q-10 20 -41 49q-29 27 -78 47q-57 25 -121 47q-83 28 -148 62q-70 37 -106 74 q-45 45 -66 94q-23 55 -22 123q0 82 30.5 143t90.5 102q53 37 139 60q76 20 180 20q92 0 164 -16t113 -43q37 -25 61 -62q20 -33 21 -69q0 -68 -49.5 -104.5t-159.5 -36.5q0 106 -45 159q-46 55 -135 56q-37 0 -64 -9q-37 -10 -53 -22q-23 -16 -35 -41q-14 -29 -14 -55 q0 -35 12 -60q10 -23 45 -49q25 -20 86 -47q68 -31 137 -53q78 -29 125 -54q53 -29 100 -71q41 -37 64 -90q23 -51 23 -115q0 -88 -29 -152q-31 -70 -86 -112q-61 -47 -141 -72q-84 -25 -189 -24q-111 0 -190 18q-76 18 -127 49q-47 31 -72 78q-23 45 -23 94zM139 1241v27 l56 67l65 78q27 35 60 82q33 49 45 74h276q12 -25 45 -74q33 -47 60 -82l63 -78l57 -67v-27h-141l-49 39l-62 49l-59 49l-53 47l-53 -47l-60 -49l-29.5 -24.5l-29.5 -24.5l-49 -39h-142z" />
<glyph unicode="&#x15e;" horiz-adv-x="1198" d="M61 266q0 51 18.5 88t53.5 60q41 25 74 32q47 10 86 11q0 -90 20 -154q20 -66 60 -110q41 -49 88 -68q55 -23 112 -23q66 0 107 17q49 20 80 47q33 31 51 70q16 35 16 88t-20 92q-25 45 -64 76q-45 35 -108 65l-150 68q-100 41 -180 90q-74 45 -119 100q-47 57 -65 119 q-18 66 -19 137q0 92 37 170q33 70 107 129q72 57 157 84q96 29 201 29q113 0 195 -19q78 -16 135 -51q57 -33 80 -74q27 -47 26 -94q0 -35 -16 -67q-16 -31 -47 -54q-37 -27 -78 -37q-46 -12 -111 -12q0 43 -12 92.5t-37 92.5q-25 41 -67 69q-45 29 -101 29q-41 0 -77 -12 q-43 -14 -66 -35q-29 -27 -43 -60q-16 -39 -16 -82q0 -47 14 -82q16 -39 51 -73.5t103 -73.5q49 -29 170 -78q115 -47 180 -88q80 -49 121 -96q49 -57 69 -113q20 -59 21 -137q0 -102 -39 -182q-41 -84 -113 -142q-74 -59 -174 -92q-98 -33 -231 -32q-129 0 -230 26 q-86 23 -147 68q-55 40 -80 92q-23 47 -23 100zM348 -344q37 -9 74 -12q49 -4 66 -4q59 0 92 20.5t33 73.5q0 33 -11 49q-12 18 -32 31q-16 8 -50 16q-20 4 -61 8l43 180h117l-21 -88q51 -4 90 -18q45 -18 70 -39q29 -25 43 -57q16 -37 16 -74q0 -57 -20.5 -98t-58.5 -74 q-33 -29 -93 -45q-55 -16 -118 -17h-39q-8 0 -26.5 3.5t-20.5 3.5l-50 6q-20 2 -43 10v125z" />
<glyph unicode="&#x15f;" horiz-adv-x="997" d="M61 219q0 49 19 80q16 27 49 47q27 16 64 23q33 6 59 6q0 -59 16 -115q12 -43 45 -86q27 -35 70 -55q39 -18 90 -19q59 0 92 11q35 10 62 30q23 16 37 45q12 25 12 54q0 34 -12 61q-10 20 -41 49q-29 27 -78 47q-57 25 -121 47q-83 28 -148 62q-70 37 -106 74 q-45 45 -66 94q-23 55 -22 123q0 82 30.5 143t90.5 102q53 37 139 60q76 20 180 20q92 0 164 -16t113 -43q37 -25 61 -62q20 -33 21 -69q0 -68 -49.5 -104.5t-159.5 -36.5q0 106 -45 159q-46 55 -135 56q-37 0 -64 -9q-37 -10 -53 -22q-23 -16 -35 -41q-14 -29 -14 -55 q0 -35 12 -60q10 -23 45 -49q25 -20 86 -47q68 -31 137 -53q78 -29 125 -54q53 -29 100 -71q41 -37 64 -90q23 -51 23 -115q0 -88 -29 -152q-31 -70 -86 -112q-61 -47 -141 -72q-84 -25 -189 -24q-111 0 -190 18q-76 18 -127 49q-47 31 -72 78q-23 45 -23 94zM262 -344 q37 -9 74 -12q49 -4 66 -4q59 0 92 20.5t33 73.5q0 33 -11 49q-12 18 -32 31q-16 8 -50 16q-20 4 -61 8l43 180h117l-21 -88q51 -4 90 -18q45 -18 70 -39q29 -25 43 -57q16 -37 16 -74q0 -57 -20.5 -98t-58.5 -74q-33 -29 -93 -45q-55 -16 -118 -17h-39q-8 0 -26.5 3.5 t-20.5 3.5l-50 6q-20 2 -43 10v125z" />
<glyph unicode="&#x160;" horiz-adv-x="1198" d="M61 266q0 51 18.5 88t53.5 60q41 25 74 32q47 10 86 11q0 -90 20 -154q20 -66 60 -110q41 -49 88 -68q55 -23 112 -23q66 0 107 17q49 20 80 47q33 31 51 70q16 35 16 88t-20 92q-25 45 -64 76q-45 35 -108 65l-150 68q-100 41 -180 90q-74 45 -119 100q-47 57 -65 119 q-18 66 -19 137q0 92 37 170q33 70 107 129q72 57 157 84q96 29 201 29q113 0 195 -19q78 -16 135 -51q57 -33 80 -74q27 -47 26 -94q0 -35 -16 -67q-16 -31 -47 -54q-37 -27 -78 -37q-46 -12 -111 -12q0 43 -12 92.5t-37 92.5q-25 41 -67 69q-45 29 -101 29q-41 0 -77 -12 q-43 -14 -66 -35q-29 -27 -43 -60q-16 -39 -16 -82q0 -47 14 -82q16 -39 51 -73.5t103 -73.5q49 -29 170 -78q115 -47 180 -88q80 -49 121 -96q49 -57 69 -113q20 -59 21 -137q0 -102 -39 -182q-41 -84 -113 -142q-74 -59 -174 -92q-98 -33 -231 -32q-129 0 -230 26 q-86 23 -147 68q-55 40 -80 92q-23 47 -23 100zM245 1880v27h142l49 -39l29.5 -24.5l29.5 -24.5q14 -10 21.5 -17.5t17.5 -15.5t21 -18l26.5 -21.5t26.5 -24.5q12 12 26.5 23.5t26.5 22.5q10 10 20.5 18t17.5 15t21 18l62 49l49 39h141v-27l-57 -67l-63 -78q-41 -53 -60 -80 q-31 -45 -45 -76h-276q-14 31 -45 76q-18 27 -60 80l-65 78z" />
<glyph unicode="&#x161;" horiz-adv-x="997" d="M61 219q0 49 19 80q16 27 49 47q27 16 64 23q33 6 59 6q0 -59 16 -115q12 -43 45 -86q27 -35 70 -55q39 -18 90 -19q59 0 92 11q35 10 62 30q23 16 37 45q12 25 12 54q0 34 -12 61q-10 20 -41 49q-29 27 -78 47q-57 25 -121 47q-83 28 -148 62q-70 37 -106 74 q-45 45 -66 94q-23 55 -22 123q0 82 30.5 143t90.5 102q53 37 139 60q76 20 180 20q92 0 164 -16t113 -43q37 -25 61 -62q20 -33 21 -69q0 -68 -49.5 -104.5t-159.5 -36.5q0 106 -45 159q-46 55 -135 56q-37 0 -64 -9q-37 -10 -53 -22q-23 -16 -35 -41q-14 -29 -14 -55 q0 -35 12 -60q10 -23 45 -49q25 -20 86 -47q68 -31 137 -53q78 -29 125 -54q53 -29 100 -71q41 -37 64 -90q23 -51 23 -115q0 -88 -29 -152q-31 -70 -86 -112q-61 -47 -141 -72q-84 -25 -189 -24q-111 0 -190 18q-76 18 -127 49q-47 31 -72 78q-23 45 -23 94zM137 1542v27 h142l49 -39l29.5 -24.5l29.5 -24.5q14 -10 21.5 -17.5t17.5 -15.5t21 -18l26.5 -21.5t26.5 -24.5q12 12 26.5 23.5t26.5 22.5q10 10 20.5 18t17.5 15t21 18l62 49l49 39h141v-27l-57 -67l-63 -78q-41 -53 -60 -80q-31 -45 -45 -76h-276q-14 31 -45 76q-18 27 -60 80l-65 78z " />
<glyph unicode="&#x162;" horiz-adv-x="1335" d="M20 1065l11 397h1276l10 -397h-137l-15 127q-2 25 -14 61q-8 25 -29 45q-18 18 -51 29q-35 10 -76 10h-164v-1095q0 -47 9 -70q10 -29 22 -41q16 -16 33 -18q25 -4 41 -4h86v-109h-707v109h86q16 0 41 4q16 2 33 18q12 12 23 41q8 23 8 70v1095h-164q-43 0 -78 -10 q-29 -8 -49 -28.5t-29 -45.5q-12 -37 -14 -61l-14 -127h-138zM483 -426q6 16 10.5 33.5t10.5 36.5l11 40.5t11 36.5q8 27 21 80q14 61 16 74h238v-20l-37 -72q-18 -33 -49 -82l-56 -82l-28.5 -38.5t-24.5 -33.5h-123v27z" />
<glyph unicode="&#x163;" horiz-adv-x="827" d="M43 958v105q61 0 119 27q49 23 82 59q63 63 94 203h170v-254h262v-140h-262v-634q0 -92 30.5 -135.5t104.5 -43.5q51 0 76 5q49 8 69 14v-133q-8 -4 -43 -17q-33 -10 -65 -16l-82 -12q-45 -6 -100 -6q-66 0 -125 16q-53 14 -94 55t-61.5 100.5t-20.5 151.5v655h-154z M266 -426q6 16 10.5 33.5t10.5 36.5l11 40.5t11 36.5q8 27 21 80q14 61 16 74h238v-20l-37 -72q-18 -33 -49 -82l-56 -82l-28.5 -38.5t-24.5 -33.5h-123v27z" />
<glyph unicode="&#x164;" horiz-adv-x="1335" d="M20 1065l11 397h1276l10 -397h-137l-15 127q-2 25 -14 61q-8 25 -29 45q-18 18 -51 29q-35 10 -76 10h-164v-1095q0 -47 9 -70q10 -29 22 -41q16 -16 33 -18q25 -4 41 -4h86v-109h-707v109h86q16 0 41 4q16 2 33 18q12 12 23 41q8 23 8 70v1095h-164q-43 0 -78 -10 q-29 -8 -49 -28.5t-29 -45.5q-12 -37 -14 -61l-14 -127h-138zM305 1880v27h142l49 -39l29.5 -24.5l29.5 -24.5q14 -10 21.5 -17.5t17.5 -15.5t21 -18l26.5 -21.5t26.5 -24.5q12 12 26.5 23.5t26.5 22.5q10 10 20.5 18t17.5 15t21 18l62 49l49 39h141v-27l-57 -67l-63 -78 q-41 -53 -60 -80q-31 -45 -45 -76h-276q-14 31 -45 76q-18 27 -60 80l-65 78z" />
<glyph unicode="&#x165;" horiz-adv-x="827" d="M43 958v105q61 0 119 27q49 23 82 59q63 63 94 203h170v-254h262v-140h-262v-634q0 -92 30.5 -135.5t104.5 -43.5q51 0 76 5q49 8 69 14v-133q-8 -4 -43 -17q-33 -10 -65 -16l-82 -12q-45 -6 -100 -6q-66 0 -125 16q-53 14 -94 55t-61.5 100.5t-20.5 151.5v655h-154z M629 1229v26l20 68q4 18 10 37.5l13 42.5q8 27 20 80q14 61 16 73h238v-20l-37 -72l-49 -80l-55 -81l-54 -74h-122z" />
<glyph unicode="&#x166;" horiz-adv-x="1335" d="M20 1065l11 397h1276l10 -397h-137l-15 127q-2 25 -14 61q-8 25 -29 45q-18 18 -51 29q-35 10 -76 10h-164v-555h295v-108h-295v-432q0 -47 9 -70q10 -29 22 -41q16 -16 33 -18q25 -4 41 -4h86v-109h-707v109h86q16 0 41 4q16 2 33 18q12 12 23 41q8 23 8 70v432h-295 v108h295v555h-164q-43 0 -78 -10q-29 -8 -49 -28.5t-29 -45.5q-12 -37 -14 -61l-14 -127h-138z" />
<glyph unicode="&#x167;" horiz-adv-x="827" d="M43 958v105q61 0 119 27q49 23 82 59q63 63 94 203h168v-254h264v-140h-264v-274h231v-109h-231v-251q0 -94 33 -136q34 -43 104 -43q51 0 76 5q49 8 69 14v-133q-8 -4 -43 -17q-33 -10 -65 -16l-82 -12q-45 -6 -100 -6q-66 0 -125 16q-53 14 -94 55t-61.5 100.5 t-20.5 151.5v272h-142v109h142v274h-154z" />
<glyph unicode="&#x168;" horiz-adv-x="1529" d="M33 1354v108h706v-108h-86q-16 0 -41 -4q-16 -2 -32 -19q-12 -12 -23 -41q-8 -23 -8 -69v-791q0 -84 22 -145q20 -53 62 -92q39 -35 94 -52q59 -16 127 -16t123 18q57 18 94 53t59 95q20 55 21 135v803q0 43 -8 65q-10 27 -23 37q-20 16 -33 19q-25 4 -40 4h-86v108h536 v-108h-88q-16 0 -41 -4q-16 -2 -33 -19q-12 -12 -22 -41q-8 -23 -8 -69v-799q0 -106 -29 -184q-29 -80 -92 -140q-59 -57 -160 -88q-98 -31 -231 -30q-127 0 -240 26q-104 25 -178 80q-68 51 -111 145q-39 86 -39 215v783q0 43 -8 65q-9 25 -24 37q-20 16 -33 19 q-25 4 -39 4h-88zM413 1600q4 68 23 116q20 51 55 97q31 39 80 65q47 25 100 25q57 0 99 -21q76 -37 84 -43l71 -45q33 -20 66 -20q18 0 38.5 10t30.5 22q14 18 21 35q8 23 10 41h133q-4 -68 -22 -117q-20 -51 -55 -96q-33 -41 -78 -65.5t-101 -24.5q-59 0 -100 21l-82 43 l-72 45q-33 20 -67 20q-25 0 -41 -8q-14 -8 -29 -25q-14 -18 -20 -34q-8 -23 -11 -41h-133z" />
<glyph unicode="&#x169;" horiz-adv-x="1363" d="M53 989v109h455v-656q0 -49 8 -118q6 -53 25 -91q18 -39 49 -59q29 -20 74 -20t83.5 22.5t59.5 61.5q25 45 33 98q10 66 10 129v393q0 47 -12 72q-14 31 -31 39q-25 14 -47 16q-37 4 -58 4h-6v109h465v-860q0 -43 10.5 -70t28.5 -39q20 -14 43 -16q33 -4 55 -4h17v-109 h-408l-45 145h-10q-31 -52 -68 -86q-31 -29 -75 -49q-39 -18 -88 -24q-47 -6 -93 -6q-158 0 -245 100q-86 98 -86 305v459q0 49 -9 74q-10 31 -24 43q-20 18 -43 22q-27 6 -64 6h-4zM268 1262q4 68 23 116q20 51 55 97q31 39 80 65q47 25 100 25q57 0 99 -21q76 -37 84 -43 l71 -45q33 -20 66 -20q18 0 38.5 10t30.5 22q14 18 21 35q8 23 10 41h133q-4 -68 -22 -117q-20 -51 -55 -96q-33 -41 -78 -65.5t-101 -24.5q-59 0 -100 21l-82 43l-72 45q-33 20 -67 20q-25 0 -41 -8q-14 -8 -29 -25q-14 -18 -20 -34q-8 -23 -11 -41h-133z" />
<glyph unicode="&#x16a;" horiz-adv-x="1529" d="M33 1354v108h706v-108h-86q-16 0 -41 -4q-16 -2 -32 -19q-12 -12 -23 -41q-8 -23 -8 -69v-791q0 -84 22 -145q20 -53 62 -92q39 -35 94 -52q59 -16 127 -16t123 18q57 18 94 53t59 95q20 55 21 135v803q0 43 -8 65q-10 27 -23 37q-20 16 -33 19q-25 4 -40 4h-86v108h536 v-108h-88q-16 0 -41 -4q-16 -2 -33 -19q-12 -12 -22 -41q-8 -23 -8 -69v-799q0 -106 -29 -184q-29 -80 -92 -140q-59 -57 -160 -88q-98 -31 -231 -30q-127 0 -240 26q-104 25 -178 80q-68 51 -111 145q-39 86 -39 215v783q0 43 -8 65q-9 25 -24 37q-20 16 -33 19 q-25 4 -39 4h-88zM526 1579v162h594v-162h-594z" />
<glyph unicode="&#x16b;" horiz-adv-x="1363" d="M53 989v109h455v-656q0 -49 8 -118q6 -53 25 -91q18 -39 49 -59q29 -20 74 -20t83.5 22.5t59.5 61.5q25 45 33 98q10 66 10 129v393q0 47 -12 72q-14 31 -31 39q-25 14 -47 16q-37 4 -58 4h-6v109h465v-860q0 -43 10.5 -70t28.5 -39q20 -14 43 -16q33 -4 55 -4h17v-109 h-408l-45 145h-10q-31 -52 -68 -86q-31 -29 -75 -49q-39 -18 -88 -24q-47 -6 -93 -6q-158 0 -245 100q-86 98 -86 305v459q0 49 -9 74q-10 31 -24 43q-20 18 -43 22q-27 6 -64 6h-4zM360 1241v162h594v-162h-594z" />
<glyph unicode="&#x16c;" horiz-adv-x="1529" d="M33 1354v108h706v-108h-86q-16 0 -41 -4q-16 -2 -32 -19q-12 -12 -23 -41q-8 -23 -8 -69v-791q0 -84 22 -145q20 -53 62 -92q39 -35 94 -52q59 -16 127 -16t123 18q57 18 94 53t59 95q20 55 21 135v803q0 43 -8 65q-10 27 -23 37q-20 16 -33 19q-25 4 -40 4h-86v108h536 v-108h-88q-16 0 -41 -4q-16 -2 -33 -19q-12 -12 -22 -41q-8 -23 -8 -69v-799q0 -106 -29 -184q-29 -80 -92 -140q-59 -57 -160 -88q-98 -31 -231 -30q-127 0 -240 26q-104 25 -178 80q-68 51 -111 145q-39 86 -39 215v783q0 43 -8 65q-9 25 -24 37q-20 16 -33 19 q-25 4 -39 4h-88zM479 1901h135q18 -72 68 -107q47 -33 125 -33t125 33q49 35 67 107h136q-4 -63 -23 -115q-22 -58 -61 -105q-39 -45 -102.5 -73.5t-141.5 -28.5t-141.5 28.5t-102.5 73.5q-40 46 -61 105q-19 52 -23 115z" />
<glyph unicode="&#x16d;" horiz-adv-x="1363" d="M53 989v109h455v-656q0 -49 8 -118q6 -53 25 -91q18 -39 49 -59q29 -20 74 -20t83.5 22.5t59.5 61.5q25 45 33 98q10 66 10 129v393q0 47 -12 72q-14 31 -31 39q-25 14 -47 16q-37 4 -58 4h-6v109h465v-860q0 -43 10.5 -70t28.5 -39q20 -14 43 -16q33 -4 55 -4h17v-109 h-408l-45 145h-10q-31 -52 -68 -86q-31 -29 -75 -49q-39 -18 -88 -24q-47 -6 -93 -6q-158 0 -245 100q-86 98 -86 305v459q0 49 -9 74q-10 31 -24 43q-20 18 -43 22q-27 6 -64 6h-4zM342 1563h135q18 -72 68 -107q47 -33 125 -33t125 33q49 35 67 107h136q-4 -63 -23 -115 q-22 -58 -61 -105q-39 -45 -102.5 -73.5t-141.5 -28.5t-141.5 28.5t-102.5 73.5q-40 46 -61 105q-19 52 -23 115z" />
<glyph unicode="&#x16e;" horiz-adv-x="1529" d="M33 1354v108h706v-108h-86q-16 0 -41 -4q-16 -2 -32 -19q-12 -12 -23 -41q-8 -23 -8 -69v-791q0 -84 22 -145q20 -53 62 -92q39 -35 94 -52q59 -16 127 -16t123 18q57 18 94 53t59 95q20 55 21 135v803q0 43 -8 65q-10 27 -23 37q-20 16 -33 19q-25 4 -40 4h-86v108h536 v-108h-88q-16 0 -41 -4q-16 -2 -33 -19q-12 -12 -22 -41q-8 -23 -8 -69v-799q0 -106 -29 -184q-29 -80 -92 -140q-59 -57 -160 -88q-98 -31 -231 -30q-127 0 -240 26q-104 25 -178 80q-68 51 -111 145q-39 86 -39 215v783q0 43 -8 65q-9 25 -24 37q-20 16 -33 19 q-25 4 -39 4h-88zM534 1782q0 53 19 96q16 41 53 70q35 29 78 43t96 14t96 -14.5t78 -42.5q37 -29 53 -70q18 -43 18.5 -96t-18.5 -96q-16 -41 -53 -70q-35 -29 -78 -43t-96 -14t-96 14t-78 43q-37 29 -53 70q-19 43 -19 96zM659 1782q0 -27 10 -51q10 -23 24.5 -35 t39.5 -19q23 -6 47.5 -6t46.5 6q25 6 39 18.5t25 35.5q10 25 10 51t-10 51q-10 23 -24.5 35t-39.5 18q-23 6 -47.5 6t-46.5 -6q-25 -6 -39 -18t-25 -35q-10 -24 -10 -51z" />
<glyph unicode="&#x16f;" horiz-adv-x="1363" d="M53 989v109h455v-656q0 -49 8 -118q6 -53 25 -91q18 -39 49 -59q29 -20 74 -20t83.5 22.5t59.5 61.5q25 45 33 98q10 66 10 129v393q0 47 -12 72q-14 31 -31 39q-25 14 -47 16q-37 4 -58 4h-6v109h465v-860q0 -43 10.5 -70t28.5 -39q20 -14 43 -16q33 -4 55 -4h17v-109 h-408l-45 145h-10q-31 -52 -68 -86q-31 -29 -75 -49q-39 -18 -88 -24q-47 -6 -93 -6q-158 0 -245 100q-86 98 -86 305v459q0 49 -9 74q-10 31 -24 43q-20 18 -43 22q-27 6 -64 6h-4zM407 1444q0 53 19 96q16 41 53 70q35 29 78 43t96 14t96 -14.5t78 -42.5q37 -29 53 -70 q18 -43 18.5 -96t-18.5 -96q-16 -41 -53 -70q-35 -29 -78 -43t-96 -14t-96 14t-78 43q-37 29 -53 70q-19 43 -19 96zM532 1444q0 -27 10 -51q10 -23 24.5 -35t39.5 -19q23 -6 47.5 -6t46.5 6q25 6 39 18.5t25 35.5q10 25 10 51t-10 51q-10 23 -24.5 35t-39.5 18 q-23 6 -47.5 6t-46.5 -6q-25 -6 -39 -18t-25 -35q-10 -24 -10 -51z" />
<glyph unicode="&#x170;" horiz-adv-x="1529" d="M33 1354v108h706v-108h-86q-16 0 -41 -4q-16 -2 -32 -19q-12 -12 -23 -41q-8 -23 -8 -69v-791q0 -84 22 -145q20 -53 62 -92q39 -35 94 -52q59 -16 127 -16t123 18q57 18 94 53t59 95q20 55 21 135v803q0 43 -8 65q-10 27 -23 37q-20 16 -33 19q-25 4 -40 4h-86v108h536 v-108h-88q-16 0 -41 -4q-16 -2 -33 -19q-12 -12 -22 -41q-8 -23 -8 -69v-799q0 -106 -29 -184q-29 -80 -92 -140q-59 -57 -160 -88q-98 -31 -231 -30q-127 0 -240 26q-104 25 -178 80q-68 51 -111 145q-39 86 -39 215v783q0 43 -8 65q-9 25 -24 37q-20 16 -33 19 q-25 4 -39 4h-88zM497 1579v27q23 33 45 71l22.5 36l25.5 42l22 38l23 40q22 40 36 74h261v-21q-12 -18 -31 -43q-23 -31 -43 -53q-12 -14 -55 -57l-58 -58l-55 -53q-10 -10 -28.5 -24.5t-22.5 -18.5h-142zM887 1579v27l45 71q33 53 47 78q10 18 22.5 38t22.5 40 q22 40 37 74h260v-21q-12 -18 -31 -43q-23 -31 -43 -53q-12 -14 -55 -57l-58 -58l-55 -53q-10 -10 -28.5 -24.5t-22.5 -18.5h-141z" />
<glyph unicode="&#x171;" horiz-adv-x="1363" d="M53 989v109h455v-656q0 -49 8 -118q6 -53 25 -91q18 -39 49 -59q29 -20 74 -20t83.5 22.5t59.5 61.5q25 45 33 98q10 66 10 129v393q0 47 -12 72q-14 31 -31 39q-25 14 -47 16q-37 4 -58 4h-6v109h465v-860q0 -43 10.5 -70t28.5 -39q20 -14 43 -16q33 -4 55 -4h17v-109 h-408l-45 145h-10q-31 -52 -68 -86q-31 -29 -75 -49q-39 -18 -88 -24q-47 -6 -93 -6q-158 0 -245 100q-86 98 -86 305v459q0 49 -9 74q-10 31 -24 43q-20 18 -43 22q-27 6 -64 6h-4zM342 1241v27q23 33 45 71l22.5 36l25.5 42l22 38l23 40q22 40 36 74h261v-21 q-12 -18 -31 -43q-23 -31 -43 -53q-12 -14 -55 -57l-58 -58l-55 -53q-10 -10 -28.5 -24.5t-22.5 -18.5h-142zM732 1241v27l45 71q33 53 47 78q10 18 22.5 38t22.5 40q22 40 37 74h260v-21q-12 -18 -31 -43q-23 -31 -43 -53q-12 -14 -55 -57l-58 -58l-55 -53 q-10 -10 -28.5 -24.5t-22.5 -18.5h-141z" />
<glyph unicode="&#x172;" horiz-adv-x="1529" d="M33 1354v108h706v-108h-86q-16 0 -41 -4q-16 -2 -32 -19q-12 -12 -23 -41q-8 -23 -8 -69v-791q0 -84 22 -145q20 -53 62 -92q39 -35 94 -52q59 -16 127 -16t123 18q57 18 94 53t59 95q20 55 21 135v803q0 43 -8 65q-10 27 -23 37q-20 16 -33 19q-25 4 -40 4h-86v108h536 v-108h-88q-16 0 -41 -4q-16 -2 -33 -19q-12 -12 -22 -41q-8 -23 -8 -69v-799q0 -106 -29 -184q-29 -80 -92 -140q-59 -57 -160 -88q-98 -31 -231 -30q-127 0 -240 26q-104 25 -178 80q-68 51 -111 145q-39 86 -39 215v783q0 43 -8 65q-9 25 -24 37q-20 16 -33 19 q-25 4 -39 4h-88zM583 -266q0 51 21 92q23 43 53 78q29 31 78 59q43 25 90 37h158q-33 -10 -66 -31q-41 -27 -61 -49q-29 -31 -45 -67q-18 -41 -19 -89q0 -25 10 -49q8 -18 29 -32q23 -14 45 -21q25 -6 58 -6q18 0 59 4q35 4 70 12v-131q-12 -8 -39 -14q-35 -8 -47 -10 l-50 -6q-16 -2 -39 -3q-154 0 -227 54q-78 55 -78 172z" />
<glyph unicode="&#x173;" horiz-adv-x="1363" d="M53 989v109h455v-656q0 -49 8 -118q6 -53 25 -91q18 -39 49 -59q29 -20 74 -20t83.5 22.5t59.5 61.5q25 45 33 98q10 66 10 129v393q0 47 -12 72q-14 31 -31 39q-25 14 -47 16q-37 4 -58 4h-6v109h465v-860q0 -43 10.5 -70t28.5 -39q20 -14 43 -16q33 -4 55 -4h17v-109 h-408l-45 145h-10q-31 -52 -68 -86q-31 -29 -75 -49q-39 -18 -88 -24q-47 -6 -93 -6q-158 0 -245 100q-86 98 -86 305v459q0 49 -9 74q-10 31 -24 43q-20 18 -43 22q-27 6 -64 6h-4zM667 -266q0 51 21 92q23 43 53 78q29 31 78 59q43 25 90 37h158q-33 -10 -66 -31 q-41 -27 -61 -49q-29 -31 -45 -67q-18 -41 -19 -89q0 -25 10 -49q8 -18 29 -32q23 -14 45 -21q25 -6 58 -6q18 0 59 4q35 4 70 12v-131q-12 -8 -39 -14q-35 -8 -47 -10l-50 -6q-16 -2 -39 -3q-154 0 -227 54q-78 55 -78 172z" />
<glyph unicode="&#x174;" horiz-adv-x="2183" d="M0 1354v108h684v-108h-47q-61 0 -92 -24.5t-31 -74.5q0 -14 6 -49q8 -41 15 -61l137 -473l12 -41l12 -43q4 -14 11.5 -45l11.5 -47q6 -23 20 -90q10 -43 13 -76l30 123l35 118l270 877h150l283 -782q29 -76 34 -97q2 -6 27 -96l12.5 -42t12.5 -40q4 -14 9 -38.5t5 -26.5 q8 37 16 82q4 25 10.5 49t10.5 45l22 102q4 14 11.5 48l11.5 53l108 442l7 29l6 30q4 20 4 29q0 4 1 12t1 10q0 52 -31 74q-33 23 -100 23h-47v108h534v-108h-39q-33 0 -53 -6q-27 -8 -41 -23q-16 -16 -33 -49q-10 -23 -28 -82l-318 -1194h-233l-344 961l-295 -961h-254 l-375 1245q-8 29 -22 53q-12 20 -31 32.5t-39 19.5q-14 4 -53 4h-27zM792 1579v27l56 67l65 78q27 35 60 82q33 49 45 74h276q12 -25 45 -74q33 -47 60 -82l63 -78l57 -67v-27h-141l-49 39l-62 49l-59 49l-53 47l-53 -47l-60 -49l-29.5 -24.5l-29.5 -24.5l-49 -39h-142z" />
<glyph unicode="&#x175;" horiz-adv-x="1751" d="M-6 989v109h600v-109h-27q-61 0 -92 -18.5t-31 -67.5q0 -25 5 -41q8 -33 12 -47l76 -266q12 -49 18 -76q4 -20 9 -39.5l9 -36.5q6 -25 15 -69q8 -49 10 -60h6q8 43 25 105q6 23 41 131l209 583h133l200 -604q18 -55 35 -125q12 -49 19 -90h6q2 14 5 26.5t5 22.5 q2 14 10 48q10 41 15 55q18 61 20 67l90 299q2 6 13 56q6 31 6 47q0 51 -33 76q-35 25 -103 24h-14v109h469v-109h-26q-29 0 -51.5 -6t-39 -22.5t-32.5 -49.5q-14 -27 -31 -82l-264 -829h-221l-224 680l-235 -680h-223l-263 881q-14 35 -24 53q-12 20 -31 33q-14 8 -39 16 q-23 6 -51 6h-6zM555 1241v27l56 67l65 78q27 35 60 82q33 49 45 74h276q12 -25 45 -74q33 -47 60 -82l63 -78l57 -67v-27h-141l-49 39l-62 49l-59 49l-53 47l-53 -47l-60 -49l-29.5 -24.5l-29.5 -24.5l-49 -39h-142z" />
<glyph unicode="&#x176;" horiz-adv-x="1417" d="M0 1354v108h686v-108h-35q-61 0 -92 -24.5t-31 -67.5q0 -29 9 -56q8 -31 22 -57l152 -301l53 -115l37 -98q8 23 49 117q31 72 61 133l119 245q25 51 29 76q6 31 6 47q0 51 -33 76t-102 25h-47v108h536v-108h-39q-27 0 -45 -6q-20 -6 -35 -25q-18 -23 -34 -49 q-6 -10 -41 -80l-348 -678v-280q0 -43 10 -70t24.5 -39t34.5 -14q29 -4 45 -4h101v-109h-756v109h96q18 0 47 4q23 4 37 14q14 12 24.5 39t10.5 67v285l-379 727q-4 8 -29 51q-10 18 -28 33q-15 12 -37 19q-20 6 -51 6h-27zM356 1579v27l56 67l65 78q27 35 60 82 q33 49 45 74h276q12 -25 45 -74q33 -47 60 -82l63 -78l57 -67v-27h-141l-49 39l-62 49l-59 49l-53 47l-53 -47l-60 -49l-29.5 -24.5l-29.5 -24.5l-49 -39h-142z" />
<glyph unicode="&#x177;" horiz-adv-x="1185" d="M0 977v121h584v-109q-57 0 -95 -16q-35 -16 -34 -60q0 -8 8 -41q6 -23 12 -38l37 -93l39 -102l35 -96l16 -44.5t14 -39.5q16 -43 25 -70q12 -41 16 -57q8 -33 11 -47l6 -43q4 33 8 47l12 49q2 10 8.5 24.5t6.5 16.5q4 10 7 16t3 11l135 401l8 24q4 16 6 27q4 20 4 27 q0 4 1 12t1 10q0 45 -38 64q-40 18 -111 18v109h461v-109q-23 0 -56 -8q-25 -6 -40 -23q-20 -20 -35 -47q-20 -37 -33 -71l-76 -207l-78 -213l-80 -213l-75 -207q-45 -119 -68 -174q-31 -74 -67 -129q-39 -59 -78 -92q-41 -35 -100.5 -57.5t-133.5 -30.5q-68 -8 -176 -9h-35 v119q102 0 183 27q76 25 127 74q51 47 84 114q37 74 59 148l-369 901q-14 33 -26.5 47t-33 24.5t-36.5 12.5q-14 2 -43 2zM241 1241v27l56 67l65 78q27 35 60 82q33 49 45 74h276q12 -25 45 -74q33 -47 60 -82l63 -78l57 -67v-27h-141l-49 39l-62 49l-59 49l-53 47l-53 -47 l-60 -49l-29.5 -24.5l-29.5 -24.5l-49 -39h-142z" />
<glyph unicode="&#x178;" horiz-adv-x="1417" d="M0 1354v108h686v-108h-35q-61 0 -92 -24.5t-31 -67.5q0 -29 9 -56q8 -31 22 -57l152 -301l53 -115l37 -98q8 23 49 117q31 72 61 133l119 245q25 51 29 76q6 31 6 47q0 51 -33 76t-102 25h-47v108h536v-108h-39q-27 0 -45 -6q-20 -6 -35 -25q-18 -23 -34 -49 q-6 -10 -41 -80l-348 -678v-280q0 -43 10 -70t24.5 -39t34.5 -14q29 -4 45 -4h101v-109h-756v109h96q18 0 47 4q23 4 37 14q14 12 24.5 39t10.5 67v285l-379 727q-4 8 -29 51q-10 18 -28 33q-15 12 -37 19q-20 6 -51 6h-27zM401 1747q0 33 10 59q8 20 27 39q16 16 38.5 22.5 t45.5 6.5q27 0 47 -6q18 -6 39 -23q18 -14 27 -39q10 -27 10 -59.5t-10 -58.5q-8 -25 -27 -39q-20 -16 -39 -23q-20 -6 -47 -6q-23 0 -45.5 6t-38.5 23q-18 18 -27 39q-10 26 -10 59zM821 1747q0 33 10 59q8 25 27 39q20 16 39 23q20 6 47 6q23 0 45 -6q18 -6 39 -23 q18 -14 26 -39q10 -27 10.5 -59.5t-10.5 -58.5q-8 -25 -26 -39q-20 -16 -39 -23q-23 -6 -45 -6q-27 0 -47 6q-18 6 -39 23q-18 14 -27 39q-10 26 -10 59z" />
<glyph unicode="&#x179;" horiz-adv-x="1363" d="M86 0v102l768 1235h-403q-41 0 -78 -14q-33 -14 -51 -37q-16 -23 -27 -59q-10 -35 -12 -76l-11 -111h-147l10 422h1094v-104l-770 -1233h442q61 0 103 18q39 18 63 45q27 29 35 66q12 49 14 76l10 92h148l-10 -422h-1178zM537 1579v27q23 29 49 67l55 78l53 82 q29 47 41 74h322v-21q-14 -23 -64 -67q-49 -47 -98 -84l-113 -86q-55 -41 -106 -70h-139z" />
<glyph unicode="&#x17a;" horiz-adv-x="1081" d="M37 0v84l604 874h-299q-23 0 -41 -6q-12 -4 -29 -24q-12 -15 -24 -43q-8 -16 -23 -70l-12 -49h-123l25 332h884v-88l-606 -871h361q35 0 53 8q25 10 37 29q18 27 26 53q10 33 19 76l12 66h121l-10 -371h-975zM416 1241v27q23 29 49 67l55 78l53 82q29 47 41 74h322v-21 q-14 -23 -64 -67q-49 -47 -98 -84l-113 -86q-55 -41 -106 -70h-139z" />
<glyph unicode="&#x17b;" horiz-adv-x="1363" d="M86 0v102l768 1235h-403q-41 0 -78 -14q-33 -14 -51 -37q-16 -23 -27 -59q-10 -35 -12 -76l-11 -111h-147l10 422h1094v-104l-770 -1233h442q61 0 103 18q39 18 63 45q27 29 35 66q12 49 14 76l10 92h148l-10 -422h-1178zM543 1768q0 35 14 67q12 27 37 45q23 16 55 27 q27 8 68 8t68 -8q33 -10 55 -27q25 -18 39 -45t14 -67q0 -39 -14.5 -66t-38.5 -45q-27 -20 -55 -29q-27 -8 -68 -8t-68 8q-29 8 -55 29q-25 18 -37 45q-14 33 -14 66z" />
<glyph unicode="&#x17c;" horiz-adv-x="1081" d="M37 0v84l604 874h-299q-23 0 -41 -6q-12 -4 -29 -24q-12 -15 -24 -43q-8 -16 -23 -70l-12 -49h-123l25 332h884v-88l-606 -871h361q35 0 53 8q25 10 37 29q18 27 26 53q10 33 19 76l12 66h121l-10 -371h-975zM408 1430q0 35 14 67q12 27 37 45q23 16 55 27q27 8 68 8 t68 -8q33 -10 55 -27q25 -18 39 -45t14 -67q0 -39 -14.5 -66t-38.5 -45q-27 -20 -55 -29q-27 -8 -68 -8t-68 8q-29 8 -55 29q-25 18 -37 45q-14 33 -14 66z" />
<glyph unicode="&#x17d;" horiz-adv-x="1363" d="M86 0v102l768 1235h-403q-41 0 -78 -14q-33 -14 -51 -37q-16 -23 -27 -59q-10 -35 -12 -76l-11 -111h-147l10 422h1094v-104l-770 -1233h442q61 0 103 18q39 18 63 45q27 29 35 66q12 49 14 76l10 92h148l-10 -422h-1178zM338 1880v27h142l49 -39l29.5 -24.5l29.5 -24.5 q14 -10 21.5 -17.5t17.5 -15.5t21 -18l26.5 -21.5t26.5 -24.5q12 12 26.5 23.5t26.5 22.5q10 10 20.5 18t17.5 15t21 18l62 49l49 39h141v-27l-57 -67l-63 -78q-41 -53 -60 -80q-31 -45 -45 -76h-276q-14 31 -45 76q-18 27 -60 80l-65 78z" />
<glyph unicode="&#x17e;" horiz-adv-x="1081" d="M37 0v84l604 874h-299q-23 0 -41 -6q-12 -4 -29 -24q-12 -15 -24 -43q-8 -16 -23 -70l-12 -49h-123l25 332h884v-88l-606 -871h361q35 0 53 8q25 10 37 29q18 27 26 53q10 33 19 76l12 66h121l-10 -371h-975zM209 1542v27h142l49 -39l29.5 -24.5l29.5 -24.5 q14 -10 21.5 -17.5t17.5 -15.5t21 -18l26.5 -21.5t26.5 -24.5q12 12 26.5 23.5t26.5 22.5q10 10 20.5 18t17.5 15t21 18l62 49l49 39h141v-27l-57 -67l-63 -78q-41 -53 -60 -80q-31 -45 -45 -76h-276q-14 31 -45 76q-18 27 -60 80l-65 78z" />
<glyph unicode="&#x17f;" horiz-adv-x="802" d="M14 0v109h45q14 0 47 4q27 4 47.5 18t36.5 41q14 23 15 70v932q0 96 24 169q25 78 76 127q49 49 131 78q78 27 187 27q102 0 165 -12q74 -14 105 -31q41 -23 55 -47q16 -29 17 -60q0 -72 -61.5 -102.5t-190.5 -30.5q0 27 -6 54q-8 41 -17 55q-12 27 -31 41q-20 16 -49 16 q-20 0 -43 -14q-16 -10 -28 -43q-10 -25 -17 -76q-6 -47 -6 -115v-968q0 -47 14 -70q16 -27 37 -41t47 -18q33 -4 48 -4h96v-109h-744z" />
<glyph unicode="&#x192;" d="M-174 -465l31 129q6 -2 17 -5t15 -5q16 -6 37 -8q8 -2 20.5 -4t20.5 -4q14 -2 41 -3q40 0 68 19q29 18 49 59q25 49 41 109q18 68 37 166l151 790h-202l26 142h201q2 16 10 47.5t10 48.5l19 96q20 94 51 158q35 70 88 117t127 71.5t174 24.5q80 0 137 -13q51 -10 97 -34 q39 -20 57 -51t18 -66t-12 -66q-14 -35 -37 -53q-29 -23 -74 -35t-112 -12q0 100 -21 156q-20 57 -63 57q-27 0 -43 -14q-18 -16 -31 -45q-14 -37 -24 -74l-23 -107l-39 -206h262l-26 -142h-262q-10 -47 -19.5 -97l-19.5 -101l-39 -197l-37 -197l-39 -200q-29 -143 -72 -230 q-45 -90 -108.5 -147.5t-141.5 -77.5q-84 -23 -174 -23q-53 0 -100 9q-70 12 -86 18z" />
<glyph unicode="&#x1f0;" horiz-adv-x="706" d="M-8 -365h12q49 0 86 19q39 18 62 59q31 53 41 113q12 72 12 174v854q0 43 -12 70q-10 20 -37 41q-25 18 -52 20q-41 4 -63 4h-6v109h481v-1114q0 -137 -37 -230q-37 -90 -100 -145q-66 -57 -154 -78q-94 -23 -194 -23h-39v127zM-41 1542v27h142l49 -39l29.5 -24.5 l29.5 -24.5q14 -10 21.5 -17.5t17.5 -15.5t21 -18l26.5 -21.5t26.5 -24.5q12 12 26.5 23.5t26.5 22.5q10 10 20.5 18t17.5 15t21 18l62 49l49 39h141v-27l-57 -67l-63 -78q-41 -53 -60 -80q-31 -45 -45 -76h-276q-14 31 -45 76q-18 27 -60 80l-65 78z" />
<glyph unicode="&#x1fa;" horiz-adv-x="1540" d="M8 0v109h25q28 0 49 6q29 8 43 20q16 14 37 41q14 18 35 68l417 1005q-37 29 -59 72q-23 45 -23 104q0 53 19 97q16 41 53 69q35 29 78 43.5t96 14.5t96.5 -14.5t77.5 -43.5q37 -29 54 -69q18 -43 18 -97q0 -61 -20 -102q-18 -39 -58 -70l404 -1011q16 -41 32 -64 q20 -27 37 -41q20 -16 41 -22q23 -6 45 -6h37v-109h-676v109h80q10 0 31 4q12 2 29 14q10 8 20 25q8 14 8 32q0 22 -6 43q0 4 -4 17.5t-6 19.5l-66 168h-506l-55 -141q-8 -18 -18.5 -53t-10.5 -54q0 -23 9 -32q12 -16 20 -22.5t29 -14.5q14 -6 35 -6h86v-109h-533zM496 557 h403l-104 291l-23 67q-6 20 -11 39t-11 35l-23 76q-6 25 -18 70q-8 -29 -20.5 -64l-26.5 -72l-12.5 -36.5t-14.5 -36.5q-8 -20 -13.5 -38t-11.5 -32zM639 1700v20l49 54q45 47 57 63l52 66q27 33 41 59h321v-16q-8 -10 -63 -54q-35 -27 -99 -69q-27 -18 -112 -68 q-61 -35 -107 -55h-139zM657 1425q0 -57 33 -82q35 -27 78 -28h20q45 2 78 28.5t33 81.5q0 27 -10 52q-10 23 -24.5 35t-39.5 18q-23 6 -47 6t-47 -6q-22 -6 -37 -19q-18 -14 -26 -34q-11 -25 -11 -52z" />
<glyph unicode="&#x1fb;" horiz-adv-x="1226" d="M92 313q0 166 115 246q117 82 344 88l168 6v113q0 37 -4 94q-2 39 -17 74q-10 25 -39 47q-25 18 -67 18q-37 0 -66 -16q-27 -14 -43 -47q-16 -35 -22 -70q-6 -39 -6 -88q-135 0 -207 31q-70 31 -70 106q0 57 33 96.5t92 64t133 36.5q76 12 164 12q109 0 188.5 -18.5 t133.5 -58.5q55 -41 82 -109q27 -66 26 -162v-522q0 -41 6 -70q6 -31 21 -45q16 -16 39 -22q33 -8 57 -8h8v-109h-381l-43 141h-18q-45 -53 -64 -71q-29 -29 -63 -52q-29 -18 -78 -28q-47 -10 -100 -10q-72 0 -127 20q-61 23 -101 61q-47 47 -69 105q-25 61 -25 147z M373 1419.5q0 53.5 18 96.5q16 41 53 69q35 29 78 43t96.5 14t96.5 -14t78 -43q37 -29 53 -69q18 -43 18 -96.5t-18 -96.5q-16 -41 -53 -70q-35 -29 -78 -43t-96.5 -14t-96.5 14.5t-78 42.5q-37 29 -53 70q-18 43 -18 96.5zM410 305q0 -88 28 -133q29 -43 88 -43q43 0 80 18 q33 16 60 54q29 39 39 82q14 57 14 108v154l-92 -6q-59 -2 -103 -19q-37 -14 -67 -47q-23 -25 -35 -70q-12 -43 -12 -98zM475 1700v20q8 10 22.5 23.5t28.5 30.5l56 63l51 66q27 33 41 59h321v-16q-8 -10 -63 -54q-35 -27 -98 -69q-27 -18 -113 -68q-61 -35 -107 -55h-139z M498 1419q0 -27 10 -51q10 -23 24.5 -35t38.5 -18q23 -6 47.5 -6t47.5 6q25 6 39 18.5t24 34.5q10 25 10 51.5t-10 50.5q-10 23 -24.5 35.5t-38.5 18.5q-23 6 -47.5 6t-47.5 -6q-25 -6 -39 -18.5t-24 -35.5q-10 -24 -10 -51z" />
<glyph unicode="&#x1fc;" horiz-adv-x="2033" d="M0 0v109h25q55 0 96 38q39 37 86 121l575 1075l-135 11v108h1243l8 -377h-143l-10 97q-10 76 -39 114q-31 41 -92 41h-344v-512h485v-123h-485v-577h409q33 0 54 12q23 12 36 33q18 27 27 49q6 20 14 62l17 96h141l-14 -377h-1200v109h86q55 0 80 34q25 33 24 88v238 h-471l-86 -172q-10 -14 -25 -61q-8 -25 -8 -48q0 -43 31 -61t92 -18h35v-109h-512zM539 592h405v745h-20zM1116 1579v27q23 29 49 67l55 78l53 82q29 47 41 74h322v-21q-14 -23 -64 -67q-49 -47 -98 -84l-113 -86q-55 -41 -106 -70h-139z" />
<glyph unicode="&#x1fd;" horiz-adv-x="1792" d="M92 313q0 166 115 246q117 82 344 88l168 6v113q0 37 -4 94q-2 39 -17 74q-10 25 -39 47q-25 18 -67 18q-37 0 -66 -16q-27 -14 -43 -47q-16 -35 -22 -70q-6 -39 -6 -88q-135 0 -207 31q-70 31 -70 106q0 57 33 96.5t92 64t133 36.5q76 12 164 12q111 0 191 -26 q78 -27 135 -90q55 53 135 86q74 31 166 30q106 0 200 -32q90 -31 152 -93q59 -59 94 -153q33 -90 33 -215v-105h-672q2 -100 23 -178q16 -68 53 -121q33 -49 86 -71q51 -23 113 -23q52 0 98 12q41 10 82 35q33 18 63 53q25 27 45 66q55 -31 56 -100q0 -47 -23 -84 q-25 -39 -74 -70q-45 -29 -124 -47q-76 -18 -179 -18q-145 0 -260 51q-111 49 -176 145q-66 -100 -172 -149q-104 -47 -231 -47q-72 0 -127 20q-61 23 -101 61q-47 47 -69 105q-25 61 -25 147zM410 305q0 -88 28 -133q29 -43 88 -43q43 0 80 18q33 16 60 54q29 39 39 82 q14 57 14 108v154l-92 -6q-59 -2 -103 -19q-37 -14 -67 -47q-23 -25 -35 -70q-12 -43 -12 -98zM1038 657h355q0 162 -39 246q-41 88 -123 88q-84 0 -137 -86q-50 -80 -56 -248zM815 1241v27q23 29 49 67l55 78l53 82q29 47 41 74h322v-21q-14 -23 -64 -67q-49 -47 -98 -84 l-113 -86q-55 -41 -106 -70h-139z" />
<glyph unicode="&#x1fe;" horiz-adv-x="1611" d="M113 735q0 170 43 309q43 137 129 235.5t217 152t307 53.5q90 0 160 -15q80 -16 141 -43l64 119h143l-96 -178q137 -96 206 -258q72 -166 72 -377q0 -172 -45 -307q-47 -143 -135 -240q-86 -96 -217 -151q-129 -55 -295 -55q-172 0 -303 53l-62 -115h-145l94 174 q-141 96 -209 260q-69 170 -69 383zM457 733q0 -135 14 -229q16 -109 45 -180l506 942q-35 39 -92 63q-55 23 -121 23q-100 0 -164 -41q-66 -43 -108 -121q-43 -80 -61.5 -195t-18.5 -262zM592 197q39 -41 92 -64q49 -20 123 -20q94 0 162 43q70 45 108 120q41 82 60 195 q18 115 18 262q0 133 -14 228q-16 104 -43 180zM666 1579v27q23 29 49 67l55 78l53 82q29 47 41 74h322v-21q-14 -23 -64 -67q-49 -47 -98 -84l-113 -86q-55 -41 -106 -70h-139z" />
<glyph unicode="&#x1ff;" horiz-adv-x="1253" d="M96 553q0 289 135.5 430t399.5 141q74 0 137 -12q59 -10 117 -37l65 105h144l-105 -172q80 -68 125 -184.5t45 -270.5q0 -289 -135 -430q-137 -143 -399 -143q-137 0 -242 43l-66 -105h-145l102 168q-88 72 -133 186.5t-45 280.5zM414 553q0 -43 4 -117q4 -68 10 -100 l352 571q-52 86 -153 86q-59 0 -101 -28q-43 -29 -65 -82q-23 -49 -35 -138q-12 -81 -12 -192zM481 184q53 -76 148 -75q59 0 100 28.5t65.5 83.5t36.5 139q10 70 11 193q0 72 -2 104q-2 37 -11 93zM504 1241v27q23 29 49 67l55 78l53 82q29 47 41 74h322v-21 q-14 -23 -64 -67q-49 -47 -98 -84l-113 -86q-55 -41 -106 -70h-139z" />
</font>
</defs>
</svg>
