<?xml version="1.0" standalone="no"?>
<!DOCTYPE svg PUBLIC "-//W3C//DTD SVG 1.1//EN" "http://www.w3.org/Graphics/SVG/1.1/DTD/svg11.dtd" >
<svg xmlns="http://www.w3.org/2000/svg">
<metadata>
This is a custom SVG webfont generated by Font Squirrel.
Copyright   : Digitized data copyright  2006 Google Corporation
Foundry     : Ascender Corporation
Foundry URL : httpwwwascendercorpcom
</metadata>
<defs>
<font id="webfontLahtyDxO" horiz-adv-x="1126" >
<font-face units-per-em="2048" ascent="1638" descent="-410" />
<missing-glyph horiz-adv-x="530" />
<glyph unicode=" "  horiz-adv-x="530" />
<glyph unicode="&#x09;" horiz-adv-x="530" />
<glyph unicode="&#xa0;" horiz-adv-x="530" />
<glyph unicode="!" horiz-adv-x="550" d="M147 111q0 35 11 65q10 29 26 43q20 16 39 23q29 8 51 8q16 0 50 -8q20 -4 41 -23q16 -14 26 -43q10 -31 10 -65q0 -33 -10 -64q-8 -25 -26 -43q-14 -14 -41 -24q-23 -8 -50 -9q-33 0 -51 9q-25 10 -39 24q-18 18 -26 43q-11 31 -11 64zM164 1462h223l-51 -1048h-121z " />
<glyph unicode="&#x22;" horiz-adv-x="821" d="M133 1462h197l-41 -528h-115zM494 1462h196l-41 -528h-114z" />
<glyph unicode="#" horiz-adv-x="1320" d="M51 428v137h285l65 328h-274v137h299l82 432h147l-82 -432h293l84 432h144l-84 -432h262v-137h-289l-63 -328h280v-137h-307l-82 -428h-147l84 428h-291l-82 -428h-144l78 428h-258zM483 565h291l64 328h-291z" />
<glyph unicode="$" d="M123 172v172q59 -27 76 -33q53 -18 92 -28q66 -16 98 -23q43 -8 98 -8v434q-100 35 -155 64q-70 37 -109 75q-43 43 -63.5 96.5t-20.5 129.5q0 68 25 123q25 53 69 96q45 41 111 69q57 25 143 35v180h138v-176q102 -6 184 -26q86 -23 152 -52l-66 -145q-45 20 -127 45 q-66 20 -143 27v-422q92 -33 155 -64q68 -35 113 -75q49 -47 70 -95q23 -55 22.5 -124.5t-24.5 -127.5q-23 -55 -72 -100q-45 -41 -113 -69q-63 -27 -151 -39v-230h-138v221q-33 0 -102 4q-33 2 -98 15q-53 10 -90 20q-43 13 -74 31zM315 1049q0 -39 9 -64q10 -33 28 -53 q20 -23 54 -41q37 -20 81 -37v369q-86 -14 -131 -60q-41 -40 -41 -114zM625 262q94 16 139 63.5t45 120.5q0 29 -10.5 60t-30.5 51.5t-57 40.5q-34 18 -86 37v-373z" />
<glyph unicode="%" horiz-adv-x="1689" d="M102 1026q0 117 17 193q18 84 55 143t92.5 90t134.5 31q76 0 131 -31q53 -29 94.5 -90.5t59.5 -142.5q18 -86 19 -193q0 -109 -19 -195q-20 -92 -53 -145q-37 -59 -96 -90q-57 -31 -136 -31q-74 0 -129 31q-57 33 -94 90q-39 63 -57 145q-19 86 -19 195zM250 1026 q0 -170 35 -248q37 -82 116 -82q156 0 156 330q0 328 -156 328q-80 0 -116 -82q-35 -78 -35 -246zM362 0l812 1462h157l-811 -1462h-158zM985 440q0 106 19 193q18 90 53 143q37 59 92 90t135 31q76 0 131 -31q57 -33 94 -90q41 -63 58 -143q20 -96 20 -193q0 -109 -18 -194 q-18 -90 -53 -144q-39 -61 -95 -90q-61 -33 -137 -32q-72 0 -131 32q-55 31 -92 90q-41 63 -57 144q-19 85 -19 194zM1133 440q0 -166 36.5 -247.5t114.5 -81.5q156 0 156 329q0 328 -156 328q-78 0 -115 -82q-36 -84 -36 -246z" />
<glyph unicode="&#x26;" horiz-adv-x="1437" d="M109 381q0 80 20 139q23 66 59 111q49 61 93 94q39 31 127 84q-6 8 -19.5 22.5l-24 26.5t-18.5 25q-29 39 -51 82q-20 39 -37 94q-14 45 -14 106q0 76 24 135q23 51 74 101q43 41 115 63q63 20 157 21q86 0 148 -21q70 -23 112 -63q41 -39 68 -101q25 -59 25 -135 q0 -63 -25 -118q-25 -53 -68 -101q-47 -51 -96 -86q-57 -41 -114 -76l352 -372q25 25 49 59l39 64q14 25 29 73q20 68 24 86h184q-16 -68 -36 -121q-31 -80 -45 -104q-33 -57 -60 -92q-45 -57 -72 -84l277 -293h-225l-168 172q-41 -39 -97 -80q-51 -39 -102 -61 q-55 -25 -117 -37q-72 -14 -139 -14q-109 0 -188 26q-86 29 -141.5 78t-88.5 127q-30 74 -30 170zM299 387q0 -55 18 -100q18 -47 50 -78q29 -29 82 -49q49 -18 108 -19q66 0 107 11q53 12 92 32q45 23 78 47q41 31 67 58l-387 407l-92 -65q-40 -31 -68 -68q-25 -33 -41 -78 q-14 -41 -14 -98zM422 1165q0 -37 8 -67q6 -25 25 -64q10 -23 43 -67q23 -31 61 -70q55 33 103 66q35 25 69 63q25 27 43 68q14 31 14 75q0 35 -12 66q-12 33 -37 53q-27 25 -57 35q-35 12 -74 12q-86 0 -137 -45q-49 -43 -49 -125z" />
<glyph unicode="'" horiz-adv-x="462" d="M133 1462h197l-41 -528h-115z" />
<glyph unicode="(" horiz-adv-x="614" d="M82 561q0 123 18 246q18 125 56 237q37 117 92 220q53 100 135 198h172q-137 -188 -213 -424q-72 -223 -72 -475q0 -121 19 -237q20 -131 53 -232q37 -115 88 -219q39 -80 123 -199h-170q-86 100 -135 193q-57 109 -92 215q-37 114 -56 233q-18 121 -18 244z" />
<glyph unicode=")" horiz-adv-x="614" d="M61 1462h172q76 -92 134 -198q59 -113 94 -220q37 -113 55 -237q18 -123 18.5 -246t-18.5 -244q-18 -120 -55 -233q-31 -96 -94 -215q-53 -98 -134 -193h-170q78 109 121 199q57 119 90 219.5t54 231.5q18 117 18 237q0 242 -72 475q-70 227 -213 424z" />
<glyph unicode="*" d="M82 1081l29 193l391 -111l-43 393h205l-43 -393l397 111l26 -193l-378 -28l245 -326l-178 -96l-176 358l-158 -358l-184 96l242 326z" />
<glyph unicode="+" d="M102 647v150h387v389h150v-389h387v-150h-387v-385h-150v385h-387z" />
<glyph unicode="," horiz-adv-x="512" d="M63 -264q6 23 15.5 65.5l13.5 61.5l29 131l24 129l10.5 62.5t8.5 52.5h198l15 -23l-33 -115q-18 -61 -43 -123q-8 -25 -49 -124q-6 -16 -51 -117h-138z" />
<glyph unicode="-" horiz-adv-x="657" d="M82 465v168h496v-168h-496z" />
<glyph unicode="." horiz-adv-x="548" d="M147 111q0 35 11 65q10 29 26 43q20 16 39 23q29 8 51 8q16 0 50 -8q20 -4 41 -23q16 -14 26 -43q10 -31 10 -65q0 -33 -10 -64q-8 -25 -26 -43q-14 -14 -41 -24q-23 -8 -50 -9q-33 0 -51 9q-25 10 -39 24q-18 18 -26 43q-11 31 -11 64z" />
<glyph unicode="/" horiz-adv-x="763" d="M20 0l545 1462h178l-544 -1462h-179z" />
<glyph unicode="0" d="M98 733q0 176 25 318q23 135 82 235q55 96 143 147.5t215 51.5q115 0 207 -51q86 -47 145 -146q61 -100 89 -237q29 -147 28 -318q0 -164 -26 -317q-23 -133 -82 -238q-51 -92 -146 -147q-88 -51 -215 -51q-121 0 -205 51q-90 55 -145 147q-59 98 -86 238 q-29 147 -29 317zM283 733q0 -143 16 -262q16 -121 47 -186q35 -76 86 -113t131 -37q76 0 131 37q53 37 88 110.5t49 186.5q16 121 16.5 264.5t-16.5 261.5q-16 113 -49 187q-35 74 -88 110q-55 37 -131 37q-80 0 -131 -37q-52 -37 -86 -110q-31 -66 -47 -187 q-16 -119 -16 -262z" />
<glyph unicode="1" d="M178 1163l383 299h150v-1462h-176v913v93q0 16 1 47.5t1 48.5l4 94q0 14 1 41t1 37l-31 -31l-25 -24q-14 -12 -28 -27q-8 -8 -17.5 -15.5l-19.5 -15.5l-148 -121z" />
<glyph unicode="2" d="M96 0v156l350 381l134 147q57 66 100 131q41 61 63.5 129t22.5 141q0 63 -16 105q-18 45 -50 76q-33 33 -73 47q-45 16 -97 16q-96 0 -172 -39q-88 -45 -145 -98l-102 119q40 37 86 67q55 37 100 56q68 29 111 36q59 12 124 13q98 0 173 -27q76 -27 133 -78 q49 -43 82 -123q31 -74 30 -163q0 -88 -26 -162q-29 -80 -74 -152q-51 -82 -111 -149l-139 -156l-281 -299v-8h689v-166h-912z" />
<glyph unicode="3" d="M82 59v170q88 -47 188 -71q102 -25 195 -25q96 0 160 21q70 23 110 57q43 37 63.5 90t20.5 121q0 70 -26 117q-29 49 -76 79q-51 33 -119 48q-66 14 -160 14h-133v151h133q82 0 144 21q70 23 106 55q43 37 64 88q23 55 22 113q0 52 -18 92q-20 45 -51 70q-39 33 -78 45 q-43 14 -103 14q-109 0 -188 -33q-84 -35 -156 -88l-92 125q31 25 84 58q35 20 102 47q49 18 117 32q61 12 133 13q109 0 189 -27q84 -29 137 -76q57 -51 84 -114q27 -66 27 -146q0 -70 -23 -133t-64 -104q-45 -45 -100 -72q-61 -29 -129 -41v-6q174 -20 268 -113 q92 -90 93 -235q0 -98 -33 -176t-98.5 -137.5t-165.5 -90.5q-109 -33 -240 -32q-109 0 -205 18q-106 20 -182 61z" />
<glyph unicode="4" d="M23 328v159l663 983h188v-976h213v-166h-213v-328h-176v328h-675zM201 494h497v356q0 18 1 57t1 60q0 82 2 120q0 18 1.5 54.5t3.5 54.5q4 70 4 86h-9q-2 -8 -9 -23.5t-9 -21.5q-6 -16 -22.5 -49t-24.5 -47q-16 -29 -25 -39z" />
<glyph unicode="5" d="M131 59v172q37 -23 78 -41q43 -18 92 -30q47 -12 100 -19q49 -6 91 -6q80 0 141 19q63 18 104 57q47 45 68 98q23 61 22 140q0 143 -88 218.5t-256 75.5q-39 0 -59 -2q-10 0 -30.5 -4t-31.5 -4q-10 -2 -31.5 -5t-29.5 -3q-10 -2 -27.5 -5t-21.5 -3l-90 57l55 688h690 v-166h-532l-39 -419q53 10 84 14q51 6 125 6q102 0 184 -27q86 -29 149.5 -82t100.5 -135q35 -76 35 -184q0 -115 -33 -205q-31 -86 -102 -153q-63 -61 -166 -97q-100 -35 -226 -34q-51 0 -100 6q-66 8 -96 14q-46 9 -86 25q-47 18 -74 34z" />
<glyph unicode="6" d="M113 625q0 92 10 209q10 106 37 200q27 90 73 176q45 82 117 144q68 59 170 94q100 35 232 35h43q12 0 45 -4q16 -2 45 -6q25 -4 39 -9v-155q-33 12 -78 18q-43 6 -88 6q-86 0 -158 -22q-76 -25 -119 -60q-53 -43 -84 -94q-35 -57 -55 -119q-20 -63 -31 -139 q-9 -74 -12 -154h12q22 37 49 68q29 31 66 53.5t86 34.5q53 14 106 14q95 0 173 -30q80 -33 131 -86q49 -53 82 -140q31 -82 30 -188q0 -113 -30 -205q-29 -88 -91 -155q-57 -63 -139 -97q-86 -35 -184 -34q-102 0 -187 38q-88 41 -151 119q-66 80 -102 203q-37 119 -37 285 zM295 506q0 -66 18 -133q18 -66 56 -119q39 -55 92 -88t127 -33q63 0 110 21q49 23 84 61q39 45 56 104q20 72 20 152q0 66 -16 125q-14 53 -49 94q-33 39 -84 62q-47 20 -115 20t-123 -24q-57 -27 -94 -60t-60 -86q-22 -51 -22 -96z" />
<glyph unicode="7" d="M90 1296v166h940v-145l-555 -1317h-194l563 1296h-754z" />
<glyph unicode="8" d="M106 373q0 72 23 135q18 55 59 108q33 43 90.5 84t110.5 66q-49 31 -92 68q-45 39 -74 81q-37 55 -51 99q-18 55 -18 121q0 88 34 153q37 70 91 109q61 45 131 65q78 23 155 23q80 0 158 -23q76 -23 131 -65.5t90 -110.5q33 -63 33 -153q0 -68 -21 -121q-20 -51 -55 -97 q-41 -51 -82 -79q-49 -34 -104 -62q49 -25 114 -69q47 -33 99 -87q39 -41 69 -106q27 -55 27 -131q0 -94 -33 -166q-35 -78 -94 -127q-63 -53 -145 -80q-90 -29 -187 -28q-115 0 -196.5 26.5t-143.5 77.5q-55 47 -88 125q-31 74 -31 164zM285 371q0 -51 16 -97 q18 -49 49 -77q31 -27 86 -47q51 -18 125 -19q71 0 123 19q59 20 90 49q35 33 53 77q18 47 19 103q0 51 -19 94q-16 35 -57 78q-39 39 -88 67q-88 51 -113 64l-30 14q-127 -61 -190.5 -136.5t-63.5 -188.5zM332 1126q0 -58 18 -98q23 -49 47 -74q33 -33 76 -57 q47 -27 94 -49q18 8 90 49q45 27 74 57q31 35 49 76q18 43 19 96q0 102 -64 154q-66 53 -172 53q-104 0 -167.5 -53.5t-63.5 -153.5z" />
<glyph unicode="9" d="M106 991q0 113 31 205q29 88 90 156q59 66 139 98.5t184.5 32.5t188.5 -39q88 -41 152 -119q63 -80 100 -201q37 -123 37 -286q0 -92 -10 -209q-10 -106 -37 -201q-27 -90 -74 -176q-45 -82 -116 -143q-68 -59 -170 -95q-100 -35 -232 -34q-6 0 -20.5 1t-22.5 1 q-31 0 -45 2l-45 6q-25 4 -39 8v156q33 -12 80 -19q43 -6 86 -6q133 0 221 47q86 47 139 127q49 76 72 189q20 100 27 225h-13q-22 -37 -49 -68q-29 -31 -65 -53q-47 -27 -86 -37q-49 -12 -107 -12q-100 0 -172 28q-76 31 -131 89q-53 55 -84 139q-29 77 -29 188zM283 991 q0 -66 16 -125q16 -57 49 -96q31 -37 84 -59q47 -20 115 -21q72 0 123 23q53 25 94 61q40 37 61 86q20 47 21 96q0 66 -19 134q-18 70 -55 120q-39 55 -90 86q-53 33 -129 33q-61 0 -109 -20q-53 -23 -86 -62q-37 -43 -55 -106q-20 -72 -20 -150z" />
<glyph unicode=":" horiz-adv-x="548" d="M147 111q0 35 11 65q10 29 26 43q20 16 39 23q29 8 51 8q16 0 50 -8q20 -4 41 -23q16 -14 26 -43q10 -31 10 -65q0 -33 -10 -64q-8 -25 -26 -43q-14 -14 -41 -24q-23 -8 -50 -9q-33 0 -51 9q-25 10 -39 24q-18 18 -26 43q-11 31 -11 64zM147 987q0 35 11 66q10 29 26 43 q20 16 39 22q29 8 51 8q16 0 50 -8q20 -4 41 -22q16 -14 26 -43q10 -31 10 -66q0 -37 -10 -63.5t-26 -42.5q-14 -14 -41 -25q-23 -8 -50 -8q-33 0 -51 8q-25 10 -39 25q-16 16 -26.5 42.5t-10.5 63.5z" />
<glyph unicode=";" horiz-adv-x="548" d="M63 -264q6 23 15.5 65.5l13.5 61.5l29 131l24 129l10.5 62.5t8.5 52.5h198l15 -23l-33 -115q-18 -61 -43 -123q-8 -25 -49 -124q-6 -16 -51 -117h-138zM147 987q0 35 11 66q10 29 26 43q20 16 39 22q29 8 51 8q16 0 50 -8q20 -4 41 -22q16 -14 26 -43q10 -31 10 -66 q0 -37 -10 -63.5t-26 -42.5q-14 -14 -41 -25q-23 -8 -50 -8q-33 0 -51 8q-25 10 -39 25q-16 16 -26.5 42.5t-10.5 63.5z" />
<glyph unicode="&#x3c;" d="M102 662v102l924 481v-160l-735 -364l735 -322v-161z" />
<glyph unicode="=" d="M102 442v150h924v-150h-924zM102 852v149h924v-149h-924z" />
<glyph unicode="&#x3e;" d="M102 238v161l736 322l-736 364v160l924 -481v-102z" />
<glyph unicode="?" horiz-adv-x="870" d="M37 1382q70 37 176 72q88 29 190 29q94 0 168 -25q72 -25 125.5 -74t79.5 -118q29 -74 29 -156q0 -57 -14 -119q-12 -55 -39 -98q-23 -37 -68 -86q-47 -51 -94 -90q-53 -45 -84 -78q-35 -35 -53 -66q-23 -37 -27 -63q-6 -35 -6 -78v-18h-139v37q0 43 8 104q4 37 26 84 q16 37 54 80q27 31 82 80q33 27 81 75q34 34 56 68q25 39 33 74q10 45 10 92q0 51 -15 88q-15 40 -43 68q-27 27 -71.5 43t-98.5 16q-78 0 -157 -27q-70 -23 -146 -59zM233 111q0 35 11 65q10 29 26 43q20 16 39 23q29 8 51 8q16 0 50 -8q20 -4 41 -23q16 -14 26 -43 q10 -31 10 -65q0 -33 -10 -64q-8 -25 -26 -43q-14 -14 -41 -24q-23 -8 -50 -9q-33 0 -51 9q-25 10 -39 24q-18 18 -26 43q-11 31 -11 64z" />
<glyph unicode="@" horiz-adv-x="1773" d="M109 575q0 184 59 351q57 162 168 280q113 123 266 189q156 68 348 67q150 0 287 -51q131 -49 227.5 -145.5t147.5 -229.5q53 -137 53 -305q0 -57 -10 -125q-10 -72 -27 -119q-16 -51 -47 -104q-20 -37 -68 -84q-35 -35 -86 -57q-47 -20 -106 -21q-47 0 -82 14.5 t-61 40.5q-31 31 -43 58q-16 37 -23 67h-4q-18 -37 -45 -69q-29 -37 -62 -58q-31 -20 -81 -38q-41 -14 -97 -15q-76 0 -137 29q-59 29 -100 78q-39 49 -62 121q-23 74 -22 157q0 101 30 185q33 88 84 145q53 59 135.5 94t176.5 35q29 0 90 -4q35 -2 86 -10q37 -6 76 -17 q53 -14 57 -16l-23 -416q0 -8 -1 -19.5t-1 -15.5v-22v-13v-6q0 -51 11 -88q8 -33 26.5 -53t38.5 -27q29 -8 45 -8q46 0 80 31q37 33 60 82q20 45 34 123q12 71 13 147q0 141 -43 252t-119 186q-78 78 -180.5 117t-227.5 39q-170 0 -299 -55q-127 -53 -215 -156 q-86 -98 -133 -235q-45 -133 -45 -299q0 -154 39 -269q40 -117 117 -196q78 -82 190 -121q117 -41 260 -41q61 0 121 6q43 4 115 21q68 14 104 26q66 20 94 33v-141q-90 -39 -194 -60q-113 -23 -238 -22q-180 0 -319 51t-237.5 149.5t-149.5 237.5t-51 319zM662 602 q0 -131 51 -192q49 -59 135 -60q53 0 94 23q39 20 64 63q29 51 38 99q14 63 17 127l14 253q-23 8 -67 15q-41 6 -80 6q-74 0 -125 -28.5t-82 -76.5q-29 -45 -45 -106q-14 -57 -14 -123z" />
<glyph unicode="A" horiz-adv-x="1243" d="M0 0l537 1468h170l538 -1468h-190l-160 453h-545l-162 -453h-188zM410 618h426l-148 424l-4 12.5l-4 12.5l-6 18q-2 10 -8.5 25.5t-10.5 32.5l-16 61q-4 18 -9 33.5t-9 30.5q-2 -12 -17 -64l-16 -63q-9 -31 -19 -56q-4 -10 -6 -18t-4 -12t-4 -13z" />
<glyph unicode="B" horiz-adv-x="1271" d="M199 0v1462h399q117 0 225 -20q100 -18 164 -61.5t98 -114.5q33 -68 33 -174q0 -53 -20 -115q-18 -57 -56 -96q-37 -40 -92 -68t-123 -37v-10q61 -10 129 -35q59 -20 107 -61q45 -39 70 -101q27 -66 26 -145q0 -100 -32.5 -178t-94.5 -133q-63 -57 -149 -84 q-92 -29 -199 -29h-485zM385 158h266q92 0 148 20q66 25 96 55q35 35 51 86q16 53 17 113q0 53 -17 103q-16 47 -53 81q-35 31 -100 52q-61 18 -154 18h-254v-528zM385 842h244q86 0 141 14q59 16 92 45q37 33 51.5 74t14.5 104q0 121 -76 172.5t-244 51.5h-223v-461z" />
<glyph unicode="C" horiz-adv-x="1234" d="M125 733q0 164 43 303.5t129 237.5q88 100 209 153q125 55 287 56q104 0 206 -23q98 -20 177 -63l-78 -156q-82 39 -137 55q-78 23 -168 23q-106 0 -195 -41q-86 -40 -147 -117q-59 -74 -94 -184.5t-35 -245.5q0 -139 30 -250q31 -113 88 -184q59 -76 148 -115 q86 -39 205 -39q98 0 170 17q66 14 157 41v-162q-35 -14 -78 -27q-41 -12 -81 -18q-57 -8 -91 -10q-66 -4 -108 -4q-164 0 -285 55t-198 151q-76 92 -115 240q-39 145 -39 307z" />
<glyph unicode="D" horiz-adv-x="1400" d="M199 0v1462h407q152 0 277 -47q127 -47 211 -135q90 -94 135 -225q47 -137 47 -310q0 -193 -47 -325q-51 -143 -139 -232q-98 -98 -224 -141q-135 -47 -301 -47h-366zM385 160h162q264 0 397 145q135 147 135 434q0 147 -32 252q-35 113 -97 176q-68 70 -155 103 q-90 33 -209 33h-201v-1143z" />
<glyph unicode="E" horiz-adv-x="1079" d="M199 0v1462h759v-164h-573v-452h535v-162h-535v-520h573v-164h-759z" />
<glyph unicode="F" horiz-adv-x="1005" d="M199 0v1462h759v-164h-573v-516h535v-164h-535v-618h-186z" />
<glyph unicode="G" horiz-adv-x="1411" d="M125 733q0 170 47 311q45 135 139 236q92 98 224 150q135 53 305 53q106 0 213 -23q104 -23 190 -63l-72 -162q-35 18 -77 33q-29 10 -86 26q-43 12 -90 19q-46 6 -93 6q-119 0 -217 -41q-92 -39 -157 -117q-61 -74 -97 -184q-33 -104 -32 -246q0 -127 28 -237 q31 -117 86 -187q63 -80 156 -121q96 -43 229 -43q55 0 80 2q37 3 68 7q25 2 59 10q27 6 53 10v436h-299v164h484v-717q-37 -12 -111 -32q-37 -10 -115 -23q-39 -6 -125 -14q-63 -6 -139 -6q-156 0 -278 53q-121 53 -203 149q-84 100 -127 238t-43 313z" />
<glyph unicode="H" horiz-adv-x="1435" d="M199 0v1462h186v-616h666v616h186v-1462h-186v682h-666v-682h-186z" />
<glyph unicode="I" horiz-adv-x="692" d="M82 0v102l172 41v1176l-172 41v102h530v-102l-172 -41v-1176l172 -41v-102h-530z" />
<glyph unicode="J" horiz-adv-x="552" d="M-184 -205q25 -6 73 -14q41 -6 84 -6q33 0 74 10q35 8 68 35q35 27 51 67q18 43 18 113v1462h187v-1442q0 -111 -29 -182q-33 -80 -82 -127q-55 -51 -127 -76q-74 -25 -162 -24q-53 0 -90 6q-39 6 -65 18v160z" />
<glyph unicode="K" horiz-adv-x="1185" d="M199 0v1462h186v-731l121 168l452 563h209l-520 -637l539 -825h-211l-451 698l-139 -114v-584h-186z" />
<glyph unicode="L" horiz-adv-x="1005" d="M199 0v1462h186v-1296h573v-166h-759z" />
<glyph unicode="M" horiz-adv-x="1781" d="M199 0v1462h276l412 -1192h6l414 1192h276v-1462h-186v887q0 74 2 119l6 129l6 143h-8l-447 -1278h-153l-443 1280h-8q8 -98 10 -147q6 -109 7 -132q2 -47 2 -127v-874h-172z" />
<glyph unicode="N" horiz-adv-x="1492" d="M199 0v1462h213l716 -1204h7l-7 150q0 10 -1 31.5t-1 33.5l-4 68q0 12 -1 32.5t-1 30.5v58v800h174v-1462h-215l-719 1210h-8q8 -102 10 -153l7 -135q2 -47 2 -129v-793h-172z" />
<glyph unicode="O" horiz-adv-x="1519" d="M125 735q0 164 39 309q37 137 117 236q82 100 198 152q123 53 283 53q154 0 272.5 -53.5t198.5 -151.5q78 -96 119 -237.5t41 -309.5q0 -166 -41 -307q-41 -145 -119 -240q-78 -96 -199 -151t-274 -55q-163 0 -283 55q-121 55 -198 151q-76 92 -115 240q-39 145 -39 309z M322 733q0 -127 26 -246q23 -102 80 -186q52 -77 135 -117q86 -41 196.5 -41t196.5 41q83 40 136 117q57 84 79 186q25 111 25 246q0 139 -25 248q-25 104 -77 184q-49 74 -135.5 115t-197 41t-196.5 -41q-84 -41 -137 -115q-55 -77 -80 -184q-26 -117 -26 -248z" />
<glyph unicode="P" horiz-adv-x="1179" d="M199 0v1462h362q129 0 232 -28q92 -27 159 -84q61 -53 92 -133t31 -183q0 -90 -28.5 -176t-90.5 -147q-63 -63 -165.5 -102.5t-255.5 -39.5h-150v-569h-186zM385 727h129q86 0 162 16q70 14 115 52q49 39 69 92q23 57 23 137q0 143 -82 211q-84 68 -256 68h-160v-576z " />
<glyph unicode="Q" horiz-adv-x="1517" d="M125 735q0 164 39 309q37 137 117 236q82 100 198 152q123 53 283 53q154 0 272.5 -53.5t198.5 -151.5q78 -96 119 -237.5t41 -309.5q0 -131 -25 -244q-25 -115 -72 -204.5t-118 -155.5q-76 -70 -164 -104q41 -92 112 -166q63 -66 158 -131l-121 -142q-104 74 -190 172 q-84 94 -137 226q-12 -2 -37 -2q-8 0 -20.5 -1t-18.5 -1q-163 0 -283 55q-121 55 -198 151q-76 92 -115 240q-39 145 -39 309zM322 733q0 -127 26 -246q23 -102 80 -186q52 -77 135 -117q86 -41 196.5 -41t196.5 41q83 40 136 117q57 84 79 186q25 111 25 246q0 139 -25 248 q-25 104 -77 184q-49 74 -135.5 115t-197 41t-196.5 -41q-84 -41 -137 -115q-55 -77 -80 -184q-26 -117 -26 -248z" />
<glyph unicode="R" horiz-adv-x="1206" d="M199 0v1462h356q270 0 393 -102q127 -104 127 -313q0 -88 -24 -152q-25 -61 -66 -110.5t-92 -77.5q-49 -29 -107 -52l398 -655h-219l-351 604h-229v-604h-186zM385 762h164q89 0 153 18q63 18 103 51q41 35 59 87q18 53 19 120q0 74 -21 121q-25 55 -61 82 q-47 33 -105 47q-59 14 -151 15h-160v-541z" />
<glyph unicode="S" horiz-adv-x="1062" d="M104 49v178q51 -23 78 -32q39 -14 90 -27q49 -12 101 -18q70 -8 100 -9q162 0 236 60q78 61 77 172q0 57 -14 94q-16 41 -51 74q-39 37 -98 65q-61 31 -154 68q-92 35 -154 76q-70 45 -108 94q-41 49 -64 119q-20 61 -20 149q0 86 32.5 157.5t90.5 116.5q61 49 137 72 q80 25 178 25q113 0 213 -23q88 -20 170 -57l-67 -156q-76 33 -148 51q-80 20 -170 21q-119 0 -188 -57q-68 -55 -68 -152q0 -57 14 -98q14 -39 52 -76q27 -27 92 -62q49 -27 141 -63.5t160 -73.5q70 -39 115 -86q47 -49 69 -110q23 -59 23 -150q0 -94 -35 -174 q-34 -77 -98 -129q-66 -53 -156 -80q-96 -29 -207 -28q-113 0 -207 18q-103 20 -162 51z" />
<glyph unicode="T" horiz-adv-x="1062" d="M20 1298v164h1022v-164h-417v-1298h-187v1298h-418z" />
<glyph unicode="U" horiz-adv-x="1429" d="M184 520v942h187v-952q0 -175 86 -270q86 -96 262 -97q92 0 153 27q66 29 105 76q40 49 61 116q20 63 21 150v952h186v-948q0 -117 -33 -213q-35 -102 -100 -170q-72 -76 -166 -113q-104 -41 -237 -40q-129 0 -226 38q-98 39 -164 109q-68 70 -102 172q-33 96 -33 221z " />
<glyph unicode="V" horiz-adv-x="1161" d="M0 1462h197l295 -927l51 -175l37 -159l38 159q12 49 54 181l293 921h198l-489 -1462h-187z" />
<glyph unicode="W" horiz-adv-x="1808" d="M20 1462h197l223 -889l23 -96l18 -98q6 -33 15 -94q6 -51 12 -84q6 37 12 86q2 18 9.5 54t9.5 48q12 74 20 111q12 55 25 104l225 858h197l229 -856l29 -112l14 -49t14 -60q6 -23 21 -98q12 -61 16 -86q2 18 10 84q8 61 15 94q4 18 9 51t7 49q10 63 21 101l200 882h199 l-367 -1462h-188l-254 938q-14 47 -27 104l-12 51.5l-12 51.5l-23 106q-4 -23 -10 -49t-12 -57l-23 -103q-16 -74 -26 -110l-242 -932h-188z" />
<glyph unicode="X" horiz-adv-x="1118" d="M0 0l453 764l-422 698h198l332 -559l334 559h190l-421 -692l456 -770h-211l-354 635l-367 -635h-188z" />
<glyph unicode="Y" horiz-adv-x="1077" d="M0 1462h203l336 -739l340 739h200l-446 -893v-569h-187v559z" />
<glyph unicode="Z" horiz-adv-x="1103" d="M82 0v145l711 1151h-691v166h899v-145l-710 -1151h731v-166h-940z" />
<glyph unicode="[" horiz-adv-x="620" d="M164 -324v1786h405v-149h-223v-1487h223v-150h-405z" />
<glyph unicode="\" horiz-adv-x="763" d="M23 1462h178l544 -1462h-178z" />
<glyph unicode="]" horiz-adv-x="620" d="M51 -174h223v1487h-223v149h406v-1786h-406v150z" />
<glyph unicode="^" horiz-adv-x="1089" d="M41 549l459 924h102l447 -924h-160l-338 735l-348 -735h-162z" />
<glyph unicode="_" horiz-adv-x="841" d="M-4 -184h850v-140h-850v140z" />
<glyph unicode="`" horiz-adv-x="1181" d="M393 1548v21h219q15 -34 37 -74l45 -82q20 -37 47 -78q6 -8 15.5 -22.5l16.5 -25.5t13 -19v-27h-120q-47 37 -76 70l-80 86q-29 31 -70 84q-35 44 -47 67z" />
<glyph unicode="a" horiz-adv-x="1085" d="M94 307q0 164 115 252q115 86 352 96l184 7v69q0 70 -14 113t-43 71q-27 27 -67 39t-93 13q-86 0 -155 -25q-82 -29 -137 -57l-64 137q74 40 166 68q96 29 190 28q106 0 177 -20q72 -20 122 -66q45 -39 72 -112q25 -68 25 -168v-752h-131l-37 152h-8q-35 -45 -66 -78 t-72 -54q-41 -23 -88 -30q-55 -10 -110 -10q-61 0 -127 20q-55 18 -101 59q-39 37 -65 103q-25 61 -25 145zM283 305q0 -92 49 -135t127 -43q61 0 112 18q55 20 91 58q39 41 59 98q23 61 22 137v99l-143 -7q-80 -2 -151 -20q-55 -14 -97 -45q-39 -29 -53 -68 q-16 -43 -16 -92z" />
<glyph unicode="b" horiz-adv-x="1198" d="M174 0v1556h182v-376q0 -10 -1 -35t-1 -39q0 -51 -2 -74l-4 -78h8q18 29 52 66q27 29 67 51q47 25 86 35q49 12 109 12q95 0 172 -37q76 -37 131 -106q51 -66 84 -178q31 -109 30 -246q0 -141 -30 -248q-33 -113 -84 -178q-57 -74 -131 -109q-77 -37 -172 -36 q-49 0 -107 14q-47 12 -86 33q-31 16 -69 51q-23 20 -52 61h-12l-37 -139h-133zM356 551q0 -100 13 -180q12 -76 47 -131q37 -57 86 -82q53 -27 135 -27q133 0 199 109q63 106 63 313q0 209 -63.5 311.5t-200.5 102.5q-82 0 -133 -24.5t-86 -78t-47.5 -131.5t-12.5 -182z " />
<glyph unicode="c" horiz-adv-x="946" d="M113 542.5q0 149.5 39 266.5q37 111 104 178q72 72 156 100q89 31 190 31q86 0 152 -16q78 -20 125 -43l-54 -154q-14 6 -51 19q-53 18 -57 18t-26.5 5t-33.5 7q-37 4 -55 4q-160 0 -229 -100q-72 -102 -72 -313q0 -213 71.5 -309.5t221.5 -96.5q82 0 147 19 q61 18 119 43v-162q-57 -29 -115 -43q-66 -16 -151 -16q-94 0 -188 32q-89 31 -154 99q-66 70 -102.5 176t-36.5 255.5z" />
<glyph unicode="d" horiz-adv-x="1198" d="M113 547q0 141 30 248q33 113 84 178q55 72 133 108.5t170 36.5q57 0 107 -12q33 -8 86 -37q37 -20 70 -49q23 -20 51 -62h12l-4 35t-2 31l-4 53q-2 18 -2 43v436h182v-1556h-147l-27 147h-8q-25 -39 -51 -65q-37 -37 -68 -53q-47 -25 -86 -35q-57 -14 -109 -14 q-92 0 -170 36q-80 39 -133 107q-51 66 -84 178q-30 109 -30 246zM301 545q0 -211 64 -312q66 -102 200 -102q74 0 129 23q47 18 84 69q33 45 49 119q12 59 17 164v41q0 100 -13 180q-12 76 -47 131q-37 57 -86 82q-53 27 -135 27q-133 0 -198 -109q-64 -106 -64 -313z" />
<glyph unicode="e" horiz-adv-x="1095" d="M113 541q0 139 32 243q35 109 95 181q63 76 143 114.5t184 38.5q102 0 178 -35q78 -37 134 -100q51 -59 84 -156q31 -90 30 -200v-113h-692q6 -195 82 -285t227 -90q66 0 95 4q57 8 83 15q43 10 78 24q70 29 78 33v-162l-78 -33q-27 -10 -80 -22t-84 -14q-57 -4 -94 -4 q-109 0 -201 36.5t-157 108.5q-61 68 -100 176q-37 105 -37 240zM305 662h492q0 70 -13 124q-10 51 -43 97q-27 39 -71.5 61.5t-106.5 22.5q-113 0 -180 -78q-66 -73 -78 -227z" />
<glyph unicode="f" horiz-adv-x="673" d="M29 961v75l194 68v96q0 104 23 178q20 68 65 113q41 41 105 59q55 16 139 17q68 0 109 -11q53 -14 88 -26l-47 -141q-25 10 -68 20q-33 8 -76 8q-39 0 -69.5 -10t-47.5 -33q-20 -27 -28 -65q-10 -47 -10 -107v-104h245v-137h-245v-961h-183v961h-194z" />
<glyph unicode="g" horiz-adv-x="1060" d="M37 -186q0 55 20 106q18 45 52 78q29 29 77 53q37 18 90 33q-41 16 -69 59q-27 39 -27 95q0 61 33 106q29 41 100 86q-39 16 -77 49q-35 29 -62 72q-25 41 -37 88q-14 57 -14 100q0 88 24 158q25 72 74 121t123 74q80 27 170 26q35 0 76 -6q45 -6 67 -14h363v-113 l-197 -27q29 -35 47.5 -90t18.5 -123q0 -82 -23 -141q-25 -63 -71 -110q-46 -46 -117 -74q-68 -27 -164 -27h-45q-14 0 -35 4q-12 -6 -33 -22q-23 -16 -30 -29q-14 -18 -22.5 -36.5t-8.5 -43.5q0 -28 12 -43q14 -18 33 -26q23 -10 47 -13q18 -2 60 -2h176q94 0 157 -24 q66 -25 105 -64t57.5 -94t18.5 -115q0 -90 -33 -157q-35 -72 -99 -119q-72 -51 -169 -76q-102 -25 -242 -25q-111 0 -187 21q-82 23 -133 61.5t-80 96.5q-26 53 -26 127zM209 -180q0 -39 12 -70q12 -33 43 -53q39 -27 78 -37q57 -14 121 -14q188 0 278 57q92 58 93 166 q0 49 -13 76q-14 31 -39 45q-31 16 -71 22q-46 6 -111 6h-176q-41 0 -74 -8q-41 -10 -69 -30q-31 -23 -52 -60q-20 -39 -20 -100zM301 745.5q0 -118.5 53 -172.5q55 -55 153.5 -55t151.5 55q51 53 52 175q0 125 -51.5 182t-153.5 57q-100 0 -152 -59q-53 -64 -53 -182.5z " />
<glyph unicode="h" horiz-adv-x="1204" d="M174 0v1556h182v-462l-8 -144h10q23 41 60 74q33 31 76 53q40 22 86 31q51 10 94 10q184 0 276 -96t92 -305v-717h-182v707q0 129 -53 194.5t-164 65.5q-76 0 -135 -27q-57 -27 -90 -76q-31 -47 -47 -125q-14 -70 -15 -170v-569h-182z" />
<glyph unicode="i" horiz-adv-x="528" d="M160 1395q0 59 30 88q29 27 76 26q23 0 41 -6q20 -8 35 -20q12 -12 23 -37q8 -18 8 -51q0 -58 -31 -86q-33 -29 -76 -29t-76 29q-30 28 -30 86zM174 0v1098h182v-1098h-182z" />
<glyph unicode="j" horiz-adv-x="528" d="M-68 -319q16 -6 54 -15q28 -6 61 -6q20 0 49 8q20 6 41 27q18 18 27 51q10 37 10 84v1268h182v-1256q0 -84 -16 -139q-20 -66 -53 -104q-37 -43 -92 -68q-51 -23 -129 -23q-49 0 -80 7q-33 6 -54 18v148zM160 1395q0 59 30 88q29 27 76 26q23 0 41 -6q20 -8 35 -20 q12 -12 23 -37q8 -18 8 -51q0 -58 -31 -86q-33 -29 -76 -29t-76 29q-30 28 -30 86z" />
<glyph unicode="k" horiz-adv-x="1015" d="M174 0v1556h180v-714l-16 -275h4l135 170l293 361h211l-401 -475l428 -623h-209l-336 504l-109 -82v-422h-180z" />
<glyph unicode="l" horiz-adv-x="528" d="M174 0v1556h182v-1556h-182z" />
<glyph unicode="m" horiz-adv-x="1832" d="M174 0v1098h148l26 -148h10q27 45 58 74q39 37 71 53q39 20 84 31q47 10 91 10q117 0 200 -45q80 -43 117 -137h8q27 49 62 82q35 31 81 55q49 25 90.5 35t98.5 10q174 0 264 -96q88 -94 88 -305v-717h-182v707q0 129 -49 194.5t-156 65.5q-78 0 -125 -22.5t-82 -70 t-49 -112.5q-14 -63 -14 -156v-606h-183v707q0 129 -49 194.5t-155 65.5q-72 0 -129 -27q-55 -27 -84 -76q-35 -57 -45 -125q-12 -74 -13 -170v-569h-182z" />
<glyph unicode="n" horiz-adv-x="1204" d="M174 0v1098h148l26 -148h10q23 41 60 74q33 31 76 53q40 22 86 31q51 10 94 10q184 0 276 -96t92 -305v-717h-182v707q0 129 -53 194.5t-164 65.5q-76 0 -135 -27q-57 -27 -90 -76q-31 -47 -47 -125q-14 -70 -15 -170v-569h-182z" />
<glyph unicode="o" horiz-adv-x="1181" d="M113 551q0 133 34 242q35 106 95 178q61 74 151 110.5t201 36.5q104 0 190 -37q84 -37 150 -110q63 -72 100 -178q35 -98 35 -242q0 -139 -33 -244q-31 -100 -96 -178q-61 -74 -152 -111q-94 -39 -200 -38q-100 0 -191 38q-84 37 -149 111q-61 70 -98 178 q-37 107 -37 244zM301 551q0 -211 67.5 -315.5t223.5 -104.5q154 0 221.5 104.5t67.5 315.5q0 209 -68 313q-66 102 -223 103q-156 0 -221 -103q-68 -104 -68 -313z" />
<glyph unicode="p" horiz-adv-x="1198" d="M174 -492v1590h148l26 -148h8q18 29 52 66q29 33 67 53q47 25 86 35q57 14 109 14q95 0 172 -37q76 -37 131 -106q51 -66 84 -178q31 -109 30 -246q0 -141 -30 -248q-33 -113 -84 -178q-57 -74 -131 -109q-77 -37 -172 -36q-49 0 -107 14q-47 12 -86 33q-31 16 -69 51 q-23 20 -52 61h-12l4 -34.5t2 -30.5l4 -54q2 -18 2 -43v-469h-182zM356 551q0 -100 13 -180q12 -76 47 -131q37 -57 86 -82q53 -27 135 -27q133 0 199 109q63 106 63 313q0 209 -63.5 311.5t-200.5 102.5q-74 0 -129 -23q-47 -18 -84 -70q-34 -46 -49 -116q-12 -59 -17 -166 v-41z" />
<glyph unicode="q" horiz-adv-x="1198" d="M113 547q0 141 30 248q33 113 84 178q55 72 133 108.5t170 36.5q49 0 107 -14q47 -12 86 -35q35 -20 67.5 -53t53.5 -66h8l27 148h147v-1590h-182v469q0 29 2 48q0 10 1 20t2 17.5t1 19.5q0 16 2 31.5t4 33.5h-12q-25 -39 -51 -65q-37 -37 -68 -53q-47 -25 -86 -35 q-57 -14 -109 -14q-92 0 -170 36q-80 39 -133 107q-51 66 -84 178q-30 109 -30 246zM301 545q0 -211 64 -312q66 -102 200 -102q74 0 129 23q47 18 84 69q33 45 49 119q12 59 17 164v41q0 100 -13 180q-12 76 -47 131q-37 57 -86 82q-53 27 -135 27q-133 0 -198 -109 q-64 -106 -64 -313z" />
<glyph unicode="r" horiz-adv-x="815" d="M174 0v1098h148l22 -201h8q23 41 54 84q27 39 63.5 69.5t79.5 49t100 18.5q41 0 66 -2q43 -4 61 -8l-24 -168q-20 4 -58 8q-41 4 -55 4q-57 0 -115 -26q-53 -25 -90 -72q-35 -43 -57 -115q-20 -63 -21 -147v-592h-182z" />
<glyph unicode="s" horiz-adv-x="923" d="M90 49v166q20 -10 70 -31q45 -18 80 -28q43 -12 86 -19q57 -8 88 -8q72 0 110 10q47 12 74 33q31 25 41 49q14 37 14 65.5t-10 55.5t-37 51q-31 27 -71 49q-37 20 -119 56q-71 31 -129.5 61.5t-98.5 67.5q-41 39 -61 84q-20 47 -21 116q0 72 27 125q25 51 78 90t121 58 q70 18 155 18q100 0 177 -20q86 -23 153 -56l-63 -147q-80 35 -133 51q-63 20 -140 21q-104 0 -151 -33q-49 -33 -49 -96q0 -37 12 -62q16 -31 39 -49q18 -14 76 -45q53 -29 116 -53q102 -45 129 -60q57 -33 97 -67q40 -37 61 -86q20 -47 20 -115q0 -76 -28 -139 q-27 -59 -84 -101q-55 -41 -131 -61q-74 -20 -174 -20q-111 0 -187 18q-84 20 -137 51z" />
<glyph unicode="t" horiz-adv-x="692" d="M33 961v81l155 78l78 230h105v-252h276v-137h-276v-637q0 -92 32 -146q31 -49 103 -49q27 0 41 2q6 0 20.5 2t22.5 2l20.5 5t18.5 3q16 2 26 7v-138q-14 -6 -32 -12q-29 -8 -45 -10q-8 -2 -24.5 -4t-25.5 -4q-16 -2 -51 -2q-59 0 -115 16q-52 15 -92 55q-39 39 -59 105 q-23 72 -23 168v637h-155z" />
<glyph unicode="u" horiz-adv-x="1204" d="M164 381v717h182v-707q0 -129 53.5 -194.5t163.5 -65.5q76 0 135 27q55 25 90 75q31 43 48 125q14 70 14 170v570h182v-1098h-147l-27 147h-10q-27 -45 -60 -75q-29 -25 -75 -52q-40 -22 -86 -30q-51 -10 -95 -10q-88 0 -159 22q-68 23 -117 74q-41 45 -68 125 q-24 78 -24 180z" />
<glyph unicode="v" horiz-adv-x="980" d="M0 1098h188l199 -611q6 -18 27 -86l28 -104q6 -25 14.5 -51.5t14.5 -50.5q14 -57 16 -74h7l18 74q16 66 27 102l28 104q20 68 27 86l199 611h188l-375 -1098h-231z" />
<glyph unicode="w" horiz-adv-x="1527" d="M20 1098h191l131 -584l9 -44l11 -54q12 -63 19 -103q14 -76 16 -98q2 -12 5.5 -37.5t5.5 -36.5h6q2 14 6 31.5t8 38.5q9 43 18 92q6 27 12.5 50.5t10.5 45.5q4 14 11 41t9 39l179 619h196l172 -619q8 -35 21 -80q10 -37 22 -94q4 -14 21 -92q8 -41 12 -72h6q2 8 5 33 t5 37q10 68 15 94q2 16 9 51l11 56q12 68 21 102l137 584h186l-284 -1098h-215l-168 616q-2 12 -11 41q-4 14 -12 48l-12 51l-12 51l-29 119h-6l-27 -121l-12 -53.5t-12 -49.5q-18 -76 -23 -90l-172 -612h-211z" />
<glyph unicode="x" horiz-adv-x="1024" d="M35 0l373 563l-353 535h207l250 -410l250 410h207l-355 -535l373 -563h-207l-268 436l-270 -436h-207z" />
<glyph unicode="y" horiz-adv-x="999" d="M10 1098h189l215 -613l28 -84q8 -20 27 -88q14 -49 23 -86q8 -39 12 -75h6l6 25l10 42q10 43 25 92q16 66 27 97q8 27 15 46t11 33l199 611h188l-434 -1241q-29 -82 -61 -146q-35 -68 -74 -108q-41 -43 -103 -70q-57 -25 -137 -25q-66 0 -90 5q-41 6 -65 12v145 q16 -4 53 -8q41 -4 67 -4q49 0 82 12q41 14 62 33q27 25 45 53q12 20 33 74l57 160z" />
<glyph unicode="z" horiz-adv-x="901" d="M82 0v125l536 836h-503v137h688v-146l-524 -815h542v-137h-739z" />
<glyph unicode="{" horiz-adv-x="724" d="M61 492v155q126 0 191 43q66 43 65 146v333q0 80 27 134q27 51 74 90q43 35 114 51q78 18 142 18v-149q-27 0 -72 -8q-37 -6 -55 -23q-23 -20 -35 -49q-12 -31 -12 -78v-332q0 -102 -60 -166q-57 -59 -174 -82v-12q117 -23 174 -82q59 -63 60 -166v-331q0 -47 12 -78 q12 -29 35 -49q18 -16 55 -23q45 -8 72 -8v-150q-72 0 -142 17q-68 16 -114 53q-47 39 -74 90q-27 53 -27 133v334q0 102 -65 146q-65 43 -191 43z" />
<glyph unicode="|" d="M489 -492v2048h150v-2048h-150z" />
<glyph unicode="}" horiz-adv-x="724" d="M51 -174q27 0 72 8q37 6 55 23q23 20 35 49q12 31 12 78v331q0 102 60 166q57 59 174 82v12q-117 23 -174 82q-59 63 -60 166v332q0 47 -12 78q-12 29 -35 49q-18 16 -55 23q-45 8 -72 8v149q63 0 142 -18q72 -16 114 -51q47 -39 74 -90q27 -53 27 -134v-333 q0 -49 16 -88q14 -35 49 -58q39 -25 82 -33q55 -10 109 -10v-155q-126 0 -191 -43q-66 -43 -65 -146v-334q0 -80 -27 -133q-27 -51 -74 -90q-47 -37 -114 -53q-70 -16 -142 -17v150z" />
<glyph unicode="~" d="M102 586v162q102 109 248 108q37 0 53.5 -2t53.5 -10q28 -6 61 -19q43 -16 80 -32.5t64 -26.5q29 -12 51 -18q16 -4 45 -9q14 -2 41 -2q23 0 57 11q31 9 62 24q20 10 57 39q18 14 51 47v-162q-98 -109 -248 -108q-37 0 -53 2t-53 10q-28 6 -62 18q-43 16 -80 33l-65 27 q-28 12 -49 18q-14 4 -43 9q-14 2 -43 2q-31 0 -58 -9q-14 -4 -59 -26q-20 -10 -57 -39q-29 -22 -54 -47z" />
<glyph unicode="&#xa1;" horiz-adv-x="550" d="M147 979q0 37 10.5 63.5t26.5 42.5q12 12 41 25q18 8 49 8t50 -8q29 -12 41 -25q16 -16 26 -42.5t10 -63.5q0 -33 -10 -64q-10 -29 -26 -43q-23 -20 -41 -24q-29 -8 -49.5 -8t-49.5 8q-18 4 -41 24q-16 14 -26 43q-11 31 -11 64zM162 -373l51 1049h121l51 -1049h-223z " />
<glyph unicode="&#xa2;" d="M188 743q0 143 27 242q31 111 74 170q49 68 119 105q76 39 155 51v172h137v-164q72 -4 140 -19q53 -12 114 -40l-53 -154q-37 16 -51 20q-37 12 -57 17q-4 0 -26 5t-34 7q-41 4 -55 4q-160 0 -229 -100q-72 -102 -72 -313t72 -308q74 -98 221 -98q84 0 147 18 q61 18 119 43v-161q-49 -28 -105 -43q-47 -12 -131 -17v-200h-137v206q-88 12 -155 50q-72 39 -119 104q-53 72 -76 166q-25 98 -25 237z" />
<glyph unicode="&#xa3;" d="M68 0v154q51 14 82 32q35 20 61 54q29 35 43 82q14 45 14 116v213h-198v137h198v324q0 92 29 156q33 74 82 116q53 47 127 72t160 25q102 0 192 -23q84 -20 154 -57l-66 -144q-53 27 -127 49.5t-145 22.5q-41 0 -88 -14q-41 -12 -72 -43q-33 -33 -47 -76 q-16 -49 -16 -113v-295h376v-137h-376v-211q0 -72 -11 -106q-12 -45 -32 -78q-18 -29 -46 -53q-27 -23 -51 -37h748v-166h-991z" />
<glyph unicode="&#xa4;" d="M123 1065l98 98l127 -129q47 31 101 49q55 18 114.5 18.5t112.5 -18.5q57 -20 100 -49l129 129l99 -96l-130 -129q31 -47 50 -100q18 -55 18 -114.5t-18 -115.5q-20 -61 -50 -100l127 -127l-96 -96l-129 127q-43 -29 -100 -50q-47 -16 -113 -16q-59 0 -114 19 q-53 18 -101 49l-127 -127l-96 96l127 127q-33 49 -49.5 98t-16.5 114.5t17 113.5q20 57 49 100zM324 723q0 -51 18 -94t51 -76t76 -51.5t94 -18.5q53 0 96 18.5t76 51.5q37 37 53 76q18 43 19 94q0 53 -18.5 96t-53.5 78q-33 33 -76 51.5t-96 18.5q-51 0 -94 -18.5 t-76 -51.5q-31 -31 -51 -78q-18 -43 -18 -96z" />
<glyph unicode="&#xa5;" d="M29 1462h192l342 -739l346 739h191l-385 -768h239v-137h-301v-158h301v-137h-301v-262h-178v262h-301v137h301v158h-301v137h234z" />
<glyph unicode="&#xa6;" d="M489 289h150v-781h-150v781zM489 776v780h150v-780h-150z" />
<glyph unicode="&#xa7;" horiz-adv-x="993" d="M121 55v158q20 -10 69 -31q29 -12 80 -26q43 -12 86 -18.5t88 -6.5q68 0 115 12q46 12 74 31q25 16 39 45q12 25 12 53q0 33 -8 52q-10 23 -35 45q-27 23 -72 47q-46 25 -123 55q-70 29 -131 61.5t-98 69.5q-35 35 -59 90q-20 47 -21 117q0 49 13 92q10 35 36 74 q25 35 51.5 55.5t59.5 36.5q-76 37 -117 94q-43 58 -43 142q0 63 26.5 110t78 82t120.5 53q72 18 156 19q100 0 176 -21q84 -23 150 -51l-56 -139q-70 31 -135 47q-78 20 -141 20q-98 0 -149.5 -30.5t-51.5 -85.5q0 -28 13 -50q14 -27 38 -45q14 -12 78 -45q53 -29 117 -53 q80 -31 129 -61q57 -35 94 -72q43 -43 62 -86q20 -47 20 -111q0 -51 -12 -94q-14 -47 -33 -78q-18 -29 -47 -57q-25 -27 -53 -41q72 -39 106 -92q39 -57 39 -133q0 -72 -31 -127q-33 -59 -81 -94q-47 -33 -132 -58q-74 -20 -174 -20q-104 0 -186 16q-71 14 -137 49zM291 831 q0 -41 14 -69q16 -35 45 -60q33 -31 82 -57q31 -16 123 -57l35 -15q16 8 41 31q20 16 37 41q18 25 26 51q10 31 11 62q0 39 -13 69q-12 33 -45 62q-37 35 -88 59q-55 29 -135 58q-33 -12 -49.5 -22.5t-40.5 -39.5q-16 -18 -31 -51q-12 -28 -12 -62z" />
<glyph unicode="&#xa8;" horiz-adv-x="1181" d="M307 1394.5q0 53.5 29 78.5q28 25 67.5 24.5t67.5 -24.5q29 -25 29 -78.5t-29 -77.5q-28 -25 -67.5 -25t-67.5 25q-29 24 -29 77.5zM682 1394.5q0 53.5 29 78.5q28 25 67 24q18 0 37 -6t31 -18q10 -10 20 -31q8 -16 8 -47q0 -53 -28 -78q-27 -25 -68 -25q-40 0 -67 25 q-29 24 -29 77.5z" />
<glyph unicode="&#xa9;" horiz-adv-x="1703" d="M100 731q0 109 27 201q29 98 76 178q53 90 116.5 153.5t153.5 116.5q80 47 178 76q92 27 201 27t201 -27q98 -29 178 -76q90 -53 153.5 -116.5t116.5 -153.5q47 -80 76 -178q27 -92 27 -200.5t-27 -201.5q-29 -98 -76 -178q-53 -90 -116.5 -153.5t-153.5 -116.5 q-80 -47 -178 -76q-92 -27 -201 -26.5t-201 26.5q-98 29 -178 76q-90 53 -153.5 116.5t-116.5 153.5q-47 80 -76 178q-27 92 -27 201zM209 731q0 -129 51 -250q49 -117 137 -205t205 -137q121 -51 250 -51t250 51q117 49 205 137.5t137 204.5q51 121 51 250t-51 250 q-49 117 -137 205t-205 137q-121 51 -250 51t-250 -51q-117 -49 -205 -137t-137 -205q-51 -121 -51 -250zM479 733q0 104 27 185q27 82 80 143q51 59 129 94q74 33 176 33q59 0 129 -17q59 -14 125 -45l-62 -127q-47 23 -100 39q-45 14 -92 15q-59 0 -108.5 -22.5 t-77.5 -63.5q-37 -51 -50 -101q-16 -66 -16 -135q0 -80 14 -137q16 -66 45 -102q31 -39 78 -62q49 -23 115 -22q12 0 49 4q23 2 57 10q37 8 56 14q8 2 26.5 7.5t26.5 9.5v-131q-16 -8 -49 -21q-18 -8 -51 -14q-39 -8 -56 -11q-41 -4 -65 -4q-104 0 -178 33q-80 35 -127 94 q-53 68 -76 146q-25 86 -25 188z" />
<glyph unicode="&#xaa;" horiz-adv-x="677" d="M68 989q0 100 71 156q68 53 213 59l99 4v31q0 72 -31 100q-33 29 -86 29q-49 0 -92 -14.5t-88 -36.5l-48 100q57 27 109 43q59 18 119 19q125 0 184.5 -53.5t59.5 -174.5v-454h-91l-28 82q-12 -14 -37 -39q-18 -18 -43 -30.5t-51 -18.5q-29 -6 -64 -7q-43 0 -80 13 q-33 10 -61 39q-27 27 -41 63.5t-14 89.5zM199 987q0 -52 24 -74q27 -23 68 -22q33 0 63 10q27 8 52 33q20 20 32.5 55t12.5 76v49l-74 -4q-49 -2 -84 -12q-34 -9 -55 -25q-20 -14 -29 -35q-10 -24 -10 -51z" />
<glyph unicode="&#xab;" horiz-adv-x="995" d="M82 526v27l309 414l117 -78l-238 -348l238 -348l-117 -78zM489 526v27l310 414l116 -78l-237 -348l237 -348l-116 -78z" />
<glyph unicode="&#xac;" d="M102 647v150h924v-535h-149v385h-775z" />
<glyph unicode="&#xad;" horiz-adv-x="657" d="M82 465v168h496v-168h-496z" />
<glyph unicode="&#xae;" horiz-adv-x="1703" d="M100 731q0 109 27 201q29 98 76 178q53 90 116.5 153.5t153.5 116.5q80 47 178 76q92 27 201 27t201 -27q98 -29 178 -76q90 -53 153.5 -116.5t116.5 -153.5q47 -80 76 -178q27 -92 27 -200.5t-27 -201.5q-29 -98 -76 -178q-53 -90 -116.5 -153.5t-153.5 -116.5 q-80 -47 -178 -76q-92 -27 -201 -26.5t-201 26.5q-98 29 -178 76q-90 53 -153.5 116.5t-116.5 153.5q-47 80 -76 178q-27 92 -27 201zM209 731q0 -129 51 -250q49 -117 137 -205t205 -137q121 -51 250 -51t250 51q117 49 205 137.5t137 204.5q51 121 51 250t-51 250 q-49 117 -137 205t-205 137q-121 51 -250 51t-250 -51q-117 -49 -205 -137t-137 -205q-51 -121 -51 -250zM586 285v893h233q166 0 248 -66q78 -63 78 -199q0 -43 -15 -86q-12 -37 -34 -65q-18 -25 -52 -49q-25 -18 -59 -33l121 -197l43 -73l37 -64q16 -29 26 -45l11 -16 h-179l-206 352h-95v-352h-157zM743 768h72q90 0 131 37q39 37 39 104q0 74 -41 103q-43 31 -131 30h-70v-274z" />
<glyph unicode="&#xaf;" horiz-adv-x="1024" d="M-6 1556v140h1036v-140h-1036z" />
<glyph unicode="&#xb0;" horiz-adv-x="876" d="M123 1167q0 65 24 123q25 57 68 100.5t100 67.5q58 25 123 25t123 -25q57 -25 100.5 -67.5t67.5 -100.5q25 -58 25 -123t-25 -123q-23 -53 -67 -98q-43 -43 -101 -67q-58 -25 -123 -25t-123 25q-57 25 -100 67q-45 45 -68 98q-24 58 -24 123zM246 1167q0 -43 14 -73 q16 -37 41 -61.5t61 -41.5q31 -14 76 -14q43 0 74 14q35 16 63 41q23 18 41 62q14 31 15 73q0 41 -14.5 76t-41.5 62q-23 23 -63 41q-37 16 -74 16q-39 0 -76 -16q-43 -18 -61 -41q-29 -33 -41 -62q-14 -35 -14 -76z" />
<glyph unicode="&#xb1;" d="M102 0v150h924v-150h-924zM102 647v150h387v389h150v-389h387v-150h-387v-385h-150v385h-387z" />
<glyph unicode="&#xb2;" horiz-adv-x="677" d="M49 586v112l209 228l92 104q35 41 58 76q20 33 26 63q8 41 8 64q0 66 -32 96q-37 33 -88.5 33t-96.5 -25q-39 -20 -92 -63l-78 94q49 45 121 80q66 33 148 33q55 0 108 -17q45 -14 82 -47q35 -31 53 -78q18 -45 19 -102q0 -51 -15 -92q-18 -51 -41 -86q-25 -39 -67 -88 l-90 -101l-148 -157h396v-127h-572z" />
<glyph unicode="&#xb3;" horiz-adv-x="677" d="M31 625v133q70 -37 129 -53q66 -18 119 -19q102 0 143 41q43 43 43 115q0 74 -53 108q-51 33 -150 33h-98v113h98q92 0 133 39q43 40 43 104q0 29 -10 55q-8 25 -27 39q-20 18 -41 23q-25 6 -51 6q-61 0 -108 -21q-45 -20 -99 -57l-69 96q31 23 59.5 41.5t65.5 30.5 q43 16 71 21q49 8 82 8q74 0 121 -17q59 -20 88 -47q37 -33 53.5 -71.5t16.5 -90.5q0 -78 -41 -131t-109 -77q86 -20 131 -76t45 -131q0 -63 -20 -111q-23 -49 -61 -84q-39 -33 -105 -55q-61 -20 -149 -21q-70 0 -131 13q-60 12 -119 43z" />
<glyph unicode="&#xb4;" horiz-adv-x="1181" d="M393 1241v27l45 67l22.5 36t24.5 42q8 12 45 82q22 40 37 74h219v-21q-12 -23 -47 -67q-31 -39 -71 -84l-78 -86q-29 -33 -76 -70h-121z" />
<glyph unicode="&#xb5;" horiz-adv-x="1216" d="M174 -492v1590h182v-707q0 -129 53.5 -194.5t163.5 -65.5q78 0 138 27q51 23 88 75q31 43 47 125q14 70 14 170v570h182v-1098h-147l-27 147h-10q-47 -80 -121 -124q-70 -43 -174 -43q-70 0 -125 22q-53 23 -88 66q0 -51 2 -78q4 -45 4 -78v-84v-320h-182z" />
<glyph unicode="&#xb6;" horiz-adv-x="1339" d="M113 1042q0 150 32 246q33 94 93 158q57 61 143 86q82 25 182 24h563v-1816h-120v1657h-207v-1657h-121v819q-61 -18 -146 -18q-88 0 -172 26q-78 25 -133 84q-51 53 -84 156q-30 94 -30 235z" />
<glyph unicode="&#xb7;" horiz-adv-x="548" d="M147 723q0 35 11 65q10 29 26 43q20 16 39 23q29 8 51 8q16 0 50 -8q20 -4 41 -23q16 -14 26 -43q10 -31 10 -65q0 -37 -10 -63.5t-26 -43.5q-14 -14 -41 -24q-23 -8 -50 -8q-33 0 -51 8q-25 10 -39 24q-16 16 -26.5 43t-10.5 64z" />
<glyph unicode="&#xb8;" horiz-adv-x="419" d="M35 -375q20 -4 39 -4q8 0 22.5 -1t18.5 -1q72 0 110 21q41 23 41 71q0 23 -12 41q-10 16 -37 31q-23 12 -55 22l-68 19l90 176h121l-57 -115q45 -12 63 -20q29 -12 51 -35q20 -20 33 -49q12 -28 13 -68q0 -96 -70 -151q-68 -53 -221 -54q-31 0 -45 3q-22 3 -37 6v108z " />
<glyph unicode="&#xb9;" horiz-adv-x="677" d="M63 1274l244 188h135v-876h-145v516v55q0 10 1 29.5t1 30.5l4 59q0 10 1 26.5t1 22.5q-6 -6 -16 -18.5t-16.5 -18.5l-41.5 -37l-94 -73z" />
<glyph unicode="&#xba;" horiz-adv-x="716" d="M66 1133q0 86 20 147q20 63 59 109q41 47 93 67q57 23 122 23q59 0 115 -23q47 -20 92 -67q39 -43 62 -109q23 -68 22 -147q0 -86 -20 -148q-25 -74 -60 -111q-43 -45 -92 -67q-51 -23 -123 -23q-70 0 -116 23q-52 25 -93 67q-35 37 -59 111q-22 68 -22 148zM197 1133 q0 -113 39 -179q37 -61 122.5 -61t122.5 61.5t37 178.5q0 120 -37 178q-37 57 -123 57t-122 -57q-39 -61 -39 -178z" />
<glyph unicode="&#xbb;" horiz-adv-x="995" d="M84 193l238 348l-238 348l117 78l309 -414v-27l-309 -411zM492 193l237 348l-237 348l116 78l310 -414v-27l-310 -411z" />
<glyph unicode="&#xbc;" horiz-adv-x="1507" d="M63 1274l244 188h135v-876h-145v516v55q0 10 1 29.5t1 30.5l4 59q0 10 1 26.5t1 22.5q-6 -6 -16 -18.5t-16.5 -18.5l-41.5 -37l-94 -73zM234 0l811 1462h157l-811 -1462h-157zM776 192v111l377 579h141v-563h125v-127h-125v-192h-143v192h-375zM922 319h229v195 q0 14 1 45t1 47q0 33 4 98q-2 -4 -6 -14t-8 -16q-4 -8 -8 -13.5t-7.5 -11.5t-7.5 -14l-22 -41l-21 -35z" />
<glyph unicode="&#xbd;" horiz-adv-x="1507" d="M45 1274l244 188h135v-876h-145v516v55q0 10 1 29.5t1 30.5l4 59q0 10 1 26.5t1 22.5q-6 -6 -16 -18.5t-16.5 -18.5l-41.5 -37l-94 -73zM213 0l811 1462h157l-811 -1462h-157zM868 0v112l209 228l92 104q35 41 58 76q20 33 26 63q8 41 8 64q0 66 -32 96q-37 33 -88.5 33 t-96.5 -25q-39 -20 -92 -63l-78 94q49 45 121 80q66 33 148 33q55 0 108 -17q45 -14 82 -47q35 -31 53 -78q18 -45 19 -102q0 -51 -15 -92q-18 -51 -41 -86q-25 -39 -67 -88l-90 -101l-148 -157h396v-127h-572z" />
<glyph unicode="&#xbe;" horiz-adv-x="1507" d="M31 625v133q70 -37 129 -53q66 -18 119 -19q102 0 143 41q43 43 43 115q0 74 -53 108q-51 33 -150 33h-98v113h98q92 0 133 39q43 40 43 104q0 29 -10 55q-8 25 -27 39q-20 18 -41 23q-25 6 -51 6q-61 0 -108 -21q-45 -20 -99 -57l-69 96q31 23 59.5 41.5t65.5 30.5 q43 16 71 21q49 8 82 8q74 0 121 -17q59 -20 88 -47q37 -33 53.5 -71.5t16.5 -90.5q0 -78 -41 -131t-109 -77q86 -20 131 -76t45 -131q0 -63 -20 -111q-23 -49 -61 -84q-39 -33 -105 -55q-61 -20 -149 -21q-70 0 -131 13q-60 12 -119 43zM328 0l811 1462h157l-811 -1462 h-157zM843 192v111l377 579h141v-563h125v-127h-125v-192h-143v192h-375zM989 319h229v195q0 14 1 45t1 47q0 33 4 98q-2 -4 -6 -14t-8 -16q-4 -8 -8 -13.5t-7.5 -11.5t-7.5 -14l-22 -41l-21 -35z" />
<glyph unicode="&#xbf;" horiz-adv-x="870" d="M68 -20q0 59 14 120q12 51 39 97q27 43 67 88q39 43 95 88q70 61 86 78q29 29 51 65.5t26 63.5q6 35 7 77v19h139v-37q0 -63 -8 -104q-10 -49 -27 -86q-18 -39 -53 -78q-39 -41 -82 -80q-43 -35 -82 -74q-34 -34 -55 -67q-25 -37 -33 -76q-10 -45 -10 -92q0 -51 14 -88 t45 -68q29 -29 70 -43q45 -16 98 -16q80 0 160 26q74 25 143 60l64 -146q-90 -47 -177 -72q-98 -29 -190 -28q-88 0 -168 26q-76 25 -125 72q-51 47 -80 119q-28 70 -28 156zM385 979q0 37 10.5 63.5t26.5 42.5q12 12 41 25q18 8 49 8t49 -8q29 -12 41 -25 q16 -16 26.5 -42.5t10.5 -63.5q0 -33 -10 -64q-10 -29 -27 -43q-23 -20 -41 -24q-29 -8 -49 -8t-49 8q-18 4 -41 24q-16 14 -27 43q-10 31 -10 64z" />
<glyph unicode="&#xc0;" horiz-adv-x="1243" d="M0 0l537 1468h170l538 -1468h-190l-160 453h-545l-162 -453h-188zM410 618h426l-148 424l-4 12.5l-4 12.5l-6 18q-2 10 -8.5 25.5t-10.5 32.5l-16 61q-4 18 -9 33.5t-9 30.5q-2 -12 -17 -64l-16 -63q-9 -31 -19 -56q-4 -10 -6 -18t-4 -12t-4 -13zM325 1886v21h219 q15 -34 37 -74l45 -82q20 -37 47 -78q6 -8 15.5 -22.5l16.5 -25.5t13 -19v-27h-120q-47 37 -76 70l-80 86q-29 31 -70 84q-35 44 -47 67z" />
<glyph unicode="&#xc1;" horiz-adv-x="1243" d="M0 0l537 1468h170l538 -1468h-190l-160 453h-545l-162 -453h-188zM410 618h426l-148 424l-4 12.5l-4 12.5l-6 18q-2 10 -8.5 25.5t-10.5 32.5l-16 61q-4 18 -9 33.5t-9 30.5q-2 -12 -17 -64l-16 -63q-9 -31 -19 -56q-4 -10 -6 -18t-4 -12t-4 -13zM534 1579v27l45 67 l22.5 36t24.5 42q8 12 45 82q22 40 37 74h219v-21q-12 -23 -47 -67q-31 -39 -71 -84l-78 -86q-29 -33 -76 -70h-121z" />
<glyph unicode="&#xc2;" horiz-adv-x="1243" d="M0 0l537 1468h170l538 -1468h-190l-160 453h-545l-162 -453h-188zM410 618h426l-148 424l-4 12.5l-4 12.5l-6 18q-2 10 -8.5 25.5t-10.5 32.5l-16 61q-4 18 -9 33.5t-9 30.5q-2 -12 -17 -64l-16 -63q-9 -31 -19 -56q-4 -10 -6 -18t-4 -12t-4 -13zM289 1579v27 q14 14 28.5 31.5l30.5 35.5q51 55 68 78q6 6 64 82q29 37 45 74h192q16 -37 45 -74q57 -76 64 -82q16 -23 67 -78l60 -67v-27h-121q-45 29 -105 82q-49 43 -106 104l-107 -104q-49 -45 -104 -82h-121z" />
<glyph unicode="&#xc3;" horiz-adv-x="1243" d="M0 0l537 1468h170l538 -1468h-190l-160 453h-545l-162 -453h-188zM410 618h426l-148 424l-4 12.5l-4 12.5l-6 18q-2 10 -8.5 25.5t-10.5 32.5l-16 61q-4 18 -9 33.5t-9 30.5q-2 -12 -17 -64l-16 -63q-9 -31 -19 -56q-4 -10 -6 -18t-4 -12t-4 -13zM264 1579q6 63 21 109 q16 51 43 84q31 37 63 53q37 18 84 18q43 0 82 -18q8 -4 25.5 -11.5l31 -13.5t23.5 -12l71 -39q35 -18 64 -18q45 0 68 26q25 27 38 88h105q-6 -63 -21 -108q-16 -51 -43 -84q-31 -37 -63 -53q-37 -18 -84 -19q-45 0 -80 17q-37 16 -78 40q-14 8 -41.5 22.5t-29.5 16.5 q-31 16 -68 17q-45 0 -70 -27q-20 -23 -37 -88h-104z" />
<glyph unicode="&#xc4;" horiz-adv-x="1243" d="M0 0l537 1468h170l538 -1468h-190l-160 453h-545l-162 -453h-188zM410 618h426l-148 424l-4 12.5l-4 12.5l-6 18q-2 10 -8.5 25.5t-10.5 32.5l-16 61q-4 18 -9 33.5t-9 30.5q-2 -12 -17 -64l-16 -63q-9 -31 -19 -56q-4 -10 -6 -18t-4 -12t-4 -13zM340 1732.5 q0 53.5 29 78.5q28 25 67.5 24.5t67.5 -24.5q29 -25 29 -78.5t-29 -77.5q-28 -25 -67.5 -25t-67.5 25q-29 24 -29 77.5zM715 1732.5q0 53.5 29 78.5q28 25 67 24q18 0 37 -6t31 -18q10 -10 20 -31q8 -16 8 -47q0 -53 -28 -78q-27 -25 -68 -25q-40 0 -67 25q-29 24 -29 77.5z " />
<glyph unicode="&#xc5;" horiz-adv-x="1243" d="M0 0l537 1468h170l538 -1468h-190l-160 453h-545l-162 -453h-188zM410 618h426l-148 424l-4 12.5l-4 12.5l-6 18q-2 10 -8.5 25.5t-10.5 32.5l-16 61q-4 18 -9 33.5t-9 30.5q-2 -12 -17 -64l-16 -63q-9 -31 -19 -56q-4 -10 -6 -18t-4 -12t-4 -13zM396 1581q0 47 16 90 q16 41 45 68q31 27 72 43q37 14 90 14q49 0 90 -14q43 -15 74 -43q29 -27 47 -66q18 -41 18 -90q0 -52 -18 -92q-20 -43 -47 -68q-33 -29 -72 -43q-41 -14 -92 -14q-53 0 -90 14q-41 16 -72 43q-29 27 -45 68q-16 43 -16 90zM506 1581q0 -51 29 -84q27 -29 84 -29 q51 0 80 29q33 33 32 84q0 49 -32 82q-31 31 -80 31q-51 0 -82 -31t-31 -82z" />
<glyph unicode="&#xc6;" horiz-adv-x="1744" d="M-2 0l655 1462h969v-164h-573v-452h534v-162h-534v-520h573v-164h-760v453h-475l-203 -453h-186zM459 618h403v680h-108z" />
<glyph unicode="&#xc7;" horiz-adv-x="1234" d="M125 733q0 164 43 303.5t129 237.5q88 100 209 153q125 55 287 56q104 0 206 -23q98 -20 177 -63l-78 -156q-82 39 -137 55q-78 23 -168 23q-106 0 -195 -41q-86 -40 -147 -117q-59 -74 -94 -184.5t-35 -245.5q0 -139 30 -250q31 -113 88 -184q59 -76 148 -115 q86 -39 205 -39q98 0 170 17q66 14 157 41v-162q-35 -14 -78 -27q-41 -12 -81 -18q-57 -8 -91 -10q-66 -4 -108 -4q-164 0 -285 55t-198 151q-76 92 -115 240q-39 145 -39 307zM543 -375q20 -4 39 -4q8 0 22.5 -1t18.5 -1q72 0 110 21q41 23 41 71q0 23 -12 41 q-10 16 -37 31q-23 12 -55 22l-68 19l90 176h121l-57 -115q45 -12 63 -20q29 -12 51 -35q20 -20 33 -49q12 -28 13 -68q0 -96 -70 -151q-68 -53 -221 -54q-31 0 -45 3q-22 3 -37 6v108z" />
<glyph unicode="&#xc8;" horiz-adv-x="1079" d="M199 0v1462h759v-164h-573v-452h535v-162h-535v-520h573v-164h-759zM319 1886v21h219q15 -34 37 -74l45 -82q20 -37 47 -78q6 -8 15.5 -22.5l16.5 -25.5t13 -19v-27h-120q-47 37 -76 70l-80 86q-29 31 -70 84q-35 44 -47 67z" />
<glyph unicode="&#xc9;" horiz-adv-x="1079" d="M199 0v1462h759v-164h-573v-452h535v-162h-535v-520h573v-164h-759zM456 1579v27l45 67l22.5 36t24.5 42q8 12 45 82q22 40 37 74h219v-21q-12 -23 -47 -67q-31 -39 -71 -84l-78 -86q-29 -33 -76 -70h-121z" />
<glyph unicode="&#xca;" horiz-adv-x="1079" d="M199 0v1462h759v-164h-573v-452h535v-162h-535v-520h573v-164h-759zM244 1579v27q14 14 28.5 31.5l30.5 35.5q51 55 68 78q6 6 64 82q29 37 45 74h192q16 -37 45 -74q57 -76 64 -82q16 -23 67 -78l60 -67v-27h-121q-45 29 -105 82q-49 43 -106 104l-107 -104 q-49 -45 -104 -82h-121z" />
<glyph unicode="&#xcb;" horiz-adv-x="1079" d="M199 0v1462h759v-164h-573v-452h535v-162h-535v-520h573v-164h-759zM297 1732.5q0 53.5 29 78.5q28 25 67.5 24.5t67.5 -24.5q29 -25 29 -78.5t-29 -77.5q-28 -25 -67.5 -25t-67.5 25q-29 24 -29 77.5zM672 1732.5q0 53.5 29 78.5q28 25 67 24q18 0 37 -6t31 -18 q10 -10 20 -31q8 -16 8 -47q0 -53 -28 -78q-27 -25 -68 -25q-40 0 -67 25q-29 24 -29 77.5z" />
<glyph unicode="&#xcc;" horiz-adv-x="692" d="M82 0v102l172 41v1176l-172 41v102h530v-102l-172 -41v-1176l172 -41v-102h-530zM61 1886v21h219q15 -34 37 -74l45 -82q20 -37 47 -78q6 -8 15.5 -22.5l16.5 -25.5t13 -19v-27h-120q-47 37 -76 70l-80 86q-29 31 -70 84q-35 44 -47 67z" />
<glyph unicode="&#xcd;" horiz-adv-x="692" d="M82 0v102l172 41v1176l-172 41v102h530v-102l-172 -41v-1176l172 -41v-102h-530zM258 1579v27l45 67l22.5 36t24.5 42q8 12 45 82q22 40 37 74h219v-21q-12 -23 -47 -67q-31 -39 -71 -84l-78 -86q-29 -33 -76 -70h-121z" />
<glyph unicode="&#xce;" horiz-adv-x="692" d="M82 0v102l172 41v1176l-172 41v102h530v-102l-172 -41v-1176l172 -41v-102h-530zM16 1579v27q14 14 28.5 31.5l30.5 35.5q51 55 68 78q6 6 64 82q29 37 45 74h192q16 -37 45 -74q57 -76 64 -82q16 -23 67 -78l60 -67v-27h-121q-45 29 -105 82q-49 43 -106 104l-107 -104 q-49 -45 -104 -82h-121z" />
<glyph unicode="&#xcf;" horiz-adv-x="692" d="M82 0v102l172 41v1176l-172 41v102h530v-102l-172 -41v-1176l172 -41v-102h-530zM63 1732.5q0 53.5 29 78.5q28 25 67.5 24.5t67.5 -24.5q29 -25 29 -78.5t-29 -77.5q-28 -25 -67.5 -25t-67.5 25q-29 24 -29 77.5zM438 1732.5q0 53.5 29 78.5q28 25 67 24q18 0 37 -6 t31 -18q10 -10 20 -31q8 -16 8 -47q0 -53 -28 -78q-27 -25 -68 -25q-40 0 -67 25q-29 24 -29 77.5z" />
<glyph unicode="&#xd0;" horiz-adv-x="1400" d="M47 643v162h152v657h407q152 0 277 -47q127 -47 211 -135q90 -94 135 -225q47 -137 47 -310q0 -193 -47 -325q-51 -143 -139 -232q-98 -98 -224 -141q-135 -47 -301 -47h-366v643h-152zM385 160h162q264 0 397 145q135 147 135 434q0 147 -32 252q-35 113 -97 176 q-68 70 -155 103q-90 33 -209 33h-201v-498h336v-162h-336v-483z" />
<glyph unicode="&#xd1;" horiz-adv-x="1492" d="M199 0v1462h213l716 -1204h7l-7 150q0 10 -1 31.5t-1 33.5l-4 68q0 12 -1 32.5t-1 30.5v58v800h174v-1462h-215l-719 1210h-8q8 -102 10 -153l7 -135q2 -47 2 -129v-793h-172zM397 1579q6 63 21 109q16 51 43 84q31 37 63 53q37 18 84 18q43 0 82 -18q8 -4 25.5 -11.5 l31 -13.5t23.5 -12l71 -39q35 -18 64 -18q45 0 68 26q25 27 38 88h105q-6 -63 -21 -108q-16 -51 -43 -84q-31 -37 -63 -53q-37 -18 -84 -19q-45 0 -80 17q-37 16 -78 40q-14 8 -41.5 22.5t-29.5 16.5q-31 16 -68 17q-45 0 -70 -27q-20 -23 -37 -88h-104z" />
<glyph unicode="&#xd2;" horiz-adv-x="1519" d="M125 735q0 164 39 309q37 137 117 236q82 100 198 152q123 53 283 53q154 0 272.5 -53.5t198.5 -151.5q78 -96 119 -237.5t41 -309.5q0 -166 -41 -307q-41 -145 -119 -240q-78 -96 -199 -151t-274 -55q-163 0 -283 55q-121 55 -198 151q-76 92 -115 240q-39 145 -39 309z M322 733q0 -127 26 -246q23 -102 80 -186q52 -77 135 -117q86 -41 196.5 -41t196.5 41q83 40 136 117q57 84 79 186q25 111 25 246q0 139 -25 248q-25 104 -77 184q-49 74 -135.5 115t-197 41t-196.5 -41q-84 -41 -137 -115q-55 -77 -80 -184q-26 -117 -26 -248zM477 1886 v21h219q15 -34 37 -74l45 -82q20 -37 47 -78q6 -8 15.5 -22.5l16.5 -25.5t13 -19v-27h-120q-47 37 -76 70l-80 86q-29 31 -70 84q-35 44 -47 67z" />
<glyph unicode="&#xd3;" horiz-adv-x="1519" d="M125 735q0 164 39 309q37 137 117 236q82 100 198 152q123 53 283 53q154 0 272.5 -53.5t198.5 -151.5q78 -96 119 -237.5t41 -309.5q0 -166 -41 -307q-41 -145 -119 -240q-78 -96 -199 -151t-274 -55q-163 0 -283 55q-121 55 -198 151q-76 92 -115 240q-39 145 -39 309z M322 733q0 -127 26 -246q23 -102 80 -186q52 -77 135 -117q86 -41 196.5 -41t196.5 41q83 40 136 117q57 84 79 186q25 111 25 246q0 139 -25 248q-25 104 -77 184q-49 74 -135.5 115t-197 41t-196.5 -41q-84 -41 -137 -115q-55 -77 -80 -184q-26 -117 -26 -248zM651 1579 v27l45 67l22.5 36t24.5 42q8 12 45 82q22 40 37 74h219v-21q-12 -23 -47 -67q-31 -39 -71 -84l-78 -86q-29 -33 -76 -70h-121z" />
<glyph unicode="&#xd4;" horiz-adv-x="1519" d="M125 735q0 164 39 309q37 137 117 236q82 100 198 152q123 53 283 53q154 0 272.5 -53.5t198.5 -151.5q78 -96 119 -237.5t41 -309.5q0 -166 -41 -307q-41 -145 -119 -240q-78 -96 -199 -151t-274 -55q-163 0 -283 55q-121 55 -198 151q-76 92 -115 240q-39 145 -39 309z M322 733q0 -127 26 -246q23 -102 80 -186q52 -77 135 -117q86 -41 196.5 -41t196.5 41q83 40 136 117q57 84 79 186q25 111 25 246q0 139 -25 248q-25 104 -77 184q-49 74 -135.5 115t-197 41t-196.5 -41q-84 -41 -137 -115q-55 -77 -80 -184q-26 -117 -26 -248zM432 1579 v27q14 14 28.5 31.5l30.5 35.5q51 55 68 78q6 6 64 82q29 37 45 74h192q16 -37 45 -74q57 -76 64 -82q16 -23 67 -78l60 -67v-27h-121q-45 29 -105 82q-49 43 -106 104l-107 -104q-49 -45 -104 -82h-121z" />
<glyph unicode="&#xd5;" horiz-adv-x="1519" d="M125 735q0 164 39 309q37 137 117 236q82 100 198 152q123 53 283 53q154 0 272.5 -53.5t198.5 -151.5q78 -96 119 -237.5t41 -309.5q0 -166 -41 -307q-41 -145 -119 -240q-78 -96 -199 -151t-274 -55q-163 0 -283 55q-121 55 -198 151q-76 92 -115 240q-39 145 -39 309z M322 733q0 -127 26 -246q23 -102 80 -186q52 -77 135 -117q86 -41 196.5 -41t196.5 41q83 40 136 117q57 84 79 186q25 111 25 246q0 139 -25 248q-25 104 -77 184q-49 74 -135.5 115t-197 41t-196.5 -41q-84 -41 -137 -115q-55 -77 -80 -184q-26 -117 -26 -248zM383 1579 q6 63 21 109q16 51 43 84q31 37 63 53q37 18 84 18q43 0 82 -18q8 -4 25.5 -11.5l31 -13.5t23.5 -12l71 -39q35 -18 64 -18q45 0 68 26q25 27 38 88h105q-6 -63 -21 -108q-16 -51 -43 -84q-31 -37 -63 -53q-37 -18 -84 -19q-45 0 -80 17q-37 16 -78 40q-14 8 -41.5 22.5 t-29.5 16.5q-31 16 -68 17q-45 0 -70 -27q-20 -23 -37 -88h-104z" />
<glyph unicode="&#xd6;" horiz-adv-x="1519" d="M125 735q0 164 39 309q37 137 117 236q82 100 198 152q123 53 283 53q154 0 272.5 -53.5t198.5 -151.5q78 -96 119 -237.5t41 -309.5q0 -166 -41 -307q-41 -145 -119 -240q-78 -96 -199 -151t-274 -55q-163 0 -283 55q-121 55 -198 151q-76 92 -115 240q-39 145 -39 309z M322 733q0 -127 26 -246q23 -102 80 -186q52 -77 135 -117q86 -41 196.5 -41t196.5 41q83 40 136 117q57 84 79 186q25 111 25 246q0 139 -25 248q-25 104 -77 184q-49 74 -135.5 115t-197 41t-196.5 -41q-84 -41 -137 -115q-55 -77 -80 -184q-26 -117 -26 -248zM477 1732.5 q0 53.5 29 78.5q28 25 67.5 24.5t67.5 -24.5q29 -25 29 -78.5t-29 -77.5q-28 -25 -67.5 -25t-67.5 25q-29 24 -29 77.5zM852 1732.5q0 53.5 29 78.5q28 25 67 24q18 0 37 -6t31 -18q10 -10 20 -31q8 -16 8 -47q0 -53 -28 -78q-27 -25 -68 -25q-40 0 -67 25q-29 24 -29 77.5z " />
<glyph unicode="&#xd7;" d="M141 1042l105 105l317 -318l322 318l104 -103l-321 -321l319 -320l-102 -102l-322 317l-317 -315l-103 103l316 317z" />
<glyph unicode="&#xd8;" horiz-adv-x="1519" d="M125 735q0 164 39 309q37 137 117 236q82 100 198 152q123 53 283 53q98 0 174 -21q82 -23 147 -59l80 127l137 -78l-92 -149q90 -96 137.5 -244t47.5 -328q0 -166 -41 -307q-41 -145 -119 -240q-78 -96 -199 -151t-274 -55q-188 0 -322 71l-78 -127l-137 78l90 145 q-98 102 -143 248q-45 147 -45 340zM322 733q0 -127 22 -235q20 -104 72 -183l579 945q-59 33 -104 45q-61 16 -129 16q-111 0 -197 -41q-84 -41 -137 -115q-55 -77 -80 -184q-26 -117 -26 -248zM530 201q46 -28 105 -43q55 -14 125 -15q111 0 196 41q83 40 136 117 q57 84 79 186q25 111 25 246q0 258 -88 408z" />
<glyph unicode="&#xd9;" horiz-adv-x="1429" d="M184 520v942h187v-952q0 -175 86 -270q86 -96 262 -97q92 0 153 27q66 29 105 76q40 49 61 116q20 63 21 150v952h186v-948q0 -117 -33 -213q-35 -102 -100 -170q-72 -76 -166 -113q-104 -41 -237 -40q-129 0 -226 38q-98 39 -164 109q-68 70 -102 172q-33 96 -33 221z M454 1886v21h219q15 -34 37 -74l45 -82q20 -37 47 -78q6 -8 15.5 -22.5l16.5 -25.5t13 -19v-27h-120q-47 37 -76 70l-80 86q-29 31 -70 84q-35 44 -47 67z" />
<glyph unicode="&#xda;" horiz-adv-x="1429" d="M184 520v942h187v-952q0 -175 86 -270q86 -96 262 -97q92 0 153 27q66 29 105 76q40 49 61 116q20 63 21 150v952h186v-948q0 -117 -33 -213q-35 -102 -100 -170q-72 -76 -166 -113q-104 -41 -237 -40q-129 0 -226 38q-98 39 -164 109q-68 70 -102 172q-33 96 -33 221z M590 1579v27l45 67l22.5 36t24.5 42q8 12 45 82q22 40 37 74h219v-21q-12 -23 -47 -67q-31 -39 -71 -84l-78 -86q-29 -33 -76 -70h-121z" />
<glyph unicode="&#xdb;" horiz-adv-x="1429" d="M184 520v942h187v-952q0 -175 86 -270q86 -96 262 -97q92 0 153 27q66 29 105 76q40 49 61 116q20 63 21 150v952h186v-948q0 -117 -33 -213q-35 -102 -100 -170q-72 -76 -166 -113q-104 -41 -237 -40q-129 0 -226 38q-98 39 -164 109q-68 70 -102 172q-33 96 -33 221z M379 1579v27q14 14 28.5 31.5l30.5 35.5q51 55 68 78q6 6 64 82q29 37 45 74h192q16 -37 45 -74q57 -76 64 -82q16 -23 67 -78l60 -67v-27h-121q-45 29 -105 82q-49 43 -106 104l-107 -104q-49 -45 -104 -82h-121z" />
<glyph unicode="&#xdc;" horiz-adv-x="1429" d="M184 520v942h187v-952q0 -175 86 -270q86 -96 262 -97q92 0 153 27q66 29 105 76q40 49 61 116q20 63 21 150v952h186v-948q0 -117 -33 -213q-35 -102 -100 -170q-72 -76 -166 -113q-104 -41 -237 -40q-129 0 -226 38q-98 39 -164 109q-68 70 -102 172q-33 96 -33 221z M432 1732.5q0 53.5 29 78.5q28 25 67.5 24.5t67.5 -24.5q29 -25 29 -78.5t-29 -77.5q-28 -25 -67.5 -25t-67.5 25q-29 24 -29 77.5zM807 1732.5q0 53.5 29 78.5q28 25 67 24q18 0 37 -6t31 -18q10 -10 20 -31q8 -16 8 -47q0 -53 -28 -78q-27 -25 -68 -25q-40 0 -67 25 q-29 24 -29 77.5z" />
<glyph unicode="&#xdd;" horiz-adv-x="1077" d="M0 1462h203l336 -739l340 739h200l-446 -893v-569h-187v559zM442 1579v27l45 67l22.5 36t24.5 42q8 12 45 82q22 40 37 74h219v-21q-12 -23 -47 -67q-31 -39 -71 -84l-78 -86q-29 -33 -76 -70h-121z" />
<glyph unicode="&#xde;" horiz-adv-x="1179" d="M199 0v1462h186v-252h176q129 0 232 -28q92 -27 159 -84q61 -53 92 -133t31 -183q0 -90 -28.5 -176t-90.5 -147q-63 -63 -165.5 -102.5t-255.5 -39.5h-150v-317h-186zM385 475h129q86 0 162 17q70 14 115 51q49 39 69 92q23 57 23 137q0 143 -82 211q-84 68 -256 68h-160 v-576z" />
<glyph unicode="&#xdf;" horiz-adv-x="1232" d="M174 0v1200q0 102 31 174q29 68 88 113q53 41 135 61q76 18 170 19q90 0 168 -19q70 -16 131 -57q51 -35 84 -96q29 -55 29 -135q0 -59 -21 -101q-23 -45 -53 -82q-20 -25 -70 -65l-33.5 -27.5t-35.5 -30.5q-27 -25 -52 -55q-23 -29 -22 -57q0 -22 6 -37q6 -16 27 -37 q10 -10 55 -43l92 -63q76 -51 101 -72q41 -35 73.5 -78t46.5 -88q16 -53 17 -111q0 -82 -29 -149q-27 -63 -78 -104.5t-121 -59.5q-78 -20 -155 -20q-94 0 -166 18q-74 18 -123 51v166q23 -14 59 -31q51 -23 68 -28q37 -12 74 -19q49 -8 75 -8q57 0 96.5 12.5t66 35 t38.5 54.5q12 31 12 72q0 39 -8 66q-8 29 -30 57q-27 35 -58 57q-51 39 -92 64q-59 37 -106 74q-35 27 -68 67q-25 31 -39 70q-10 29 -10 76q0 55 20 94q25 45 51.5 71.5t67.5 57.5q37 28 68 55q25 23 51 64q20 33 20 77q0 39 -16 72q-16 31 -47 53q-27 18 -72 29 q-47 10 -92 10t-92 -10t-78 -33q-37 -27 -53 -65q-18 -43 -19 -107v-1202h-182z" />
<glyph unicode="&#xe0;" horiz-adv-x="1085" d="M94 307q0 164 115 252q115 86 352 96l184 7v69q0 70 -14 113t-43 71q-27 27 -67 39t-93 13q-86 0 -155 -25q-82 -29 -137 -57l-64 137q74 40 166 68q96 29 190 28q106 0 177 -20q72 -20 122 -66q45 -39 72 -112q25 -68 25 -168v-752h-131l-37 152h-8q-35 -45 -66 -78 t-72 -54q-41 -23 -88 -30q-55 -10 -110 -10q-61 0 -127 20q-55 18 -101 59q-39 37 -65 103q-25 61 -25 145zM283 305q0 -92 49 -135t127 -43q61 0 112 18q55 20 91 58q39 41 59 98q23 61 22 137v99l-143 -7q-80 -2 -151 -20q-55 -14 -97 -45q-39 -29 -53 -68 q-16 -43 -16 -92zM284 1548v21h219q15 -34 37 -74l45 -82q20 -37 47 -78q6 -8 15.5 -22.5l16.5 -25.5t13 -19v-27h-120q-47 37 -76 70l-80 86q-29 31 -70 84q-35 44 -47 67z" />
<glyph unicode="&#xe1;" horiz-adv-x="1085" d="M94 307q0 164 115 252q115 86 352 96l184 7v69q0 70 -14 113t-43 71q-27 27 -67 39t-93 13q-86 0 -155 -25q-82 -29 -137 -57l-64 137q74 40 166 68q96 29 190 28q106 0 177 -20q72 -20 122 -66q45 -39 72 -112q25 -68 25 -168v-752h-131l-37 152h-8q-35 -45 -66 -78 t-72 -54q-41 -23 -88 -30q-55 -10 -110 -10q-61 0 -127 20q-55 18 -101 59q-39 37 -65 103q-25 61 -25 145zM283 305q0 -92 49 -135t127 -43q61 0 112 18q55 20 91 58q39 41 59 98q23 61 22 137v99l-143 -7q-80 -2 -151 -20q-55 -14 -97 -45q-39 -29 -53 -68 q-16 -43 -16 -92zM446 1241v27l45 67l22.5 36t24.5 42q8 12 45 82q22 40 37 74h219v-21q-12 -23 -47 -67q-31 -39 -71 -84l-78 -86q-29 -33 -76 -70h-121z" />
<glyph unicode="&#xe2;" horiz-adv-x="1085" d="M94 307q0 164 115 252q115 86 352 96l184 7v69q0 70 -14 113t-43 71q-27 27 -67 39t-93 13q-86 0 -155 -25q-82 -29 -137 -57l-64 137q74 40 166 68q96 29 190 28q106 0 177 -20q72 -20 122 -66q45 -39 72 -112q25 -68 25 -168v-752h-131l-37 152h-8q-35 -45 -66 -78 t-72 -54q-41 -23 -88 -30q-55 -10 -110 -10q-61 0 -127 20q-55 18 -101 59q-39 37 -65 103q-25 61 -25 145zM283 305q0 -92 49 -135t127 -43q61 0 112 18q55 20 91 58q39 41 59 98q23 61 22 137v99l-143 -7q-80 -2 -151 -20q-55 -14 -97 -45q-39 -29 -53 -68 q-16 -43 -16 -92zM227 1241v27q14 14 28.5 31.5l30.5 35.5q51 55 68 78q6 6 64 82q29 37 45 74h192q16 -37 45 -74q57 -76 64 -82q16 -23 67 -78l60 -67v-27h-121q-45 29 -105 82q-49 43 -106 104l-107 -104q-49 -45 -104 -82h-121z" />
<glyph unicode="&#xe3;" horiz-adv-x="1085" d="M94 307q0 164 115 252q115 86 352 96l184 7v69q0 70 -14 113t-43 71q-27 27 -67 39t-93 13q-86 0 -155 -25q-82 -29 -137 -57l-64 137q74 40 166 68q96 29 190 28q106 0 177 -20q72 -20 122 -66q45 -39 72 -112q25 -68 25 -168v-752h-131l-37 152h-8q-35 -45 -66 -78 t-72 -54q-41 -23 -88 -30q-55 -10 -110 -10q-61 0 -127 20q-55 18 -101 59q-39 37 -65 103q-25 61 -25 145zM283 305q0 -92 49 -135t127 -43q61 0 112 18q55 20 91 58q39 41 59 98q23 61 22 137v99l-143 -7q-80 -2 -151 -20q-55 -14 -97 -45q-39 -29 -53 -68 q-16 -43 -16 -92zM190 1241q6 63 21 109q16 51 43 84q31 37 63 53q37 18 84 18q43 0 82 -18q8 -4 25.5 -11.5l31 -13.5t23.5 -12l71 -39q35 -18 64 -18q45 0 68 26q25 27 38 88h105q-6 -63 -21 -108q-16 -51 -43 -84q-31 -37 -63 -53q-37 -18 -84 -19q-45 0 -80 17 q-37 16 -78 40q-14 8 -41.5 22.5t-29.5 16.5q-31 16 -68 17q-45 0 -70 -27q-20 -23 -37 -88h-104z" />
<glyph unicode="&#xe4;" horiz-adv-x="1085" d="M94 307q0 164 115 252q115 86 352 96l184 7v69q0 70 -14 113t-43 71q-27 27 -67 39t-93 13q-86 0 -155 -25q-82 -29 -137 -57l-64 137q74 40 166 68q96 29 190 28q106 0 177 -20q72 -20 122 -66q45 -39 72 -112q25 -68 25 -168v-752h-131l-37 152h-8q-35 -45 -66 -78 t-72 -54q-41 -23 -88 -30q-55 -10 -110 -10q-61 0 -127 20q-55 18 -101 59q-39 37 -65 103q-25 61 -25 145zM283 305q0 -92 49 -135t127 -43q61 0 112 18q55 20 91 58q39 41 59 98q23 61 22 137v99l-143 -7q-80 -2 -151 -20q-55 -14 -97 -45q-39 -29 -53 -68 q-16 -43 -16 -92zM272 1394.5q0 53.5 29 78.5q28 25 67.5 24.5t67.5 -24.5q29 -25 29 -78.5t-29 -77.5q-28 -25 -67.5 -25t-67.5 25q-29 24 -29 77.5zM647 1394.5q0 53.5 29 78.5q28 25 67 24q18 0 37 -6t31 -18q10 -10 20 -31q8 -16 8 -47q0 -53 -28 -78q-27 -25 -68 -25 q-40 0 -67 25q-29 24 -29 77.5z" />
<glyph unicode="&#xe5;" horiz-adv-x="1085" d="M94 307q0 164 115 252q115 86 352 96l184 7v69q0 70 -14 113t-43 71q-27 27 -67 39t-93 13q-86 0 -155 -25q-82 -29 -137 -57l-64 137q74 40 166 68q96 29 190 28q106 0 177 -20q72 -20 122 -66q45 -39 72 -112q25 -68 25 -168v-752h-131l-37 152h-8q-35 -45 -66 -78 t-72 -54q-41 -23 -88 -30q-55 -10 -110 -10q-61 0 -127 20q-55 18 -101 59q-39 37 -65 103q-25 61 -25 145zM283 305q0 -92 49 -135t127 -43q61 0 112 18q55 20 91 58q39 41 59 98q23 61 22 137v99l-143 -7q-80 -2 -151 -20q-55 -14 -97 -45q-39 -29 -53 -68 q-16 -43 -16 -92zM330 1456q0 47 16 90q16 41 45 68q31 27 72 43q37 14 90 14q49 0 90 -14q43 -15 74 -43q29 -27 47 -66q18 -41 18 -90q0 -52 -18 -92q-20 -43 -47 -68q-33 -29 -72 -43q-41 -14 -92 -14q-53 0 -90 14q-41 16 -72 43q-29 27 -45 68q-16 43 -16 90zM440 1456 q0 -51 29 -84q27 -29 84 -29q51 0 80 29q33 33 32 84q0 49 -32 82q-31 31 -80 31q-51 0 -82 -31t-31 -82z" />
<glyph unicode="&#xe6;" horiz-adv-x="1705" d="M94 307q0 164 115 252q115 86 352 96l184 7v69q0 70 -14 113t-43 71q-27 27 -67 39t-93 13q-86 0 -155 -25q-82 -29 -137 -57l-64 137q74 40 166 68q96 29 190 28q131 0 213 -43q84 -43 127 -135q53 86 133 131q84 47 186.5 47t174.5 -35q76 -37 131 -100q53 -61 82 -156 q29 -92 29 -200v-113h-672q6 -195 77.5 -285t221.5 -90q63 0 92 4q51 8 82 15q37 8 76 24q49 20 73 33v-162q-8 -4 -77 -33q-27 -12 -76 -22q-53 -12 -82 -14q-57 -4 -92 -4q-139 0 -239.5 57t-162.5 172q-27 -43 -71 -96q-29 -33 -86 -72q-43 -29 -107 -45 q-61 -16 -131 -16q-66 0 -133 20q-57 18 -107 59q-43 39 -69 103q-27 67 -27 145zM283 305q0 -92 49 -135t127 -43q61 0 112 18q55 20 91 58q39 41 59 98q23 61 22 137v99l-143 -7q-80 -2 -151 -20q-55 -14 -97 -45q-39 -29 -53 -68q-16 -43 -16 -92zM936 662h471 q0 70 -12.5 125t-41 96t-69.5 61q-45 23 -100 23q-109 0 -174 -78q-62 -73 -74 -227z" />
<glyph unicode="&#xe7;" horiz-adv-x="946" d="M113 542.5q0 149.5 39 266.5q37 111 104 178q72 72 156 100q89 31 190 31q86 0 152 -16q78 -20 125 -43l-54 -154q-14 6 -51 19q-53 18 -57 18t-26.5 5t-33.5 7q-37 4 -55 4q-160 0 -229 -100q-72 -102 -72 -313q0 -213 71.5 -309.5t221.5 -96.5q82 0 147 19 q61 18 119 43v-162q-57 -29 -115 -43q-66 -16 -151 -16q-94 0 -188 32q-89 31 -154 99q-66 70 -102.5 176t-36.5 255.5zM357 -375q20 -4 39 -4q8 0 22.5 -1t18.5 -1q72 0 110 21q41 23 41 71q0 23 -12 41q-10 16 -37 31q-23 12 -55 22l-68 19l90 176h121l-57 -115 q45 -12 63 -20q29 -12 51 -35q20 -20 33 -49q12 -28 13 -68q0 -96 -70 -151q-68 -53 -221 -54q-31 0 -45 3q-22 3 -37 6v108z" />
<glyph unicode="&#xe8;" horiz-adv-x="1095" d="M113 541q0 139 32 243q35 109 95 181q63 76 143 114.5t184 38.5q102 0 178 -35q78 -37 134 -100q51 -59 84 -156q31 -90 30 -200v-113h-692q6 -195 82 -285t227 -90q66 0 95 4q57 8 83 15q43 10 78 24q70 29 78 33v-162l-78 -33q-27 -10 -80 -22t-84 -14q-57 -4 -94 -4 q-109 0 -201 36.5t-157 108.5q-61 68 -100 176q-37 105 -37 240zM305 662h492q0 70 -13 124q-10 51 -43 97q-27 39 -71.5 61.5t-106.5 22.5q-113 0 -180 -78q-66 -73 -78 -227zM284 1548v21h219q15 -34 37 -74l45 -82q20 -37 47 -78q6 -8 15.5 -22.5l16.5 -25.5t13 -19v-27 h-120q-47 37 -76 70l-80 86q-29 31 -70 84q-35 44 -47 67z" />
<glyph unicode="&#xe9;" horiz-adv-x="1095" d="M113 541q0 139 32 243q35 109 95 181q63 76 143 114.5t184 38.5q102 0 178 -35q78 -37 134 -100q51 -59 84 -156q31 -90 30 -200v-113h-692q6 -195 82 -285t227 -90q66 0 95 4q57 8 83 15q43 10 78 24q70 29 78 33v-162l-78 -33q-27 -10 -80 -22t-84 -14q-57 -4 -94 -4 q-109 0 -201 36.5t-157 108.5q-61 68 -100 176q-37 105 -37 240zM305 662h492q0 70 -13 124q-10 51 -43 97q-27 39 -71.5 61.5t-106.5 22.5q-113 0 -180 -78q-66 -73 -78 -227zM475 1241v27l45 67l22.5 36t24.5 42q8 12 45 82q22 40 37 74h219v-21q-12 -23 -47 -67 q-31 -39 -71 -84l-78 -86q-29 -33 -76 -70h-121z" />
<glyph unicode="&#xea;" horiz-adv-x="1095" d="M113 541q0 139 32 243q35 109 95 181q63 76 143 114.5t184 38.5q102 0 178 -35q78 -37 134 -100q51 -59 84 -156q31 -90 30 -200v-113h-692q6 -195 82 -285t227 -90q66 0 95 4q57 8 83 15q43 10 78 24q70 29 78 33v-162l-78 -33q-27 -10 -80 -22t-84 -14q-57 -4 -94 -4 q-109 0 -201 36.5t-157 108.5q-61 68 -100 176q-37 105 -37 240zM305 662h492q0 70 -13 124q-10 51 -43 97q-27 39 -71.5 61.5t-106.5 22.5q-113 0 -180 -78q-66 -73 -78 -227zM223 1241v27q14 14 28.5 31.5l30.5 35.5q51 55 68 78q6 6 64 82q29 37 45 74h192q16 -37 45 -74 q57 -76 64 -82q16 -23 67 -78l60 -67v-27h-121q-45 29 -105 82q-49 43 -106 104l-107 -104q-49 -45 -104 -82h-121z" />
<glyph unicode="&#xeb;" horiz-adv-x="1095" d="M113 541q0 139 32 243q35 109 95 181q63 76 143 114.5t184 38.5q102 0 178 -35q78 -37 134 -100q51 -59 84 -156q31 -90 30 -200v-113h-692q6 -195 82 -285t227 -90q66 0 95 4q57 8 83 15q43 10 78 24q70 29 78 33v-162l-78 -33q-27 -10 -80 -22t-84 -14q-57 -4 -94 -4 q-109 0 -201 36.5t-157 108.5q-61 68 -100 176q-37 105 -37 240zM305 662h492q0 70 -13 124q-10 51 -43 97q-27 39 -71.5 61.5t-106.5 22.5q-113 0 -180 -78q-66 -73 -78 -227zM268 1394.5q0 53.5 29 78.5q28 25 67.5 24.5t67.5 -24.5q29 -25 29 -78.5t-29 -77.5 q-28 -25 -67.5 -25t-67.5 25q-29 24 -29 77.5zM643 1394.5q0 53.5 29 78.5q28 25 67 24q18 0 37 -6t31 -18q10 -10 20 -31q8 -16 8 -47q0 -53 -28 -78q-27 -25 -68 -25q-40 0 -67 25q-29 24 -29 77.5z" />
<glyph unicode="&#xec;" horiz-adv-x="528" d="M174 0v1098h182v-1098h-182zM-33 1548v21h219q15 -34 37 -74l45 -82q20 -37 47 -78q6 -8 15.5 -22.5l16.5 -25.5t13 -19v-27h-120q-47 37 -76 70l-80 86q-29 31 -70 84q-35 44 -47 67z" />
<glyph unicode="&#xed;" horiz-adv-x="528" d="M174 0v1098h182v-1098h-182zM184 1241v27l45 67l22.5 36t24.5 42q8 12 45 82q22 40 37 74h219v-21q-12 -23 -47 -67q-31 -39 -71 -84l-78 -86q-29 -33 -76 -70h-121z" />
<glyph unicode="&#xee;" horiz-adv-x="528" d="M174 0v1098h182v-1098h-182zM-68 1241v27q14 14 28.5 31.5l30.5 35.5q51 55 68 78q6 6 64 82q29 37 45 74h192q16 -37 45 -74q57 -76 64 -82q16 -23 67 -78l60 -67v-27h-121q-45 29 -105 82q-49 43 -106 104l-107 -104q-49 -45 -104 -82h-121z" />
<glyph unicode="&#xef;" horiz-adv-x="528" d="M174 0v1098h182v-1098h-182zM-19 1394.5q0 53.5 29 78.5q28 25 67.5 24.5t67.5 -24.5q29 -25 29 -78.5t-29 -77.5q-28 -25 -67.5 -25t-67.5 25q-29 24 -29 77.5zM356 1394.5q0 53.5 29 78.5q28 25 67 24q18 0 37 -6t31 -18q10 -10 20 -31q8 -16 8 -47q0 -53 -28 -78 q-27 -25 -68 -25q-40 0 -67 25q-29 24 -29 77.5z" />
<glyph unicode="&#xf0;" horiz-adv-x="1181" d="M111 477q0 113 32 211q29 88 90 156q51 57 144 94q80 33 188 33q106 0 178 -29q80 -33 121 -90l8 4q-31 119 -92 213q-68 104 -149 178l-256 -153l-74 114l217 131l-82 56q-47 31 -90 53l70 123q70 -33 127 -68q55 -33 119 -80l227 138l74 -113l-195 -117 q63 -59 123 -143q49 -68 94 -172q40 -92 62 -203q23 -117 22 -240q0 -145 -32.5 -251.5t-96.5 -186.5q-57 -74 -152 -115q-92 -41 -200 -40q-106 0 -191 32q-90 35 -151 97q-59 59 -99 157q-36 92 -36 211zM303 471q0 -74 16 -139q16 -61 52 -107q37 -45 90 -69 q55 -25 131 -25q152 0 221 100q68 98 68 295q0 61 -17 109q-18 53 -53 94q-39 45 -88 68q-55 25 -131 24q-74 0 -131 -22q-53 -20 -90 -68q-35 -45 -52 -110q-16 -70 -16 -150z" />
<glyph unicode="&#xf1;" horiz-adv-x="1204" d="M174 0v1098h148l26 -148h10q23 41 60 74q33 31 76 53q40 22 86 31q51 10 94 10q184 0 276 -96t92 -305v-717h-182v707q0 129 -53 194.5t-164 65.5q-76 0 -135 -27q-57 -27 -90 -76q-31 -47 -47 -125q-14 -70 -15 -170v-569h-182zM252 1241q6 63 21 109q16 51 43 84 q31 37 63 53q37 18 84 18q43 0 82 -18q8 -4 25.5 -11.5l31 -13.5t23.5 -12l71 -39q35 -18 64 -18q45 0 68 26q25 27 38 88h105q-6 -63 -21 -108q-16 -51 -43 -84q-31 -37 -63 -53q-37 -18 -84 -19q-45 0 -80 17q-37 16 -78 40q-14 8 -41.5 22.5t-29.5 16.5q-31 16 -68 17 q-45 0 -70 -27q-20 -23 -37 -88h-104z" />
<glyph unicode="&#xf2;" horiz-adv-x="1181" d="M113 551q0 133 34 242q35 106 95 178q61 74 151 110.5t201 36.5q104 0 190 -37q84 -37 150 -110q63 -72 100 -178q35 -98 35 -242q0 -139 -33 -244q-31 -100 -96 -178q-61 -74 -152 -111q-94 -39 -200 -38q-100 0 -191 38q-84 37 -149 111q-61 70 -98 178 q-37 107 -37 244zM301 551q0 -211 67.5 -315.5t223.5 -104.5q154 0 221.5 104.5t67.5 315.5q0 209 -68 313q-66 102 -223 103q-156 0 -221 -103q-68 -104 -68 -313zM352 1548v21h219q15 -34 37 -74l45 -82q20 -37 47 -78q6 -8 15.5 -22.5l16.5 -25.5t13 -19v-27h-120 q-47 37 -76 70l-80 86q-29 31 -70 84q-35 44 -47 67z" />
<glyph unicode="&#xf3;" horiz-adv-x="1181" d="M113 551q0 133 34 242q35 106 95 178q61 74 151 110.5t201 36.5q104 0 190 -37q84 -37 150 -110q63 -72 100 -178q35 -98 35 -242q0 -139 -33 -244q-31 -100 -96 -178q-61 -74 -152 -111q-94 -39 -200 -38q-100 0 -191 38q-84 37 -149 111q-61 70 -98 178 q-37 107 -37 244zM301 551q0 -211 67.5 -315.5t223.5 -104.5q154 0 221.5 104.5t67.5 315.5q0 209 -68 313q-66 102 -223 103q-156 0 -221 -103q-68 -104 -68 -313zM473 1241v27l45 67l22.5 36t24.5 42q8 12 45 82q22 40 37 74h219v-21q-12 -23 -47 -67q-31 -39 -71 -84 l-78 -86q-29 -33 -76 -70h-121z" />
<glyph unicode="&#xf4;" horiz-adv-x="1181" d="M113 551q0 133 34 242q35 106 95 178q61 74 151 110.5t201 36.5q104 0 190 -37q84 -37 150 -110q63 -72 100 -178q35 -98 35 -242q0 -139 -33 -244q-31 -100 -96 -178q-61 -74 -152 -111q-94 -39 -200 -38q-100 0 -191 38q-84 37 -149 111q-61 70 -98 178 q-37 107 -37 244zM301 551q0 -211 67.5 -315.5t223.5 -104.5q154 0 221.5 104.5t67.5 315.5q0 209 -68 313q-66 102 -223 103q-156 0 -221 -103q-68 -104 -68 -313zM254 1241v27q14 14 28.5 31.5l30.5 35.5q51 55 68 78q6 6 64 82q29 37 45 74h192q16 -37 45 -74 q57 -76 64 -82q16 -23 67 -78l60 -67v-27h-121q-45 29 -105 82q-49 43 -106 104l-107 -104q-49 -45 -104 -82h-121z" />
<glyph unicode="&#xf5;" horiz-adv-x="1181" d="M113 551q0 133 34 242q35 106 95 178q61 74 151 110.5t201 36.5q104 0 190 -37q84 -37 150 -110q63 -72 100 -178q35 -98 35 -242q0 -139 -33 -244q-31 -100 -96 -178q-61 -74 -152 -111q-94 -39 -200 -38q-100 0 -191 38q-84 37 -149 111q-61 70 -98 178 q-37 107 -37 244zM301 551q0 -211 67.5 -315.5t223.5 -104.5q154 0 221.5 104.5t67.5 315.5q0 209 -68 313q-66 102 -223 103q-156 0 -221 -103q-68 -104 -68 -313zM227 1241q6 63 21 109q16 51 43 84q31 37 63 53q37 18 84 18q43 0 82 -18q8 -4 25.5 -11.5l31 -13.5 t23.5 -12l71 -39q35 -18 64 -18q45 0 68 26q25 27 38 88h105q-6 -63 -21 -108q-16 -51 -43 -84q-31 -37 -63 -53q-37 -18 -84 -19q-45 0 -80 17q-37 16 -78 40q-14 8 -41.5 22.5t-29.5 16.5q-31 16 -68 17q-45 0 -70 -27q-20 -23 -37 -88h-104z" />
<glyph unicode="&#xf6;" horiz-adv-x="1181" d="M113 551q0 133 34 242q35 106 95 178q61 74 151 110.5t201 36.5q104 0 190 -37q84 -37 150 -110q63 -72 100 -178q35 -98 35 -242q0 -139 -33 -244q-31 -100 -96 -178q-61 -74 -152 -111q-94 -39 -200 -38q-100 0 -191 38q-84 37 -149 111q-61 70 -98 178 q-37 107 -37 244zM301 551q0 -211 67.5 -315.5t223.5 -104.5q154 0 221.5 104.5t67.5 315.5q0 209 -68 313q-66 102 -223 103q-156 0 -221 -103q-68 -104 -68 -313zM301 1394.5q0 53.5 29 78.5q28 25 67.5 24.5t67.5 -24.5q29 -25 29 -78.5t-29 -77.5q-28 -25 -67.5 -25 t-67.5 25q-29 24 -29 77.5zM676 1394.5q0 53.5 29 78.5q28 25 67 24q18 0 37 -6t31 -18q10 -10 20 -31q8 -16 8 -47q0 -53 -28 -78q-27 -25 -68 -25q-40 0 -67 25q-29 24 -29 77.5z" />
<glyph unicode="&#xf7;" d="M102 647v150h924v-150h-924zM449 373q0 33 10 59q8 20 24 37q18 18 35 23q23 6 45 6t43 -6q20 -6 37 -23q20 -20 27 -37q8 -23 8 -59q0 -33 -8 -55.5t-27 -41.5q-14 -14 -37 -20q-29 -8 -43 -8q-16 0 -45 8q-20 6 -34.5 20.5t-24.5 41t-10 55.5zM449 1071q0 33 10 59 q8 20 24 37q18 18 35 23q23 6 45 6t43 -6q20 -6 37 -23q20 -20 27 -37q8 -23 8 -59q0 -35 -8 -57q-8 -20 -27 -39q-16 -16 -37 -23q-22 -6 -43 -6q-23 0 -45 6q-16 4 -35 23q-16 16 -24 39q-10 26 -10 57z" />
<glyph unicode="&#xf8;" horiz-adv-x="1181" d="M115 551q0 133 35 242q35 106 94 178q61 74 151 110q88 37 201 37q68 0 119 -14q59 -16 106 -43l68 108l131 -73l-80 -129q63 -76 96 -179q35 -109 35 -237q0 -139 -33 -244q-31 -100 -96 -178q-61 -74 -151 -111q-94 -39 -201 -38q-123 0 -223 53l-68 -109l-131 74 l80 131q-65 71 -98 178q-35 111 -35 244zM303 551q0 -78 10 -150q9 -65 31 -116l397 647q-23 16 -67 26q-33 8 -82 9q-156 0 -221 -103q-68 -104 -68 -313zM446 164q23 -14 66 -25q33 -8 82 -8q154 0 221.5 104.5t67.5 315.5q0 162 -39 258z" />
<glyph unicode="&#xf9;" horiz-adv-x="1204" d="M164 381v717h182v-707q0 -129 53.5 -194.5t163.5 -65.5q76 0 135 27q55 25 90 75q31 43 48 125q14 70 14 170v570h182v-1098h-147l-27 147h-10q-27 -45 -60 -75q-29 -25 -75 -52q-40 -22 -86 -30q-51 -10 -95 -10q-88 0 -159 22q-68 23 -117 74q-41 45 -68 125 q-24 78 -24 180zM301 1548v21h219q15 -34 37 -74l45 -82q20 -37 47 -78q6 -8 15.5 -22.5l16.5 -25.5t13 -19v-27h-120q-47 37 -76 70l-80 86q-29 31 -70 84q-35 44 -47 67z" />
<glyph unicode="&#xfa;" horiz-adv-x="1204" d="M164 381v717h182v-707q0 -129 53.5 -194.5t163.5 -65.5q76 0 135 27q55 25 90 75q31 43 48 125q14 70 14 170v570h182v-1098h-147l-27 147h-10q-27 -45 -60 -75q-29 -25 -75 -52q-40 -22 -86 -30q-51 -10 -95 -10q-88 0 -159 22q-68 23 -117 74q-41 45 -68 125 q-24 78 -24 180zM489 1241v27l45 67l22.5 36t24.5 42q8 12 45 82q22 40 37 74h219v-21q-12 -23 -47 -67q-31 -39 -71 -84l-78 -86q-29 -33 -76 -70h-121z" />
<glyph unicode="&#xfb;" horiz-adv-x="1204" d="M164 381v717h182v-707q0 -129 53.5 -194.5t163.5 -65.5q76 0 135 27q55 25 90 75q31 43 48 125q14 70 14 170v570h182v-1098h-147l-27 147h-10q-27 -45 -60 -75q-29 -25 -75 -52q-40 -22 -86 -30q-51 -10 -95 -10q-88 0 -159 22q-68 23 -117 74q-41 45 -68 125 q-24 78 -24 180zM266 1241v27q14 14 28.5 31.5l30.5 35.5q51 55 68 78q6 6 64 82q29 37 45 74h192q16 -37 45 -74q57 -76 64 -82q16 -23 67 -78l60 -67v-27h-121q-45 29 -105 82q-49 43 -106 104l-107 -104q-49 -45 -104 -82h-121z" />
<glyph unicode="&#xfc;" horiz-adv-x="1204" d="M164 381v717h182v-707q0 -129 53.5 -194.5t163.5 -65.5q76 0 135 27q55 25 90 75q31 43 48 125q14 70 14 170v570h182v-1098h-147l-27 147h-10q-27 -45 -60 -75q-29 -25 -75 -52q-40 -22 -86 -30q-51 -10 -95 -10q-88 0 -159 22q-68 23 -117 74q-41 45 -68 125 q-24 78 -24 180zM309 1394.5q0 53.5 29 78.5q28 25 67.5 24.5t67.5 -24.5q29 -25 29 -78.5t-29 -77.5q-28 -25 -67.5 -25t-67.5 25q-29 24 -29 77.5zM684 1394.5q0 53.5 29 78.5q28 25 67 24q18 0 37 -6t31 -18q10 -10 20 -31q8 -16 8 -47q0 -53 -28 -78q-27 -25 -68 -25 q-40 0 -67 25q-29 24 -29 77.5z" />
<glyph unicode="&#xfd;" horiz-adv-x="999" d="M10 1098h189l215 -613l28 -84q8 -20 27 -88q14 -49 23 -86q8 -39 12 -75h6l6 25l10 42q10 43 25 92q16 66 27 97q8 27 15 46t11 33l199 611h188l-434 -1241q-29 -82 -61 -146q-35 -68 -74 -108q-41 -43 -103 -70q-57 -25 -137 -25q-66 0 -90 5q-41 6 -65 12v145 q16 -4 53 -8q41 -4 67 -4q49 0 82 12q41 14 62 33q27 25 45 53q12 20 33 74l57 160zM407 1241v27l45 67l22.5 36t24.5 42q8 12 45 82q22 40 37 74h219v-21q-12 -23 -47 -67q-31 -39 -71 -84l-78 -86q-29 -33 -76 -70h-121z" />
<glyph unicode="&#xfe;" horiz-adv-x="1198" d="M174 -492v2048h182v-458l-8 -148h8q18 29 52 66q29 33 67 53q47 25 86 35q57 14 109 14q95 0 172 -37q76 -37 131 -106q51 -66 84 -178q31 -109 30 -246q0 -141 -30 -248q-33 -113 -84 -178q-57 -74 -131 -109q-77 -37 -172 -36q-49 0 -107 14q-47 12 -86 33 q-31 16 -69 51q-23 20 -52 61h-12l4 -34.5t2 -30.5l4 -54q2 -18 2 -43v-469h-182zM356 551q0 -100 13 -180q12 -76 47 -131q37 -57 86 -82q53 -27 135 -27q133 0 199 109q63 106 63 313q0 209 -63.5 311.5t-200.5 102.5q-74 0 -129 -23q-47 -18 -84 -70q-34 -46 -49 -116 q-12 -59 -17 -166v-41z" />
<glyph unicode="&#xff;" horiz-adv-x="999" d="M10 1098h189l215 -613l28 -84q8 -20 27 -88q14 -49 23 -86q8 -39 12 -75h6l6 25l10 42q10 43 25 92q16 66 27 97q8 27 15 46t11 33l199 611h188l-434 -1241q-29 -82 -61 -146q-35 -68 -74 -108q-41 -43 -103 -70q-57 -25 -137 -25q-66 0 -90 5q-41 6 -65 12v145 q16 -4 53 -8q41 -4 67 -4q49 0 82 12q41 14 62 33q27 25 45 53q12 20 33 74l57 160zM227 1394.5q0 53.5 29 78.5q28 25 67.5 24.5t67.5 -24.5q29 -25 29 -78.5t-29 -77.5q-28 -25 -67.5 -25t-67.5 25q-29 24 -29 77.5zM602 1394.5q0 53.5 29 78.5q28 25 67 24q18 0 37 -6 t31 -18q10 -10 20 -31q8 -16 8 -47q0 -53 -28 -78q-27 -25 -68 -25q-40 0 -67 25q-29 24 -29 77.5z" />
<glyph unicode="&#x100;" horiz-adv-x="1243" d="M0 0l537 1468h170l538 -1468h-190l-160 453h-545l-162 -453h-188zM410 618h426l-148 424l-4 12.5l-4 12.5l-6 18q-2 10 -8.5 25.5t-10.5 32.5l-16 61q-4 18 -9 33.5t-9 30.5q-2 -12 -17 -64l-16 -63q-9 -31 -19 -56q-4 -10 -6 -18t-4 -12t-4 -13zM334 1579v150h575v-150 h-575z" />
<glyph unicode="&#x101;" horiz-adv-x="1085" d="M94 307q0 164 115 252q115 86 352 96l184 7v69q0 70 -14 113t-43 71q-27 27 -67 39t-93 13q-86 0 -155 -25q-82 -29 -137 -57l-64 137q74 40 166 68q96 29 190 28q106 0 177 -20q72 -20 122 -66q45 -39 72 -112q25 -68 25 -168v-752h-131l-37 152h-8q-35 -45 -66 -78 t-72 -54q-41 -23 -88 -30q-55 -10 -110 -10q-61 0 -127 20q-55 18 -101 59q-39 37 -65 103q-25 61 -25 145zM283 305q0 -92 49 -135t127 -43q61 0 112 18q55 20 91 58q39 41 59 98q23 61 22 137v99l-143 -7q-80 -2 -151 -20q-55 -14 -97 -45q-39 -29 -53 -68 q-16 -43 -16 -92zM256 1241v150h575v-150h-575z" />
<glyph unicode="&#x102;" horiz-adv-x="1243" d="M0 0l537 1468h170l538 -1468h-190l-160 453h-545l-162 -453h-188zM410 618h426l-148 424l-4 12.5l-4 12.5l-6 18q-2 10 -8.5 25.5t-10.5 32.5l-16 61q-4 18 -9 33.5t-9 30.5q-2 -12 -17 -64l-16 -63q-9 -31 -19 -56q-4 -10 -6 -18t-4 -12t-4 -13zM322 1856h108 q3 -43 19 -68q16 -27 37 -37q27 -14 57 -16q45 -4 78 -4q25 0 69 4q25 2 58 18q23 10 43 39q16 23 20 64h113q-2 -55 -26.5 -110.5t-59.5 -88.5q-39 -35 -94 -57q-53 -20 -125 -20.5t-127 18.5q-53 18 -92 57q-37 37 -56 88q-20 56 -22 113z" />
<glyph unicode="&#x103;" horiz-adv-x="1085" d="M94 307q0 164 115 252q115 86 352 96l184 7v69q0 70 -14 113t-43 71q-27 27 -67 39t-93 13q-86 0 -155 -25q-82 -29 -137 -57l-64 137q74 40 166 68q96 29 190 28q106 0 177 -20q72 -20 122 -66q45 -39 72 -112q25 -68 25 -168v-752h-131l-37 152h-8q-35 -45 -66 -78 t-72 -54q-41 -23 -88 -30q-55 -10 -110 -10q-61 0 -127 20q-55 18 -101 59q-39 37 -65 103q-25 61 -25 145zM283 305q0 -92 49 -135t127 -43q61 0 112 18q55 20 91 58q39 41 59 98q23 61 22 137v99l-143 -7q-80 -2 -151 -20q-55 -14 -97 -45q-39 -29 -53 -68 q-16 -43 -16 -92zM246 1518h108q3 -43 19 -68q16 -27 37 -37q27 -14 57 -16q45 -4 78 -4q25 0 69 4q25 2 58 18q23 10 43 39q16 23 20 64h113q-2 -55 -26.5 -110.5t-59.5 -88.5q-39 -35 -94 -57q-53 -20 -125 -20.5t-127 18.5q-53 18 -92 57q-37 37 -56 88q-20 56 -22 113z " />
<glyph unicode="&#x104;" horiz-adv-x="1243" d="M0 0l537 1468h170l538 -1468h-190l-160 453h-545l-162 -453h-188zM410 618h426l-148 424l-4 12.5l-4 12.5l-6 18q-2 10 -8.5 25.5t-10.5 32.5l-16 61q-4 18 -9 33.5t-9 30.5q-2 -12 -17 -64l-16 -63q-9 -31 -19 -56q-4 -10 -6 -18t-4 -12t-4 -13zM897 -252q0 45 14 80 q18 43 39 70q33 41 51 57l55 45h129q-139 -133 -139 -238q0 -45 27 -67q23 -20 59 -21q33 0 47 2q22 3 37 7v-113q-25 -8 -57 -12q-41 -4 -62 -4q-100 0 -149 53q-51 55 -51 141z" />
<glyph unicode="&#x105;" horiz-adv-x="1085" d="M94 307q0 164 115 252q115 86 352 96l184 7v69q0 70 -14 113t-43 71q-27 27 -67 39t-93 13q-86 0 -155 -25q-82 -29 -137 -57l-64 137q74 40 166 68q96 29 190 28q106 0 177 -20q72 -20 122 -66q45 -39 72 -112q25 -68 25 -168v-752h-131l-37 152h-8q-35 -45 -66 -78 t-72 -54q-41 -23 -88 -30q-55 -10 -110 -10q-61 0 -127 20q-55 18 -101 59q-39 37 -65 103q-25 61 -25 145zM283 305q0 -92 49 -135t127 -43q61 0 112 18q55 20 91 58q39 41 59 98q23 61 22 137v99l-143 -7q-80 -2 -151 -20q-55 -14 -97 -45q-39 -29 -53 -68 q-16 -43 -16 -92zM633 -252q0 45 14 80q18 43 39 70q33 41 51 57l55 45h129q-139 -133 -139 -238q0 -45 27 -67q23 -20 59 -21q33 0 47 2q22 3 37 7v-113q-25 -8 -57 -12q-41 -4 -62 -4q-100 0 -149 53q-51 55 -51 141z" />
<glyph unicode="&#x106;" horiz-adv-x="1234" d="M125 733q0 164 43 303.5t129 237.5q88 100 209 153q125 55 287 56q104 0 206 -23q98 -20 177 -63l-78 -156q-82 39 -137 55q-78 23 -168 23q-106 0 -195 -41q-86 -40 -147 -117q-59 -74 -94 -184.5t-35 -245.5q0 -139 30 -250q31 -113 88 -184q59 -76 148 -115 q86 -39 205 -39q98 0 170 17q66 14 157 41v-162q-35 -14 -78 -27q-41 -12 -81 -18q-57 -8 -91 -10q-66 -4 -108 -4q-164 0 -285 55t-198 151q-76 92 -115 240q-39 145 -39 307zM659 1579v27l45 67l22.5 36t24.5 42q8 12 45 82q22 40 37 74h219v-21q-12 -23 -47 -67 q-31 -39 -71 -84l-78 -86q-29 -33 -76 -70h-121z" />
<glyph unicode="&#x107;" horiz-adv-x="946" d="M113 542.5q0 149.5 39 266.5q37 111 104 178q72 72 156 100q89 31 190 31q86 0 152 -16q78 -20 125 -43l-54 -154q-14 6 -51 19q-53 18 -57 18t-26.5 5t-33.5 7q-37 4 -55 4q-160 0 -229 -100q-72 -102 -72 -313q0 -213 71.5 -309.5t221.5 -96.5q82 0 147 19 q61 18 119 43v-162q-57 -29 -115 -43q-66 -16 -151 -16q-94 0 -188 32q-89 31 -154 99q-66 70 -102.5 176t-36.5 255.5zM467 1241v27l45 67l22.5 36t24.5 42q8 12 45 82q22 40 37 74h219v-21q-12 -23 -47 -67q-31 -39 -71 -84l-78 -86q-29 -33 -76 -70h-121z" />
<glyph unicode="&#x108;" horiz-adv-x="1234" d="M125 733q0 164 43 303.5t129 237.5q88 100 209 153q125 55 287 56q104 0 206 -23q98 -20 177 -63l-78 -156q-82 39 -137 55q-78 23 -168 23q-106 0 -195 -41q-86 -40 -147 -117q-59 -74 -94 -184.5t-35 -245.5q0 -139 30 -250q31 -113 88 -184q59 -76 148 -115 q86 -39 205 -39q98 0 170 17q66 14 157 41v-162q-35 -14 -78 -27q-41 -12 -81 -18q-57 -8 -91 -10q-66 -4 -108 -4q-164 0 -285 55t-198 151q-76 92 -115 240q-39 145 -39 307zM438 1579v27q14 14 28.5 31.5l30.5 35.5q51 55 68 78q6 6 64 82q29 37 45 74h192q16 -37 45 -74 q57 -76 64 -82q16 -23 67 -78l60 -67v-27h-121q-45 29 -105 82q-49 43 -106 104l-107 -104q-49 -45 -104 -82h-121z" />
<glyph unicode="&#x109;" horiz-adv-x="946" d="M113 542.5q0 149.5 39 266.5q37 111 104 178q72 72 156 100q89 31 190 31q86 0 152 -16q78 -20 125 -43l-54 -154q-14 6 -51 19q-53 18 -57 18t-26.5 5t-33.5 7q-37 4 -55 4q-160 0 -229 -100q-72 -102 -72 -313q0 -213 71.5 -309.5t221.5 -96.5q82 0 147 19 q61 18 119 43v-162q-57 -29 -115 -43q-66 -16 -151 -16q-94 0 -188 32q-89 31 -154 99q-66 70 -102.5 176t-36.5 255.5zM248 1241v27q14 14 28.5 31.5l30.5 35.5q51 55 68 78q6 6 64 82q29 37 45 74h192q16 -37 45 -74q57 -76 64 -82q16 -23 67 -78l60 -67v-27h-121 q-45 29 -105 82q-49 43 -106 104l-107 -104q-49 -45 -104 -82h-121z" />
<glyph unicode="&#x10a;" horiz-adv-x="1234" d="M125 733q0 164 43 303.5t129 237.5q88 100 209 153q125 55 287 56q104 0 206 -23q98 -20 177 -63l-78 -156q-82 39 -137 55q-78 23 -168 23q-106 0 -195 -41q-86 -40 -147 -117q-59 -74 -94 -184.5t-35 -245.5q0 -139 30 -250q31 -113 88 -184q59 -76 148 -115 q86 -39 205 -39q98 0 170 17q66 14 157 41v-162q-35 -14 -78 -27q-41 -12 -81 -18q-57 -8 -91 -10q-66 -4 -108 -4q-164 0 -285 55t-198 151q-76 92 -115 240q-39 145 -39 307zM672 1733q0 59 30 88q29 27 76 26q23 0 41 -6q20 -8 35 -20q12 -12 23 -37q8 -18 8 -51 q0 -58 -31 -86q-33 -29 -76 -29t-76 29q-30 28 -30 86z" />
<glyph unicode="&#x10b;" horiz-adv-x="946" d="M113 542.5q0 149.5 39 266.5q37 111 104 178q72 72 156 100q89 31 190 31q86 0 152 -16q78 -20 125 -43l-54 -154q-14 6 -51 19q-53 18 -57 18t-26.5 5t-33.5 7q-37 4 -55 4q-160 0 -229 -100q-72 -102 -72 -313q0 -213 71.5 -309.5t221.5 -96.5q82 0 147 19 q61 18 119 43v-162q-57 -29 -115 -43q-66 -16 -151 -16q-94 0 -188 32q-89 31 -154 99q-66 70 -102.5 176t-36.5 255.5zM467 1395q0 59 30 88q29 27 76 26q23 0 41 -6q20 -8 35 -20q12 -12 23 -37q8 -18 8 -51q0 -58 -31 -86q-33 -29 -76 -29t-76 29q-30 28 -30 86z" />
<glyph unicode="&#x10c;" horiz-adv-x="1234" d="M125 733q0 164 43 303.5t129 237.5q88 100 209 153q125 55 287 56q104 0 206 -23q98 -20 177 -63l-78 -156q-82 39 -137 55q-78 23 -168 23q-106 0 -195 -41q-86 -40 -147 -117q-59 -74 -94 -184.5t-35 -245.5q0 -139 30 -250q31 -113 88 -184q59 -76 148 -115 q86 -39 205 -39q98 0 170 17q66 14 157 41v-162q-35 -14 -78 -27q-41 -12 -81 -18q-57 -8 -91 -10q-66 -4 -108 -4q-164 0 -285 55t-198 151q-76 92 -115 240q-39 145 -39 307zM426 1880v27h121q55 -37 104 -82l107 -105q57 61 106 105q59 53 105 82h121v-27l-60 -67 q-51 -55 -67 -78q-23 -27 -64 -80q-27 -33 -45 -76h-192q-18 43 -45 76q-41 53 -64 80q-16 23 -68 78l-30.5 35.5t-28.5 31.5z" />
<glyph unicode="&#x10d;" horiz-adv-x="946" d="M113 542.5q0 149.5 39 266.5q37 111 104 178q72 72 156 100q89 31 190 31q86 0 152 -16q78 -20 125 -43l-54 -154q-14 6 -51 19q-53 18 -57 18t-26.5 5t-33.5 7q-37 4 -55 4q-160 0 -229 -100q-72 -102 -72 -313q0 -213 71.5 -309.5t221.5 -96.5q82 0 147 19 q61 18 119 43v-162q-57 -29 -115 -43q-66 -16 -151 -16q-94 0 -188 32q-89 31 -154 99q-66 70 -102.5 176t-36.5 255.5zM264 1542v27h121q55 -37 104 -82l107 -105q57 61 106 105q59 53 105 82h121v-27l-60 -67q-51 -55 -67 -78q-23 -27 -64 -80q-27 -33 -45 -76h-192 q-18 43 -45 76q-41 53 -64 80q-16 23 -68 78l-30.5 35.5t-28.5 31.5z" />
<glyph unicode="&#x10e;" horiz-adv-x="1400" d="M199 0v1462h407q152 0 277 -47q127 -47 211 -135q90 -94 135 -225q47 -137 47 -310q0 -193 -47 -325q-51 -143 -139 -232q-98 -98 -224 -141q-135 -47 -301 -47h-366zM385 160h162q264 0 397 145q135 147 135 434q0 147 -32 252q-35 113 -97 176q-68 70 -155 103 q-90 33 -209 33h-201v-1143zM332 1880v27h121q55 -37 104 -82l107 -105q57 61 106 105q59 53 105 82h121v-27l-60 -67q-51 -55 -67 -78q-23 -27 -64 -80q-27 -33 -45 -76h-192q-18 43 -45 76q-41 53 -64 80q-16 23 -68 78l-30.5 35.5t-28.5 31.5z" />
<glyph unicode="&#x10f;" horiz-adv-x="1198" d="M113 547q0 141 30 248q33 113 84 178q55 72 133 108.5t170 36.5q57 0 107 -12q33 -8 86 -37q37 -20 70 -49q23 -20 51 -62h12l-4 35t-2 31l-4 53q-2 18 -2 43v436h182v-1556h-147l-27 147h-8q-25 -39 -51 -65q-37 -37 -68 -53q-47 -25 -86 -35q-57 -14 -109 -14 q-92 0 -170 36q-80 39 -133 107q-51 66 -84 178q-30 109 -30 246zM301 545q0 -211 64 -312q66 -102 200 -102q74 0 129 23q47 18 84 69q33 45 49 119q12 59 17 164v41q0 100 -13 180q-12 76 -47 131q-37 57 -86 82q-53 27 -135 27q-133 0 -198 -109q-64 -106 -64 -313z M1120 1229v26q12 41 19 68q4 12 8 39t8 41q12 53 16 80q8 55 11 73h180v-20q-8 -29 -21 -63q-14 -35 -37 -82l-43 -86q-20 -39 -45 -76h-96z" />
<glyph unicode="&#x110;" horiz-adv-x="1400" d="M47 643v162h152v657h407q152 0 277 -47q127 -47 211 -135q90 -94 135 -225q47 -137 47 -310q0 -193 -47 -325q-51 -143 -139 -232q-98 -98 -224 -141q-135 -47 -301 -47h-366v643h-152zM385 160h162q264 0 397 145q135 147 135 434q0 147 -32 252q-35 113 -97 176 q-68 70 -155 103q-90 33 -209 33h-201v-498h336v-162h-336v-483z" />
<glyph unicode="&#x111;" horiz-adv-x="1198" d="M113 526q0 133 30.5 237.5t84 172.5t132.5 106q72 35 170 35q57 0 107 -12q39 -10 86 -35q31 -16 70 -51q23 -20 51 -61h12l-4 32.5t-2 30.5l-4 55q-2 18 -2 43v158h-379v137h379v182h182v-182h156v-137h-156v-1237h-147l-27 147h-8q-25 -39 -51 -65q-37 -37 -68 -53 q-47 -25 -86 -35q-57 -14 -109 -14q-90 0 -170 34q-74 33 -133 105q-51 61 -84 172q-30 102 -30 235zM301 524q0 -199 64 -295q66 -98 200 -98q74 0 129 23q47 20 84 65q34 43 49 111q12 57 17 157v39q0 98 -13 172q-12 70 -47 125q-35 53 -86 76q-59 27 -135 27 q-135 0 -198.5 -102.5t-63.5 -299.5z" />
<glyph unicode="&#x112;" horiz-adv-x="1079" d="M199 0v1462h759v-164h-573v-452h535v-162h-535v-520h573v-164h-759zM293 1579v150h575v-150h-575z" />
<glyph unicode="&#x113;" horiz-adv-x="1095" d="M113 541q0 139 32 243q35 109 95 181q63 76 143 114.5t184 38.5q102 0 178 -35q78 -37 134 -100q51 -59 84 -156q31 -90 30 -200v-113h-692q6 -195 82 -285t227 -90q66 0 95 4q57 8 83 15q43 10 78 24q70 29 78 33v-162l-78 -33q-27 -10 -80 -22t-84 -14q-57 -4 -94 -4 q-109 0 -201 36.5t-157 108.5q-61 68 -100 176q-37 105 -37 240zM305 662h492q0 70 -13 124q-10 51 -43 97q-27 39 -71.5 61.5t-106.5 22.5q-113 0 -180 -78q-66 -73 -78 -227zM283 1241v150h575v-150h-575z" />
<glyph unicode="&#x114;" horiz-adv-x="1079" d="M199 0v1462h759v-164h-573v-452h535v-162h-535v-520h573v-164h-759zM285 1856h108q3 -43 19 -68q16 -27 37 -37q27 -14 57 -16q45 -4 78 -4q25 0 69 4q25 2 58 18q23 10 43 39q16 23 20 64h113q-2 -55 -26.5 -110.5t-59.5 -88.5q-39 -35 -94 -57q-53 -20 -125 -20.5 t-127 18.5q-53 18 -92 57q-37 37 -56 88q-20 56 -22 113z" />
<glyph unicode="&#x115;" horiz-adv-x="1095" d="M113 541q0 139 32 243q35 109 95 181q63 76 143 114.5t184 38.5q102 0 178 -35q78 -37 134 -100q51 -59 84 -156q31 -90 30 -200v-113h-692q6 -195 82 -285t227 -90q66 0 95 4q57 8 83 15q43 10 78 24q70 29 78 33v-162l-78 -33q-27 -10 -80 -22t-84 -14q-57 -4 -94 -4 q-109 0 -201 36.5t-157 108.5q-61 68 -100 176q-37 105 -37 240zM305 662h492q0 70 -13 124q-10 51 -43 97q-27 39 -71.5 61.5t-106.5 22.5q-113 0 -180 -78q-66 -73 -78 -227zM266 1518h108q3 -43 19 -68q16 -27 37 -37q27 -14 57 -16q45 -4 78 -4q25 0 69 4q25 2 58 18 q23 10 43 39q16 23 20 64h113q-2 -55 -26.5 -110.5t-59.5 -88.5q-39 -35 -94 -57q-53 -20 -125 -20.5t-127 18.5q-53 18 -92 57q-37 37 -56 88q-20 56 -22 113z" />
<glyph unicode="&#x116;" horiz-adv-x="1079" d="M199 0v1462h759v-164h-573v-452h535v-162h-535v-520h573v-164h-759zM479 1704q0 59 30 88q29 27 76 26q23 0 41 -6q20 -8 35 -20q12 -12 23 -37q8 -18 8 -51q0 -58 -31 -86q-33 -29 -76 -29t-76 29q-30 28 -30 86z" />
<glyph unicode="&#x117;" horiz-adv-x="1095" d="M113 541q0 139 32 243q35 109 95 181q63 76 143 114.5t184 38.5q102 0 178 -35q78 -37 134 -100q51 -59 84 -156q31 -90 30 -200v-113h-692q6 -195 82 -285t227 -90q66 0 95 4q57 8 83 15q43 10 78 24q70 29 78 33v-162l-78 -33q-27 -10 -80 -22t-84 -14q-57 -4 -94 -4 q-109 0 -201 36.5t-157 108.5q-61 68 -100 176q-37 105 -37 240zM305 662h492q0 70 -13 124q-10 51 -43 97q-27 39 -71.5 61.5t-106.5 22.5q-113 0 -180 -78q-66 -73 -78 -227zM459 1395q0 59 30 88q29 27 76 26q23 0 41 -6q20 -8 35 -20q12 -12 23 -37q8 -18 8 -51 q0 -58 -31 -86q-33 -29 -76 -29t-76 29q-30 28 -30 86z" />
<glyph unicode="&#x118;" horiz-adv-x="1079" d="M199 0v1462h759v-164h-573v-452h535v-162h-535v-520h573v-164h-759zM576 -252q0 45 14 80q18 43 39 70q33 41 51 57l55 45h129q-139 -133 -139 -238q0 -45 27 -67q23 -20 59 -21q33 0 47 2q22 3 37 7v-113q-25 -8 -57 -12q-41 -4 -62 -4q-100 0 -149 53q-51 55 -51 141z " />
<glyph unicode="&#x119;" horiz-adv-x="1095" d="M113 541q0 139 32 243q35 109 95 181q63 76 143 114.5t184 38.5q102 0 178 -35q78 -37 134 -100q51 -59 84 -156q31 -90 30 -200v-113h-692q6 -195 82 -285t227 -90q66 0 95 4q57 8 83 15q43 10 78 24q70 29 78 33v-162l-78 -33q-27 -10 -80 -22t-84 -14q-57 -4 -94 -4 q-109 0 -201 36.5t-157 108.5q-61 68 -100 176q-37 105 -37 240zM305 662h492q0 70 -13 124q-10 51 -43 97q-27 39 -71.5 61.5t-106.5 22.5q-113 0 -180 -78q-66 -73 -78 -227zM602 -221q0 45 14 80q18 43 39 70q33 41 51 57l55 45h129q-139 -133 -139 -238q0 -45 27 -67 q23 -20 59 -21q33 0 47 2q22 3 37 7v-113q-25 -8 -57 -12q-41 -4 -62 -4q-100 0 -149 53q-51 55 -51 141z" />
<glyph unicode="&#x11a;" horiz-adv-x="1079" d="M199 0v1462h759v-164h-573v-452h535v-162h-535v-520h573v-164h-759zM252 1880v27h121q55 -37 104 -82l107 -105q57 61 106 105q59 53 105 82h121v-27l-60 -67q-51 -55 -67 -78q-23 -27 -64 -80q-27 -33 -45 -76h-192q-18 43 -45 76q-41 53 -64 80q-16 23 -68 78 l-30.5 35.5t-28.5 31.5z" />
<glyph unicode="&#x11b;" horiz-adv-x="1095" d="M113 541q0 139 32 243q35 109 95 181q63 76 143 114.5t184 38.5q102 0 178 -35q78 -37 134 -100q51 -59 84 -156q31 -90 30 -200v-113h-692q6 -195 82 -285t227 -90q66 0 95 4q57 8 83 15q43 10 78 24q70 29 78 33v-162l-78 -33q-27 -10 -80 -22t-84 -14q-57 -4 -94 -4 q-109 0 -201 36.5t-157 108.5q-61 68 -100 176q-37 105 -37 240zM305 662h492q0 70 -13 124q-10 51 -43 97q-27 39 -71.5 61.5t-106.5 22.5q-113 0 -180 -78q-66 -73 -78 -227zM229 1542v27h121q55 -37 104 -82l107 -105q57 61 106 105q59 53 105 82h121v-27l-60 -67 q-51 -55 -67 -78q-23 -27 -64 -80q-27 -33 -45 -76h-192q-18 43 -45 76q-41 53 -64 80q-16 23 -68 78l-30.5 35.5t-28.5 31.5z" />
<glyph unicode="&#x11c;" horiz-adv-x="1411" d="M125 733q0 170 47 311q45 135 139 236q92 98 224 150q135 53 305 53q106 0 213 -23q104 -23 190 -63l-72 -162q-35 18 -77 33q-29 10 -86 26q-43 12 -90 19q-46 6 -93 6q-119 0 -217 -41q-92 -39 -157 -117q-61 -74 -97 -184q-33 -104 -32 -246q0 -127 28 -237 q31 -117 86 -187q63 -80 156 -121q96 -43 229 -43q55 0 80 2q37 3 68 7q25 2 59 10q27 6 53 10v436h-299v164h484v-717q-37 -12 -111 -32q-37 -10 -115 -23q-39 -6 -125 -14q-63 -6 -139 -6q-156 0 -278 53q-121 53 -203 149q-84 100 -127 238t-43 313zM473 1579v27 q14 14 28.5 31.5l30.5 35.5q51 55 68 78q6 6 64 82q29 37 45 74h192q16 -37 45 -74q57 -76 64 -82q16 -23 67 -78l60 -67v-27h-121q-45 29 -105 82q-49 43 -106 104l-107 -104q-49 -45 -104 -82h-121z" />
<glyph unicode="&#x11d;" horiz-adv-x="1060" d="M37 -186q0 55 20 106q18 45 52 78q29 29 77 53q37 18 90 33q-41 16 -69 59q-27 39 -27 95q0 61 33 106q29 41 100 86q-39 16 -77 49q-35 29 -62 72q-25 41 -37 88q-14 57 -14 100q0 88 24 158q25 72 74 121t123 74q80 27 170 26q35 0 76 -6q45 -6 67 -14h363v-113 l-197 -27q29 -35 47.5 -90t18.5 -123q0 -82 -23 -141q-25 -63 -71 -110q-46 -46 -117 -74q-68 -27 -164 -27h-45q-14 0 -35 4q-12 -6 -33 -22q-23 -16 -30 -29q-14 -18 -22.5 -36.5t-8.5 -43.5q0 -28 12 -43q14 -18 33 -26q23 -10 47 -13q18 -2 60 -2h176q94 0 157 -24 q66 -25 105 -64t57.5 -94t18.5 -115q0 -90 -33 -157q-35 -72 -99 -119q-72 -51 -169 -76q-102 -25 -242 -25q-111 0 -187 21q-82 23 -133 61.5t-80 96.5q-26 53 -26 127zM209 -180q0 -39 12 -70q12 -33 43 -53q39 -27 78 -37q57 -14 121 -14q188 0 278 57q92 58 93 166 q0 49 -13 76q-14 31 -39 45q-31 16 -71 22q-46 6 -111 6h-176q-41 0 -74 -8q-41 -10 -69 -30q-31 -23 -52 -60q-20 -39 -20 -100zM301 745.5q0 -118.5 53 -172.5q55 -55 153.5 -55t151.5 55q51 53 52 175q0 125 -51.5 182t-153.5 57q-100 0 -152 -59q-53 -64 -53 -182.5z M201 1241v27q14 14 28.5 31.5l30.5 35.5q51 55 68 78q6 6 64 82q29 37 45 74h192q16 -37 45 -74q57 -76 64 -82q16 -23 67 -78l60 -67v-27h-121q-45 29 -105 82q-49 43 -106 104l-107 -104q-49 -45 -104 -82h-121z" />
<glyph unicode="&#x11e;" horiz-adv-x="1411" d="M125 733q0 170 47 311q45 135 139 236q92 98 224 150q135 53 305 53q106 0 213 -23q104 -23 190 -63l-72 -162q-35 18 -77 33q-29 10 -86 26q-43 12 -90 19q-46 6 -93 6q-119 0 -217 -41q-92 -39 -157 -117q-61 -74 -97 -184q-33 -104 -32 -246q0 -127 28 -237 q31 -117 86 -187q63 -80 156 -121q96 -43 229 -43q55 0 80 2q37 3 68 7q25 2 59 10q27 6 53 10v436h-299v164h484v-717q-37 -12 -111 -32q-37 -10 -115 -23q-39 -6 -125 -14q-63 -6 -139 -6q-156 0 -278 53q-121 53 -203 149q-84 100 -127 238t-43 313zM490 1856h108 q3 -43 19 -68q16 -27 37 -37q27 -14 57 -16q45 -4 78 -4q25 0 69 4q25 2 58 18q23 10 43 39q16 23 20 64h113q-2 -55 -26.5 -110.5t-59.5 -88.5q-39 -35 -94 -57q-53 -20 -125 -20.5t-127 18.5q-53 18 -92 57q-37 37 -56 88q-20 56 -22 113z" />
<glyph unicode="&#x11f;" horiz-adv-x="1060" d="M37 -186q0 55 20 106q18 45 52 78q29 29 77 53q37 18 90 33q-41 16 -69 59q-27 39 -27 95q0 61 33 106q29 41 100 86q-39 16 -77 49q-35 29 -62 72q-25 41 -37 88q-14 57 -14 100q0 88 24 158q25 72 74 121t123 74q80 27 170 26q35 0 76 -6q45 -6 67 -14h363v-113 l-197 -27q29 -35 47.5 -90t18.5 -123q0 -82 -23 -141q-25 -63 -71 -110q-46 -46 -117 -74q-68 -27 -164 -27h-45q-14 0 -35 4q-12 -6 -33 -22q-23 -16 -30 -29q-14 -18 -22.5 -36.5t-8.5 -43.5q0 -28 12 -43q14 -18 33 -26q23 -10 47 -13q18 -2 60 -2h176q94 0 157 -24 q66 -25 105 -64t57.5 -94t18.5 -115q0 -90 -33 -157q-35 -72 -99 -119q-72 -51 -169 -76q-102 -25 -242 -25q-111 0 -187 21q-82 23 -133 61.5t-80 96.5q-26 53 -26 127zM209 -180q0 -39 12 -70q12 -33 43 -53q39 -27 78 -37q57 -14 121 -14q188 0 278 57q92 58 93 166 q0 49 -13 76q-14 31 -39 45q-31 16 -71 22q-46 6 -111 6h-176q-41 0 -74 -8q-41 -10 -69 -30q-31 -23 -52 -60q-20 -39 -20 -100zM301 745.5q0 -118.5 53 -172.5q55 -55 153.5 -55t151.5 55q51 53 52 175q0 125 -51.5 182t-153.5 57q-100 0 -152 -59q-53 -64 -53 -182.5z M209 1518h108q3 -43 19 -68q16 -27 37 -37q27 -14 57 -16q45 -4 78 -4q25 0 69 4q25 2 58 18q23 10 43 39q16 23 20 64h113q-2 -55 -26.5 -110.5t-59.5 -88.5q-39 -35 -94 -57q-53 -20 -125 -20.5t-127 18.5q-53 18 -92 57q-37 37 -56 88q-20 56 -22 113z" />
<glyph unicode="&#x120;" horiz-adv-x="1411" d="M125 733q0 170 47 311q45 135 139 236q92 98 224 150q135 53 305 53q106 0 213 -23q104 -23 190 -63l-72 -162q-35 18 -77 33q-29 10 -86 26q-43 12 -90 19q-46 6 -93 6q-119 0 -217 -41q-92 -39 -157 -117q-61 -74 -97 -184q-33 -104 -32 -246q0 -127 28 -237 q31 -117 86 -187q63 -80 156 -121q96 -43 229 -43q55 0 80 2q37 3 68 7q25 2 59 10q27 6 53 10v436h-299v164h484v-717q-37 -12 -111 -32q-37 -10 -115 -23q-39 -6 -125 -14q-63 -6 -139 -6q-156 0 -278 53q-121 53 -203 149q-84 100 -127 238t-43 313zM684 1733q0 59 30 88 q29 27 76 26q23 0 41 -6q20 -8 35 -20q12 -12 23 -37q8 -18 8 -51q0 -58 -31 -86q-33 -29 -76 -29t-76 29q-30 28 -30 86z" />
<glyph unicode="&#x121;" horiz-adv-x="1060" d="M37 -186q0 55 20 106q18 45 52 78q29 29 77 53q37 18 90 33q-41 16 -69 59q-27 39 -27 95q0 61 33 106q29 41 100 86q-39 16 -77 49q-35 29 -62 72q-25 41 -37 88q-14 57 -14 100q0 88 24 158q25 72 74 121t123 74q80 27 170 26q35 0 76 -6q45 -6 67 -14h363v-113 l-197 -27q29 -35 47.5 -90t18.5 -123q0 -82 -23 -141q-25 -63 -71 -110q-46 -46 -117 -74q-68 -27 -164 -27h-45q-14 0 -35 4q-12 -6 -33 -22q-23 -16 -30 -29q-14 -18 -22.5 -36.5t-8.5 -43.5q0 -28 12 -43q14 -18 33 -26q23 -10 47 -13q18 -2 60 -2h176q94 0 157 -24 q66 -25 105 -64t57.5 -94t18.5 -115q0 -90 -33 -157q-35 -72 -99 -119q-72 -51 -169 -76q-102 -25 -242 -25q-111 0 -187 21q-82 23 -133 61.5t-80 96.5q-26 53 -26 127zM209 -180q0 -39 12 -70q12 -33 43 -53q39 -27 78 -37q57 -14 121 -14q188 0 278 57q92 58 93 166 q0 49 -13 76q-14 31 -39 45q-31 16 -71 22q-46 6 -111 6h-176q-41 0 -74 -8q-41 -10 -69 -30q-31 -23 -52 -60q-20 -39 -20 -100zM301 745.5q0 -118.5 53 -172.5q55 -55 153.5 -55t151.5 55q51 53 52 175q0 125 -51.5 182t-153.5 57q-100 0 -152 -59q-53 -64 -53 -182.5z M402 1395q0 59 30 88q29 27 76 26q23 0 41 -6q20 -8 35 -20q12 -12 23 -37q8 -18 8 -51q0 -58 -31 -86q-33 -29 -76 -29t-76 29q-30 28 -30 86z" />
<glyph unicode="&#x122;" horiz-adv-x="1411" d="M125 733q0 170 47 311q45 135 139 236q92 98 224 150q135 53 305 53q106 0 213 -23q104 -23 190 -63l-72 -162q-35 18 -77 33q-29 10 -86 26q-43 12 -90 19q-46 6 -93 6q-119 0 -217 -41q-92 -39 -157 -117q-61 -74 -97 -184q-33 -104 -32 -246q0 -127 28 -237 q31 -117 86 -187q63 -80 156 -121q96 -43 229 -43q55 0 80 2q37 3 68 7q25 2 59 10q27 6 53 10v436h-299v164h484v-717q-37 -12 -111 -32q-37 -10 -115 -23q-39 -6 -125 -14q-63 -6 -139 -6q-156 0 -278 53q-121 53 -203 149q-84 100 -127 238t-43 313zM646 -426 q10 20 24 64l25 79q18 63 22 84q10 45 13 74h178v-20q-8 -29 -21 -64q-6 -18 -39 -82q-22 -43 -49 -86q-25 -39 -55 -76h-98v27z" />
<glyph unicode="&#x123;" horiz-adv-x="1060" d="M37 -186q0 55 20 106q18 45 52 78q29 29 77 53q37 18 90 33q-41 16 -69 59q-27 39 -27 95q0 61 33 106q29 41 100 86q-39 16 -77 49q-35 29 -62 72q-25 41 -37 88q-14 57 -14 100q0 88 24 158q25 72 74 121t123 74q80 27 170 26q35 0 76 -6q45 -6 67 -14h363v-113 l-197 -27q29 -35 47.5 -90t18.5 -123q0 -82 -23 -141q-25 -63 -71 -110q-46 -46 -117 -74q-68 -27 -164 -27h-45q-14 0 -35 4q-12 -6 -33 -22q-23 -16 -30 -29q-14 -18 -22.5 -36.5t-8.5 -43.5q0 -28 12 -43q14 -18 33 -26q23 -10 47 -13q18 -2 60 -2h176q94 0 157 -24 q66 -25 105 -64t57.5 -94t18.5 -115q0 -90 -33 -157q-35 -72 -99 -119q-72 -51 -169 -76q-102 -25 -242 -25q-111 0 -187 21q-82 23 -133 61.5t-80 96.5q-26 53 -26 127zM209 -180q0 -39 12 -70q12 -33 43 -53q39 -27 78 -37q57 -14 121 -14q188 0 278 57q92 58 93 166 q0 49 -13 76q-14 31 -39 45q-31 16 -71 22q-46 6 -111 6h-176q-41 0 -74 -8q-41 -10 -69 -30q-31 -23 -52 -60q-20 -39 -20 -100zM301 745.5q0 -118.5 53 -172.5q55 -55 153.5 -55t151.5 55q51 53 52 175q0 125 -51.5 182t-153.5 57q-100 0 -152 -59q-53 -64 -53 -182.5z M426 1241v21q8 29 20 63q6 18 39 82q22 43 49 86q25 39 56 76h98v-27q-10 -20 -25 -63q-12 -37 -24 -80q-18 -63 -23 -84q-10 -45 -12 -74h-178z" />
<glyph unicode="&#x124;" horiz-adv-x="1435" d="M199 0v1462h186v-616h666v616h186v-1462h-186v682h-666v-682h-186zM385 1579v27q14 14 28.5 31.5l30.5 35.5q51 55 68 78q6 6 64 82q29 37 45 74h192q16 -37 45 -74q57 -76 64 -82q16 -23 67 -78l60 -67v-27h-121q-45 29 -105 82q-49 43 -106 104l-107 -104 q-49 -45 -104 -82h-121z" />
<glyph unicode="&#x125;" horiz-adv-x="1204" d="M174 0v1556h182v-462l-8 -144h10q23 41 60 74q33 31 76 53q40 22 86 31q51 10 94 10q184 0 276 -96t92 -305v-717h-182v707q0 129 -53 194.5t-164 65.5q-76 0 -135 -27q-57 -27 -90 -76q-31 -47 -47 -125q-14 -70 -15 -170v-569h-182zM301 1634v27q14 14 28.5 31.5 l30.5 35.5q51 55 68 78q6 6 64 82q29 37 45 74h192q16 -37 45 -74q57 -76 64 -82q16 -23 67 -78l60 -67v-27h-121q-45 29 -105 82q-49 43 -106 104l-107 -104q-49 -45 -104 -82h-121z" />
<glyph unicode="&#x126;" horiz-adv-x="1435" d="M0 1069v150h199v243h186v-243h666v243h186v-243h199v-150h-199v-1069h-186v682h-666v-682h-186v1069h-199zM385 846h666v223h-666v-223z" />
<glyph unicode="&#x127;" horiz-adv-x="1204" d="M18 1237v137h156v182h182v-182h379v-137h-379v-184l-8 -144h10q23 41 60 74q33 31 76 53q40 22 86 31q51 10 94 10q184 0 276 -96t92 -305v-676h-182v666q0 129 -53 194.5t-164 65.5q-76 0 -135 -27q-57 -27 -90 -76q-31 -47 -47 -125q-14 -70 -15 -170v-528h-182v1237 h-156z" />
<glyph unicode="&#x128;" horiz-adv-x="692" d="M82 0v102l172 41v1176l-172 41v102h530v-102l-172 -41v-1176l172 -41v-102h-530zM-10 1579q6 63 21 109q16 51 43 84q31 37 63 53q37 18 84 18q43 0 82 -18q8 -4 25.5 -11.5l31 -13.5t23.5 -12l71 -39q35 -18 64 -18q45 0 68 26q25 27 38 88h105q-6 -63 -21 -108 q-16 -51 -43 -84q-31 -37 -63 -53q-37 -18 -84 -19q-45 0 -80 17q-37 16 -78 40q-14 8 -41.5 22.5t-29.5 16.5q-31 16 -68 17q-45 0 -70 -27q-20 -23 -37 -88h-104z" />
<glyph unicode="&#x129;" horiz-adv-x="528" d="M174 0v1098h182v-1098h-182zM-92 1241q6 63 21 109q16 51 43 84q31 37 63 53q37 18 84 18q43 0 82 -18q8 -4 25.5 -11.5l31 -13.5t23.5 -12l71 -39q35 -18 64 -18q45 0 68 26q25 27 38 88h105q-6 -63 -21 -108q-16 -51 -43 -84q-31 -37 -63 -53q-37 -18 -84 -19 q-45 0 -80 17q-37 16 -78 40q-14 8 -41.5 22.5t-29.5 16.5q-31 16 -68 17q-45 0 -70 -27q-20 -23 -37 -88h-104z" />
<glyph unicode="&#x12a;" horiz-adv-x="692" d="M82 0v102l172 41v1176l-172 41v102h530v-102l-172 -41v-1176l172 -41v-102h-530zM62 1579v150h575v-150h-575z" />
<glyph unicode="&#x12b;" horiz-adv-x="528" d="M174 0v1098h182v-1098h-182zM-20 1241v150h575v-150h-575z" />
<glyph unicode="&#x12c;" horiz-adv-x="692" d="M82 0v102l172 41v1176l-172 41v102h530v-102l-172 -41v-1176l172 -41v-102h-530zM47 1856h108q3 -43 19 -68q16 -27 37 -37q27 -14 57 -16q45 -4 78 -4q25 0 69 4q25 2 58 18q23 10 43 39q16 23 20 64h113q-2 -55 -26.5 -110.5t-59.5 -88.5q-39 -35 -94 -57 q-53 -20 -125 -20.5t-127 18.5q-53 18 -92 57q-37 37 -56 88q-20 56 -22 113z" />
<glyph unicode="&#x12d;" horiz-adv-x="528" d="M174 0v1098h182v-1098h-182zM-35 1518h108q3 -43 19 -68q16 -27 37 -37q27 -14 57 -16q45 -4 78 -4q25 0 69 4q25 2 58 18q23 10 43 39q16 23 20 64h113q-2 -55 -26.5 -110.5t-59.5 -88.5q-39 -35 -94 -57q-53 -20 -125 -20.5t-127 18.5q-53 18 -92 57q-37 37 -56 88 q-20 56 -22 113z" />
<glyph unicode="&#x12e;" horiz-adv-x="692" d="M82 0v102l172 41v1176l-172 41v102h530v-102l-172 -41v-1176l172 -41v-102h-530zM187 -252q0 45 14 80q18 43 39 70q33 41 51 57l55 45h129q-139 -133 -139 -238q0 -45 27 -67q23 -20 59 -21q33 0 47 2q22 3 37 7v-113q-25 -8 -57 -12q-41 -4 -62 -4q-100 0 -149 53 q-51 55 -51 141z" />
<glyph unicode="&#x12f;" horiz-adv-x="528" d="M160 1395q0 59 30 88q29 27 76 26q23 0 41 -6q20 -8 35 -20q12 -12 23 -37q8 -18 8 -51q0 -58 -31 -86q-33 -29 -76 -29t-76 29q-30 28 -30 86zM174 0v1098h182v-1098h-182zM68 -252q0 45 14 80q18 43 39 70q33 41 51 57l55 45h129q-139 -133 -139 -238q0 -45 27 -67 q23 -20 59 -21q33 0 47 2q22 3 37 7v-113q-25 -8 -57 -12q-41 -4 -62 -4q-100 0 -149 53q-51 55 -51 141z" />
<glyph unicode="&#x130;" horiz-adv-x="692" d="M82 0v102l172 41v1176l-172 41v102h530v-102l-172 -41v-1176l172 -41v-102h-530zM240 1733q0 59 30 88q29 27 76 26q23 0 41 -6q20 -8 35 -20q12 -12 23 -37q8 -18 8 -51q0 -58 -31 -86q-33 -29 -76 -29t-76 29q-30 28 -30 86z" />
<glyph unicode="&#x131;" horiz-adv-x="528" d="M174 0v1098h182v-1098h-182z" />
<glyph unicode="&#x132;" horiz-adv-x="1247" d="M82 0v102l172 41v1176l-172 41v102h530v-102l-172 -41v-1176l172 -41v-102h-530zM510 -205q25 -6 73 -14q41 -6 84 -6q33 0 74 10q35 8 68 35q35 27 51 67q18 43 18 113v1462h187v-1442q0 -111 -29 -182q-33 -80 -82 -127q-55 -51 -127 -76q-74 -25 -162 -24q-53 0 -90 6 q-39 6 -65 18v160z" />
<glyph unicode="&#x133;" horiz-adv-x="1060" d="M160 1395q0 59 30 88q29 27 76 26q23 0 41 -6q20 -8 35 -20q12 -12 23 -37q8 -18 8 -51q0 -58 -31 -86q-33 -29 -76 -29t-76 29q-30 28 -30 86zM174 0v1098h182v-1098h-182zM462 -319q16 -6 54 -15q28 -6 61 -6q20 0 49 8q20 6 41 27q18 18 27 51q10 37 10 84v1268h182 v-1256q0 -84 -16 -139q-20 -66 -53 -104q-37 -43 -92 -68q-51 -23 -129 -23q-49 0 -80 7q-33 6 -54 18v148zM690 1395q0 59 30 88q29 27 76 26q23 0 41 -6q20 -8 35 -20q12 -12 23 -37q8 -18 8 -51q0 -58 -31 -86q-33 -29 -76 -29t-76 29q-30 28 -30 86z" />
<glyph unicode="&#x134;" horiz-adv-x="552" d="M-184 -205q25 -6 73 -14q41 -6 84 -6q33 0 74 10q35 8 68 35q35 27 51 67q18 43 18 113v1462h187v-1442q0 -111 -29 -182q-33 -80 -82 -127q-55 -51 -127 -76q-74 -25 -162 -24q-53 0 -90 6q-39 6 -65 18v160zM-51 1579v27q14 14 28.5 31.5l30.5 35.5q51 55 68 78 q6 6 64 82q29 37 45 74h192q16 -37 45 -74q57 -76 64 -82q16 -23 67 -78l60 -67v-27h-121q-45 29 -105 82q-49 43 -106 104l-107 -104q-49 -45 -104 -82h-121z" />
<glyph unicode="&#x135;" horiz-adv-x="528" d="M-68 -319q16 -6 54 -15q28 -6 61 -6q20 0 49 8q20 6 41 27q18 18 27 51q10 37 10 84v1268h182v-1256q0 -84 -16 -139q-20 -66 -53 -104q-37 -43 -92 -68q-51 -23 -129 -23q-49 0 -80 7q-33 6 -54 18v148zM-66 1241v27q14 14 28.5 31.5l30.5 35.5q51 55 68 78q6 6 64 82 q29 37 45 74h192q16 -37 45 -74q57 -76 64 -82q16 -23 67 -78l60 -67v-27h-121q-45 29 -105 82q-49 43 -106 104l-107 -104q-49 -45 -104 -82h-121z" />
<glyph unicode="&#x136;" horiz-adv-x="1185" d="M199 0v1462h186v-731l121 168l452 563h209l-520 -637l539 -825h-211l-451 698l-139 -114v-584h-186zM482 -426q10 20 24 64l25 79q18 63 22 84q10 45 13 74h178v-20q-8 -29 -21 -64q-6 -18 -39 -82q-22 -43 -49 -86q-25 -39 -55 -76h-98v27z" />
<glyph unicode="&#x137;" horiz-adv-x="1015" d="M174 0v1556h180v-714l-16 -275h4l135 170l293 361h211l-401 -475l428 -623h-209l-336 504l-109 -82v-422h-180zM400 -426q10 20 24 64l25 79q18 63 22 84q10 45 13 74h178v-20q-8 -29 -21 -64q-6 -18 -39 -82q-22 -43 -49 -86q-25 -39 -55 -76h-98v27z" />
<glyph unicode="&#x138;" horiz-adv-x="1015" d="M174 0v1098h180v-281q0 -76 -2 -110q-4 -55 -6 -91q-2 -16 -5 -42.5t-3 -36.5l131 176l307 385h205l-401 -490l428 -608h-205l-340 489l-109 -81v-408h-180z" />
<glyph unicode="&#x139;" horiz-adv-x="1005" d="M199 0v1462h186v-1296h573v-166h-759zM237 1579v27l45 67l22.5 36t24.5 42q8 12 45 82q22 40 37 74h219v-21q-12 -23 -47 -67q-31 -39 -71 -84l-78 -86q-29 -33 -76 -70h-121z" />
<glyph unicode="&#x13a;" horiz-adv-x="528" d="M174 0v1556h182v-1556h-182zM172 1636v27l45 67l22.5 36t24.5 42q8 12 45 82q22 40 37 74h219v-21q-12 -23 -47 -67q-31 -39 -71 -84l-78 -86q-29 -33 -76 -70h-121z" />
<glyph unicode="&#x13b;" horiz-adv-x="1005" d="M199 0v1462h186v-1296h573v-166h-759zM412 -426q10 20 24 64l25 79q18 63 22 84q10 45 13 74h178v-20q-8 -29 -21 -64q-6 -18 -39 -82q-22 -43 -49 -86q-25 -39 -55 -76h-98v27z" />
<glyph unicode="&#x13c;" horiz-adv-x="528" d="M174 0v1556h182v-1556h-182zM103 -426q10 20 24 64l25 79q18 63 22 84q10 45 13 74h178v-20q-8 -29 -21 -64q-6 -18 -39 -82q-22 -43 -49 -86q-25 -39 -55 -76h-98v27z" />
<glyph unicode="&#x13d;" horiz-adv-x="1005" d="M199 0v1462h186v-1296h573v-166h-759zM647 1137v26q12 41 19 68q4 12 8 39t8 41q12 53 16 80q8 55 11 73h180v-20q-8 -29 -21 -63q-14 -35 -37 -82l-43 -86q-20 -39 -45 -76h-96z" />
<glyph unicode="&#x13e;" horiz-adv-x="528" d="M174 0v1556h182v-1556h-182zM450 1229v26q12 41 19 68q4 12 8 39t8 41q12 53 16 80q8 55 11 73h180v-20q-8 -29 -21 -63q-14 -35 -37 -82l-43 -86q-20 -39 -45 -76h-96z" />
<glyph unicode="&#x13f;" horiz-adv-x="1005" d="M199 0v1462h186v-1296h573v-166h-759zM643 727q0 59 30 88q29 27 76 26q23 0 41 -6q20 -8 35 -20q12 -12 23 -37q8 -18 8 -51q0 -58 -31 -86q-33 -29 -76 -29t-76 29q-30 28 -30 86z" />
<glyph unicode="&#x140;" horiz-adv-x="612" d="M174 0v1556h182v-1556h-182zM461 682q0 59 30 88q29 27 76 26q23 0 41 -6q20 -8 35 -20q12 -12 23 -37q8 -18 8 -51q0 -58 -31 -86q-33 -29 -76 -29t-76 29q-30 28 -30 86z" />
<glyph unicode="&#x141;" horiz-adv-x="1005" d="M29 569l170 107v786h186v-669l227 143l78 -125l-305 -190v-455h573v-166h-759v504l-97 -60z" />
<glyph unicode="&#x142;" horiz-adv-x="528" d="M-10 637l184 121v798h182v-679l107 69l78 -121l-185 -120v-705h-182v586l-106 -70z" />
<glyph unicode="&#x143;" horiz-adv-x="1492" d="M199 0v1462h213l716 -1204h7l-7 150q0 10 -1 31.5t-1 33.5l-4 68q0 12 -1 32.5t-1 30.5v58v800h174v-1462h-215l-719 1210h-8q8 -102 10 -153l7 -135q2 -47 2 -129v-793h-172zM635 1579v27l45 67l22.5 36t24.5 42q8 12 45 82q22 40 37 74h219v-21q-12 -23 -47 -67 q-31 -39 -71 -84l-78 -86q-29 -33 -76 -70h-121z" />
<glyph unicode="&#x144;" horiz-adv-x="1204" d="M174 0v1098h148l26 -148h10q23 41 60 74q33 31 76 53q40 22 86 31q51 10 94 10q184 0 276 -96t92 -305v-717h-182v707q0 129 -53 194.5t-164 65.5q-76 0 -135 -27q-57 -27 -90 -76q-31 -47 -47 -125q-14 -70 -15 -170v-569h-182zM504 1241v27l45 67l22.5 36t24.5 42 q8 12 45 82q22 40 37 74h219v-21q-12 -23 -47 -67q-31 -39 -71 -84l-78 -86q-29 -33 -76 -70h-121z" />
<glyph unicode="&#x145;" horiz-adv-x="1492" d="M199 0v1462h213l716 -1204h7l-7 150q0 10 -1 31.5t-1 33.5l-4 68q0 12 -1 32.5t-1 30.5v58v800h174v-1462h-215l-719 1210h-8q8 -102 10 -153l7 -135q2 -47 2 -129v-793h-172zM584 -426q10 20 24 64l25 79q18 63 22 84q10 45 13 74h178v-20q-8 -29 -21 -64 q-6 -18 -39 -82q-22 -43 -49 -86q-25 -39 -55 -76h-98v27z" />
<glyph unicode="&#x146;" horiz-adv-x="1204" d="M174 0v1098h148l26 -148h10q23 41 60 74q33 31 76 53q40 22 86 31q51 10 94 10q184 0 276 -96t92 -305v-717h-182v707q0 129 -53 194.5t-164 65.5q-76 0 -135 -27q-57 -27 -90 -76q-31 -47 -47 -125q-14 -70 -15 -170v-569h-182zM443 -426q10 20 24 64l25 79q18 63 22 84 q10 45 13 74h178v-20q-8 -29 -21 -64q-6 -18 -39 -82q-22 -43 -49 -86q-25 -39 -55 -76h-98v27z" />
<glyph unicode="&#x147;" horiz-adv-x="1492" d="M199 0v1462h213l716 -1204h7l-7 150q0 10 -1 31.5t-1 33.5l-4 68q0 12 -1 32.5t-1 30.5v58v800h174v-1462h-215l-719 1210h-8q8 -102 10 -153l7 -135q2 -47 2 -129v-793h-172zM414 1880v27h121q55 -37 104 -82l107 -105q57 61 106 105q59 53 105 82h121v-27l-60 -67 q-51 -55 -67 -78q-23 -27 -64 -80q-27 -33 -45 -76h-192q-18 43 -45 76q-41 53 -64 80q-16 23 -68 78l-30.5 35.5t-28.5 31.5z" />
<glyph unicode="&#x148;" horiz-adv-x="1204" d="M174 0v1098h148l26 -148h10q23 41 60 74q33 31 76 53q40 22 86 31q51 10 94 10q184 0 276 -96t92 -305v-717h-182v707q0 129 -53 194.5t-164 65.5q-76 0 -135 -27q-57 -27 -90 -76q-31 -47 -47 -125q-14 -70 -15 -170v-569h-182zM270 1542v27h121q55 -37 104 -82 l107 -105q57 61 106 105q59 53 105 82h121v-27l-60 -67q-51 -55 -67 -78q-23 -27 -64 -80q-27 -33 -45 -76h-192q-18 43 -45 76q-41 53 -64 80q-16 23 -68 78l-30.5 35.5t-28.5 31.5z" />
<glyph unicode="&#x149;" horiz-adv-x="1349" d="M317 0v1098h148l26 -148h10q23 41 60 74q33 31 76 53q40 22 86 31q51 10 94 10q184 0 276 -96t92 -305v-717h-182v707q0 129 -53 194.5t-164 65.5q-76 0 -135 -27q-57 -27 -90 -76q-31 -47 -47 -125q-14 -70 -15 -170v-569h-182zM-2 961q10 39 28 126l29 132l24 129 l10.5 62.5l8.5 51.5h199l14 -22l-33 -115q-18 -61 -43 -123l-49 -125q-6 -16 -51 -116h-137z" />
<glyph unicode="&#x14a;" horiz-adv-x="1492" d="M199 0v1462h213l716 -1163h7l-7 129q-2 37 -6 119q-2 41 -2 115v800h174v-1442q0 -102 -28.5 -182t-75.5 -127q-51 -51 -123 -76q-71 -25 -160 -24q-51 0 -90 6q-37 6 -65 18v160q25 -6 73 -14q39 -6 84 -6q33 0 74 10q35 8 68 35q35 27 51 67q18 43 18 113l-760 1210h-8 q8 -102 10 -153l7 -135q2 -47 2 -129v-793h-172z" />
<glyph unicode="&#x14b;" horiz-adv-x="1204" d="M174 0v1098h148l26 -148h10q23 41 60 74q33 31 76 53q40 22 86 31q51 10 94 10q184 0 276 -96t92 -305l-2 -875q0 -84 -16 -139q-20 -66 -53 -104q-37 -43 -92 -68q-51 -23 -129 -23q-49 0 -80 7q-33 6 -54 18v148q16 -6 54 -15q28 -6 61 -6q20 0 49 8q20 6 41 27 q18 18 27 51q10 37 10 84l2 877q0 129 -53 194.5t-164 65.5q-76 0 -135 -27q-57 -27 -90 -76q-31 -47 -47 -125q-14 -70 -15 -170v-569h-182z" />
<glyph unicode="&#x14c;" horiz-adv-x="1519" d="M125 735q0 164 39 309q37 137 117 236q82 100 198 152q123 53 283 53q154 0 272.5 -53.5t198.5 -151.5q78 -96 119 -237.5t41 -309.5q0 -166 -41 -307q-41 -145 -119 -240q-78 -96 -199 -151t-274 -55q-163 0 -283 55q-121 55 -198 151q-76 92 -115 240q-39 145 -39 309z M322 733q0 -127 26 -246q23 -102 80 -186q52 -77 135 -117q86 -41 196.5 -41t196.5 41q83 40 136 117q57 84 79 186q25 111 25 246q0 139 -25 248q-25 104 -77 184q-49 74 -135.5 115t-197 41t-196.5 -41q-84 -41 -137 -115q-55 -77 -80 -184q-26 -117 -26 -248zM471 1579 v150h575v-150h-575z" />
<glyph unicode="&#x14d;" horiz-adv-x="1181" d="M113 551q0 133 34 242q35 106 95 178q61 74 151 110.5t201 36.5q104 0 190 -37q84 -37 150 -110q63 -72 100 -178q35 -98 35 -242q0 -139 -33 -244q-31 -100 -96 -178q-61 -74 -152 -111q-94 -39 -200 -38q-100 0 -191 38q-84 37 -149 111q-61 70 -98 178 q-37 107 -37 244zM301 551q0 -211 67.5 -315.5t223.5 -104.5q154 0 221.5 104.5t67.5 315.5q0 209 -68 313q-66 102 -223 103q-156 0 -221 -103q-68 -104 -68 -313zM303 1241v150h575v-150h-575z" />
<glyph unicode="&#x14e;" horiz-adv-x="1519" d="M125 735q0 164 39 309q37 137 117 236q82 100 198 152q123 53 283 53q154 0 272.5 -53.5t198.5 -151.5q78 -96 119 -237.5t41 -309.5q0 -166 -41 -307q-41 -145 -119 -240q-78 -96 -199 -151t-274 -55q-163 0 -283 55q-121 55 -198 151q-76 92 -115 240q-39 145 -39 309z M322 733q0 -127 26 -246q23 -102 80 -186q52 -77 135 -117q86 -41 196.5 -41t196.5 41q83 40 136 117q57 84 79 186q25 111 25 246q0 139 -25 248q-25 104 -77 184q-49 74 -135.5 115t-197 41t-196.5 -41q-84 -41 -137 -115q-55 -77 -80 -184q-26 -117 -26 -248zM459 1856 h108q3 -43 19 -68q16 -27 37 -37q27 -14 57 -16q45 -4 78 -4q25 0 69 4q25 2 58 18q23 10 43 39q16 23 20 64h113q-2 -55 -26.5 -110.5t-59.5 -88.5q-39 -35 -94 -57q-53 -20 -125 -20.5t-127 18.5q-53 18 -92 57q-37 37 -56 88q-20 56 -22 113z" />
<glyph unicode="&#x14f;" horiz-adv-x="1181" d="M113 551q0 133 34 242q35 106 95 178q61 74 151 110.5t201 36.5q104 0 190 -37q84 -37 150 -110q63 -72 100 -178q35 -98 35 -242q0 -139 -33 -244q-31 -100 -96 -178q-61 -74 -152 -111q-94 -39 -200 -38q-100 0 -191 38q-84 37 -149 111q-61 70 -98 178 q-37 107 -37 244zM301 551q0 -211 67.5 -315.5t223.5 -104.5q154 0 221.5 104.5t67.5 315.5q0 209 -68 313q-66 102 -223 103q-156 0 -221 -103q-68 -104 -68 -313zM289 1518h108q3 -43 19 -68q16 -27 37 -37q27 -14 57 -16q45 -4 78 -4q25 0 69 4q25 2 58 18q23 10 43 39 q16 23 20 64h113q-2 -55 -26.5 -110.5t-59.5 -88.5q-39 -35 -94 -57q-53 -20 -125 -20.5t-127 18.5q-53 18 -92 57q-37 37 -56 88q-20 56 -22 113z" />
<glyph unicode="&#x150;" horiz-adv-x="1519" d="M125 735q0 164 39 309q37 137 117 236q82 100 198 152q123 53 283 53q154 0 272.5 -53.5t198.5 -151.5q78 -96 119 -237.5t41 -309.5q0 -166 -41 -307q-41 -145 -119 -240q-78 -96 -199 -151t-274 -55q-163 0 -283 55q-121 55 -198 151q-76 92 -115 240q-39 145 -39 309z M322 733q0 -127 26 -246q23 -102 80 -186q52 -77 135 -117q86 -41 196.5 -41t196.5 41q83 40 136 117q57 84 79 186q25 111 25 246q0 139 -25 248q-25 104 -77 184q-49 74 -135.5 115t-197 41t-196.5 -41q-84 -41 -137 -115q-55 -77 -80 -184q-26 -117 -26 -248zM459 1579 v27l45 67l22.5 36t24.5 42q8 12 45 82q22 40 37 74h199v-21q-12 -23 -47 -67q-41 -53 -70 -84l-80 -86q-29 -33 -75 -70h-101zM822 1579v27l45 67q33 53 47 78q8 12 45 82q22 40 37 74h198v-21q-12 -23 -47 -67q-31 -39 -71 -84l-78 -86q-29 -33 -76 -70h-100z" />
<glyph unicode="&#x151;" horiz-adv-x="1181" d="M113 551q0 133 34 242q35 106 95 178q61 74 151 110.5t201 36.5q104 0 190 -37q84 -37 150 -110q63 -72 100 -178q35 -98 35 -242q0 -139 -33 -244q-31 -100 -96 -178q-61 -74 -152 -111q-94 -39 -200 -38q-100 0 -191 38q-84 37 -149 111q-61 70 -98 178 q-37 107 -37 244zM301 551q0 -211 67.5 -315.5t223.5 -104.5q154 0 221.5 104.5t67.5 315.5q0 209 -68 313q-66 102 -223 103q-156 0 -221 -103q-68 -104 -68 -313zM293 1241v27l45 67l22.5 36t24.5 42q8 12 45 82q22 40 37 74h199v-21q-12 -23 -47 -67q-41 -53 -70 -84 l-80 -86q-29 -33 -75 -70h-101zM656 1241v27l45 67q33 53 47 78q8 12 45 82q22 40 37 74h198v-21q-12 -23 -47 -67q-31 -39 -71 -84l-78 -86q-29 -33 -76 -70h-100z" />
<glyph unicode="&#x152;" horiz-adv-x="1822" d="M125 735q0 164 39 309q37 137 117 236q82 100 198 152q123 53 283 53q96 0 182 -23h756v-164h-574v-452h535v-162h-535v-520h574v-164h-758q-33 -6 -88 -14q-47 -6 -94 -6q-163 0 -283 55q-121 55 -198 151q-76 92 -115 240q-39 145 -39 309zM322 733q0 -127 26 -246 q23 -102 80 -186q52 -77 135 -117q86 -41 197 -41q55 0 96 9q47 10 84 24v1112q-35 14 -82 25q-39 8 -96 8q-111 0 -197 -41q-84 -41 -137 -115q-55 -77 -80 -184q-26 -117 -26 -248z" />
<glyph unicode="&#x153;" horiz-adv-x="1863" d="M113 551q0 133 34 242q35 106 95 178q61 74 151 110.5t201 36.5q121 0 219 -55q94 -53 160 -162q63 109 153 162q92 55 209 55q102 0 178 -35q78 -37 134 -100q51 -59 84 -156q31 -90 30 -200v-113h-692q6 -195 82 -285t227 -90q66 0 95 4q57 8 83 15q43 10 78 24 q70 29 78 33v-162l-78 -33q-27 -10 -80 -22t-84 -14q-57 -4 -94 -4q-127 0 -231.5 57t-167.5 164q-66 -111 -162 -164q-102 -57 -227 -57q-100 0 -191 38q-84 37 -149 111q-61 70 -98 178q-37 107 -37 244zM301 551q0 -211 67.5 -315.5t223.5 -104.5q150 0 219.5 100.5 t69.5 309.5q0 221 -70 323.5t-221 102.5q-156 0 -221 -103q-68 -104 -68 -313zM1073 662h492q0 70 -13 124q-10 51 -43 97q-27 39 -71.5 61.5t-106.5 22.5q-113 0 -180 -78q-66 -73 -78 -227z" />
<glyph unicode="&#x154;" horiz-adv-x="1206" d="M199 0v1462h356q270 0 393 -102q127 -104 127 -313q0 -88 -24 -152q-25 -61 -66 -110.5t-92 -77.5q-49 -29 -107 -52l398 -655h-219l-351 604h-229v-604h-186zM385 762h164q89 0 153 18q63 18 103 51q41 35 59 87q18 53 19 120q0 74 -21 121q-25 55 -61 82 q-47 33 -105 47q-59 14 -151 15h-160v-541zM477 1579v27l45 67l22.5 36t24.5 42q8 12 45 82q22 40 37 74h219v-21q-12 -23 -47 -67q-31 -39 -71 -84l-78 -86q-29 -33 -76 -70h-121z" />
<glyph unicode="&#x155;" horiz-adv-x="815" d="M174 0v1098h148l22 -201h8q23 41 54 84q27 39 63.5 69.5t79.5 49t100 18.5q41 0 66 -2q43 -4 61 -8l-24 -168q-20 4 -58 8q-41 4 -55 4q-57 0 -115 -26q-53 -25 -90 -72q-35 -43 -57 -115q-20 -63 -21 -147v-592h-182zM344 1241v27l45 67l22.5 36t24.5 42q8 12 45 82 q22 40 37 74h219v-21q-12 -23 -47 -67q-31 -39 -71 -84l-78 -86q-29 -33 -76 -70h-121z" />
<glyph unicode="&#x156;" horiz-adv-x="1206" d="M199 0v1462h356q270 0 393 -102q127 -104 127 -313q0 -88 -24 -152q-25 -61 -66 -110.5t-92 -77.5q-49 -29 -107 -52l398 -655h-219l-351 604h-229v-604h-186zM385 762h164q89 0 153 18q63 18 103 51q41 35 59 87q18 53 19 120q0 74 -21 121q-25 55 -61 82 q-47 33 -105 47q-59 14 -151 15h-160v-541zM486 -426q10 20 24 64l25 79q18 63 22 84q10 45 13 74h178v-20q-8 -29 -21 -64q-6 -18 -39 -82q-22 -43 -49 -86q-25 -39 -55 -76h-98v27z" />
<glyph unicode="&#x157;" horiz-adv-x="815" d="M174 0v1098h148l22 -201h8q23 41 54 84q27 39 63.5 69.5t79.5 49t100 18.5q41 0 66 -2q43 -4 61 -8l-24 -168q-20 4 -58 8q-41 4 -55 4q-57 0 -115 -26q-53 -25 -90 -72q-35 -43 -57 -115q-20 -63 -21 -147v-592h-182zM97 -426q10 20 24 64l25 79q18 63 22 84 q10 45 13 74h178v-20q-8 -29 -21 -64q-6 -18 -39 -82q-22 -43 -49 -86q-25 -39 -55 -76h-98v27z" />
<glyph unicode="&#x158;" horiz-adv-x="1206" d="M199 0v1462h356q270 0 393 -102q127 -104 127 -313q0 -88 -24 -152q-25 -61 -66 -110.5t-92 -77.5q-49 -29 -107 -52l398 -655h-219l-351 604h-229v-604h-186zM385 762h164q89 0 153 18q63 18 103 51q41 35 59 87q18 53 19 120q0 74 -21 121q-25 55 -61 82 q-47 33 -105 47q-59 14 -151 15h-160v-541zM272 1880v27h121q55 -37 104 -82l107 -105q57 61 106 105q59 53 105 82h121v-27l-60 -67q-51 -55 -67 -78q-23 -27 -64 -80q-27 -33 -45 -76h-192q-18 43 -45 76q-41 53 -64 80q-16 23 -68 78l-30.5 35.5t-28.5 31.5z" />
<glyph unicode="&#x159;" horiz-adv-x="815" d="M174 0v1098h148l22 -201h8q23 41 54 84q27 39 63.5 69.5t79.5 49t100 18.5q41 0 66 -2q43 -4 61 -8l-24 -168q-20 4 -58 8q-41 4 -55 4q-57 0 -115 -26q-53 -25 -90 -72q-35 -43 -57 -115q-20 -63 -21 -147v-592h-182zM115 1542v27h121q55 -37 104 -82l107 -105 q57 61 106 105q59 53 105 82h121v-27l-60 -67q-51 -55 -67 -78q-23 -27 -64 -80q-27 -33 -45 -76h-192q-18 43 -45 76q-41 53 -64 80q-16 23 -68 78l-30.5 35.5t-28.5 31.5z" />
<glyph unicode="&#x15a;" horiz-adv-x="1062" d="M104 49v178q51 -23 78 -32q39 -14 90 -27q49 -12 101 -18q70 -8 100 -9q162 0 236 60q78 61 77 172q0 57 -14 94q-16 41 -51 74q-39 37 -98 65q-61 31 -154 68q-92 35 -154 76q-70 45 -108 94q-41 49 -64 119q-20 61 -20 149q0 86 32.5 157.5t90.5 116.5q61 49 137 72 q80 25 178 25q113 0 213 -23q88 -20 170 -57l-67 -156q-76 33 -148 51q-80 20 -170 21q-119 0 -188 -57q-68 -55 -68 -152q0 -57 14 -98q14 -39 52 -76q27 -27 92 -62q49 -27 141 -63.5t160 -73.5q70 -39 115 -86q47 -49 69 -110q23 -59 23 -150q0 -94 -35 -174 q-34 -77 -98 -129q-66 -53 -156 -80q-96 -29 -207 -28q-113 0 -207 18q-103 20 -162 51zM452 1579v27l45 67l22.5 36t24.5 42q8 12 45 82q22 40 37 74h219v-21q-12 -23 -47 -67q-31 -39 -71 -84l-78 -86q-29 -33 -76 -70h-121z" />
<glyph unicode="&#x15b;" horiz-adv-x="923" d="M90 49v166q20 -10 70 -31q45 -18 80 -28q43 -12 86 -19q57 -8 88 -8q72 0 110 10q47 12 74 33q31 25 41 49q14 37 14 65.5t-10 55.5t-37 51q-31 27 -71 49q-37 20 -119 56q-71 31 -129.5 61.5t-98.5 67.5q-41 39 -61 84q-20 47 -21 116q0 72 27 125q25 51 78 90t121 58 q70 18 155 18q100 0 177 -20q86 -23 153 -56l-63 -147q-80 35 -133 51q-63 20 -140 21q-104 0 -151 -33q-49 -33 -49 -96q0 -37 12 -62q16 -31 39 -49q18 -14 76 -45q53 -29 116 -53q102 -45 129 -60q57 -33 97 -67q40 -37 61 -86q20 -47 20 -115q0 -76 -28 -139 q-27 -59 -84 -101q-55 -41 -131 -61q-74 -20 -174 -20q-111 0 -187 18q-84 20 -137 51zM356 1241v27l45 67l22.5 36t24.5 42q8 12 45 82q22 40 37 74h219v-21q-12 -23 -47 -67q-31 -39 -71 -84l-78 -86q-29 -33 -76 -70h-121z" />
<glyph unicode="&#x15c;" horiz-adv-x="1062" d="M104 49v178q51 -23 78 -32q39 -14 90 -27q49 -12 101 -18q70 -8 100 -9q162 0 236 60q78 61 77 172q0 57 -14 94q-16 41 -51 74q-39 37 -98 65q-61 31 -154 68q-92 35 -154 76q-70 45 -108 94q-41 49 -64 119q-20 61 -20 149q0 86 32.5 157.5t90.5 116.5q61 49 137 72 q80 25 178 25q113 0 213 -23q88 -20 170 -57l-67 -156q-76 33 -148 51q-80 20 -170 21q-119 0 -188 -57q-68 -55 -68 -152q0 -57 14 -98q14 -39 52 -76q27 -27 92 -62q49 -27 141 -63.5t160 -73.5q70 -39 115 -86q47 -49 69 -110q23 -59 23 -150q0 -94 -35 -174 q-34 -77 -98 -129q-66 -53 -156 -80q-96 -29 -207 -28q-113 0 -207 18q-103 20 -162 51zM240 1579v27q14 14 28.5 31.5l30.5 35.5q51 55 68 78q6 6 64 82q29 37 45 74h192q16 -37 45 -74q57 -76 64 -82q16 -23 67 -78l60 -67v-27h-121q-45 29 -105 82q-49 43 -106 104 l-107 -104q-49 -45 -104 -82h-121z" />
<glyph unicode="&#x15d;" horiz-adv-x="923" d="M90 49v166q20 -10 70 -31q45 -18 80 -28q43 -12 86 -19q57 -8 88 -8q72 0 110 10q47 12 74 33q31 25 41 49q14 37 14 65.5t-10 55.5t-37 51q-31 27 -71 49q-37 20 -119 56q-71 31 -129.5 61.5t-98.5 67.5q-41 39 -61 84q-20 47 -21 116q0 72 27 125q25 51 78 90t121 58 q70 18 155 18q100 0 177 -20q86 -23 153 -56l-63 -147q-80 35 -133 51q-63 20 -140 21q-104 0 -151 -33q-49 -33 -49 -96q0 -37 12 -62q16 -31 39 -49q18 -14 76 -45q53 -29 116 -53q102 -45 129 -60q57 -33 97 -67q40 -37 61 -86q20 -47 20 -115q0 -76 -28 -139 q-27 -59 -84 -101q-55 -41 -131 -61q-74 -20 -174 -20q-111 0 -187 18q-84 20 -137 51zM158 1241v27q14 14 28.5 31.5l30.5 35.5q51 55 68 78q6 6 64 82q29 37 45 74h192q16 -37 45 -74q57 -76 64 -82q16 -23 67 -78l60 -67v-27h-121q-45 29 -105 82q-49 43 -106 104 l-107 -104q-49 -45 -104 -82h-121z" />
<glyph unicode="&#x15e;" horiz-adv-x="1062" d="M104 49v178q51 -23 78 -32q39 -14 90 -27q49 -12 101 -18q70 -8 100 -9q162 0 236 60q78 61 77 172q0 57 -14 94q-16 41 -51 74q-39 37 -98 65q-61 31 -154 68q-92 35 -154 76q-70 45 -108 94q-41 49 -64 119q-20 61 -20 149q0 86 32.5 157.5t90.5 116.5q61 49 137 72 q80 25 178 25q113 0 213 -23q88 -20 170 -57l-67 -156q-76 33 -148 51q-80 20 -170 21q-119 0 -188 -57q-68 -55 -68 -152q0 -57 14 -98q14 -39 52 -76q27 -27 92 -62q49 -27 141 -63.5t160 -73.5q70 -39 115 -86q47 -49 69 -110q23 -59 23 -150q0 -94 -35 -174 q-34 -77 -98 -129q-66 -53 -156 -80q-96 -29 -207 -28q-113 0 -207 18q-103 20 -162 51zM344 -375q20 -4 39 -4q8 0 22.5 -1t18.5 -1q72 0 110 21q41 23 41 71q0 23 -12 41q-10 16 -37 31q-23 12 -55 22l-68 19l90 176h121l-57 -115q45 -12 63 -20q29 -12 51 -35 q20 -20 33 -49q12 -28 13 -68q0 -96 -70 -151q-68 -53 -221 -54q-31 0 -45 3q-22 3 -37 6v108z" />
<glyph unicode="&#x15f;" horiz-adv-x="923" d="M90 49v166q20 -10 70 -31q45 -18 80 -28q43 -12 86 -19q57 -8 88 -8q72 0 110 10q47 12 74 33q31 25 41 49q14 37 14 65.5t-10 55.5t-37 51q-31 27 -71 49q-37 20 -119 56q-71 31 -129.5 61.5t-98.5 67.5q-41 39 -61 84q-20 47 -21 116q0 72 27 125q25 51 78 90t121 58 q70 18 155 18q100 0 177 -20q86 -23 153 -56l-63 -147q-80 35 -133 51q-63 20 -140 21q-104 0 -151 -33q-49 -33 -49 -96q0 -37 12 -62q16 -31 39 -49q18 -14 76 -45q53 -29 116 -53q102 -45 129 -60q57 -33 97 -67q40 -37 61 -86q20 -47 20 -115q0 -76 -28 -139 q-27 -59 -84 -101q-55 -41 -131 -61q-74 -20 -174 -20q-111 0 -187 18q-84 20 -137 51zM275 -375q20 -4 39 -4q8 0 22.5 -1t18.5 -1q72 0 110 21q41 23 41 71q0 23 -12 41q-10 16 -37 31q-23 12 -55 22l-68 19l90 176h121l-57 -115q45 -12 63 -20q29 -12 51 -35 q20 -20 33 -49q12 -28 13 -68q0 -96 -70 -151q-68 -53 -221 -54q-31 0 -45 3q-22 3 -37 6v108z" />
<glyph unicode="&#x160;" horiz-adv-x="1062" d="M104 49v178q51 -23 78 -32q39 -14 90 -27q49 -12 101 -18q70 -8 100 -9q162 0 236 60q78 61 77 172q0 57 -14 94q-16 41 -51 74q-39 37 -98 65q-61 31 -154 68q-92 35 -154 76q-70 45 -108 94q-41 49 -64 119q-20 61 -20 149q0 86 32.5 157.5t90.5 116.5q61 49 137 72 q80 25 178 25q113 0 213 -23q88 -20 170 -57l-67 -156q-76 33 -148 51q-80 20 -170 21q-119 0 -188 -57q-68 -55 -68 -152q0 -57 14 -98q14 -39 52 -76q27 -27 92 -62q49 -27 141 -63.5t160 -73.5q70 -39 115 -86q47 -49 69 -110q23 -59 23 -150q0 -94 -35 -174 q-34 -77 -98 -129q-66 -53 -156 -80q-96 -29 -207 -28q-113 0 -207 18q-103 20 -162 51zM231 1880v27h121q55 -37 104 -82l107 -105q57 61 106 105q59 53 105 82h121v-27l-60 -67q-51 -55 -67 -78q-23 -27 -64 -80q-27 -33 -45 -76h-192q-18 43 -45 76q-41 53 -64 80 q-16 23 -68 78l-30.5 35.5t-28.5 31.5z" />
<glyph unicode="&#x161;" horiz-adv-x="923" d="M90 49v166q20 -10 70 -31q45 -18 80 -28q43 -12 86 -19q57 -8 88 -8q72 0 110 10q47 12 74 33q31 25 41 49q14 37 14 65.5t-10 55.5t-37 51q-31 27 -71 49q-37 20 -119 56q-71 31 -129.5 61.5t-98.5 67.5q-41 39 -61 84q-20 47 -21 116q0 72 27 125q25 51 78 90t121 58 q70 18 155 18q100 0 177 -20q86 -23 153 -56l-63 -147q-80 35 -133 51q-63 20 -140 21q-104 0 -151 -33q-49 -33 -49 -96q0 -37 12 -62q16 -31 39 -49q18 -14 76 -45q53 -29 116 -53q102 -45 129 -60q57 -33 97 -67q40 -37 61 -86q20 -47 20 -115q0 -76 -28 -139 q-27 -59 -84 -101q-55 -41 -131 -61q-74 -20 -174 -20q-111 0 -187 18q-84 20 -137 51zM154 1542v27h121q55 -37 104 -82l107 -105q57 61 106 105q59 53 105 82h121v-27l-60 -67q-51 -55 -67 -78q-23 -27 -64 -80q-27 -33 -45 -76h-192q-18 43 -45 76q-41 53 -64 80 q-16 23 -68 78l-30.5 35.5t-28.5 31.5z" />
<glyph unicode="&#x162;" horiz-adv-x="1062" d="M20 1298v164h1022v-164h-417v-1298h-187v1298h-418zM361 -426q10 20 24 64l25 79q18 63 22 84q10 45 13 74h178v-20q-8 -29 -21 -64q-6 -18 -39 -82q-22 -43 -49 -86q-25 -39 -55 -76h-98v27z" />
<glyph unicode="&#x163;" horiz-adv-x="692" d="M33 961v81l155 78l78 230h105v-252h276v-137h-276v-637q0 -92 32 -146q31 -49 103 -49q27 0 41 2q6 0 20.5 2t22.5 2l20.5 5t18.5 3q16 2 26 7v-138q-14 -6 -32 -12q-29 -8 -45 -10q-8 -2 -24.5 -4t-25.5 -4q-16 -2 -51 -2q-59 0 -115 16q-52 15 -92 55q-39 39 -59 105 q-23 72 -23 168v637h-155zM203 -426q10 20 24 64l25 79q18 63 22 84q10 45 13 74h178v-20q-8 -29 -21 -64q-6 -18 -39 -82q-22 -43 -49 -86q-25 -39 -55 -76h-98v27z" />
<glyph unicode="&#x164;" horiz-adv-x="1062" d="M20 1298v164h1022v-164h-417v-1298h-187v1298h-418zM203 1880v27h121q55 -37 104 -82l107 -105q57 61 106 105q59 53 105 82h121v-27l-60 -67q-51 -55 -67 -78q-23 -27 -64 -80q-27 -33 -45 -76h-192q-18 43 -45 76q-41 53 -64 80q-16 23 -68 78l-30.5 35.5t-28.5 31.5z " />
<glyph unicode="&#x165;" horiz-adv-x="692" d="M33 961v81l155 78l78 230h105v-252h276v-137h-276v-637q0 -92 32 -146q31 -49 103 -49q27 0 41 2q6 0 20.5 2t22.5 2l20.5 5t18.5 3q16 2 26 7v-138q-14 -6 -32 -12q-29 -8 -45 -10q-8 -2 -24.5 -4t-25.5 -4q-16 -2 -51 -2q-59 0 -115 16q-52 15 -92 55q-39 39 -59 105 q-23 72 -23 168v637h-155zM502 1229v26q12 41 19 68q4 12 8 39t8 41q12 53 16 80q8 55 11 73h180v-20q-8 -29 -21 -63q-14 -35 -37 -82l-43 -86q-20 -39 -45 -76h-96z" />
<glyph unicode="&#x166;" horiz-adv-x="1062" d="M20 1298v164h1022v-164h-417v-479h295v-149h-295v-670h-187v670h-297v149h297v479h-418z" />
<glyph unicode="&#x167;" horiz-adv-x="692" d="M33 961v81l155 78l78 230h105v-252h276v-137h-276v-248h258v-138h-258v-251q0 -92 32 -146q31 -49 103 -49q27 0 41 2q6 0 20.5 2t22.5 2l20.5 5t18.5 3q16 2 26 7v-138q-14 -6 -32 -12q-29 -8 -45 -10q-8 -2 -24.5 -4t-25.5 -4q-16 -2 -51 -2q-59 0 -115 16 q-52 15 -92 55q-39 39 -59 105q-23 72 -23 168v251h-139v138h139v248h-155z" />
<glyph unicode="&#x168;" horiz-adv-x="1429" d="M184 520v942h187v-952q0 -175 86 -270q86 -96 262 -97q92 0 153 27q66 29 105 76q40 49 61 116q20 63 21 150v952h186v-948q0 -117 -33 -213q-35 -102 -100 -170q-72 -76 -166 -113q-104 -41 -237 -40q-129 0 -226 38q-98 39 -164 109q-68 70 -102 172q-33 96 -33 221z M354 1579q6 63 21 109q16 51 43 84q31 37 63 53q37 18 84 18q43 0 82 -18q8 -4 25.5 -11.5l31 -13.5t23.5 -12l71 -39q35 -18 64 -18q45 0 68 26q25 27 38 88h105q-6 -63 -21 -108q-16 -51 -43 -84q-31 -37 -63 -53q-37 -18 -84 -19q-45 0 -80 17q-37 16 -78 40 q-14 8 -41.5 22.5t-29.5 16.5q-31 16 -68 17q-45 0 -70 -27q-20 -23 -37 -88h-104z" />
<glyph unicode="&#x169;" horiz-adv-x="1204" d="M164 381v717h182v-707q0 -129 53.5 -194.5t163.5 -65.5q76 0 135 27q55 25 90 75q31 43 48 125q14 70 14 170v570h182v-1098h-147l-27 147h-10q-27 -45 -60 -75q-29 -25 -75 -52q-40 -22 -86 -30q-51 -10 -95 -10q-88 0 -159 22q-68 23 -117 74q-41 45 -68 125 q-24 78 -24 180zM246 1241q6 63 21 109q16 51 43 84q31 37 63 53q37 18 84 18q43 0 82 -18q8 -4 25.5 -11.5l31 -13.5t23.5 -12l71 -39q35 -18 64 -18q45 0 68 26q25 27 38 88h105q-6 -63 -21 -108q-16 -51 -43 -84q-31 -37 -63 -53q-37 -18 -84 -19q-45 0 -80 17 q-37 16 -78 40q-14 8 -41.5 22.5t-29.5 16.5q-31 16 -68 17q-45 0 -70 -27q-20 -23 -37 -88h-104z" />
<glyph unicode="&#x16a;" horiz-adv-x="1429" d="M184 520v942h187v-952q0 -175 86 -270q86 -96 262 -97q92 0 153 27q66 29 105 76q40 49 61 116q20 63 21 150v952h186v-948q0 -117 -33 -213q-35 -102 -100 -170q-72 -76 -166 -113q-104 -41 -237 -40q-129 0 -226 38q-98 39 -164 109q-68 70 -102 172q-33 96 -33 221z M426 1579v150h575v-150h-575z" />
<glyph unicode="&#x16b;" horiz-adv-x="1204" d="M164 381v717h182v-707q0 -129 53.5 -194.5t163.5 -65.5q76 0 135 27q55 25 90 75q31 43 48 125q14 70 14 170v570h182v-1098h-147l-27 147h-10q-27 -45 -60 -75q-29 -25 -75 -52q-40 -22 -86 -30q-51 -10 -95 -10q-88 0 -159 22q-68 23 -117 74q-41 45 -68 125 q-24 78 -24 180zM316 1241v150h575v-150h-575z" />
<glyph unicode="&#x16c;" horiz-adv-x="1429" d="M184 520v942h187v-952q0 -175 86 -270q86 -96 262 -97q92 0 153 27q66 29 105 76q40 49 61 116q20 63 21 150v952h186v-948q0 -117 -33 -213q-35 -102 -100 -170q-72 -76 -166 -113q-104 -41 -237 -40q-129 0 -226 38q-98 39 -164 109q-68 70 -102 172q-33 96 -33 221z M414 1856h108q3 -43 19 -68q16 -27 37 -37q27 -14 57 -16q45 -4 78 -4q25 0 69 4q25 2 58 18q23 10 43 39q16 23 20 64h113q-2 -55 -26.5 -110.5t-59.5 -88.5q-39 -35 -94 -57q-53 -20 -125 -20.5t-127 18.5q-53 18 -92 57q-37 37 -56 88q-20 56 -22 113z" />
<glyph unicode="&#x16d;" horiz-adv-x="1204" d="M164 381v717h182v-707q0 -129 53.5 -194.5t163.5 -65.5q76 0 135 27q55 25 90 75q31 43 48 125q14 70 14 170v570h182v-1098h-147l-27 147h-10q-27 -45 -60 -75q-29 -25 -75 -52q-40 -22 -86 -30q-51 -10 -95 -10q-88 0 -159 22q-68 23 -117 74q-41 45 -68 125 q-24 78 -24 180zM301 1518h108q3 -43 19 -68q16 -27 37 -37q27 -14 57 -16q45 -4 78 -4q25 0 69 4q25 2 58 18q23 10 43 39q16 23 20 64h113q-2 -55 -26.5 -110.5t-59.5 -88.5q-39 -35 -94 -57q-53 -20 -125 -20.5t-127 18.5q-53 18 -92 57q-37 37 -56 88q-20 56 -22 113z " />
<glyph unicode="&#x16e;" horiz-adv-x="1429" d="M184 520v942h187v-952q0 -175 86 -270q86 -96 262 -97q92 0 153 27q66 29 105 76q40 49 61 116q20 63 21 150v952h186v-948q0 -117 -33 -213q-35 -102 -100 -170q-72 -76 -166 -113q-104 -41 -237 -40q-129 0 -226 38q-98 39 -164 109q-68 70 -102 172q-33 96 -33 221z M488 1794q0 47 16 90q16 41 45 68q31 27 72 43q37 14 90 14q49 0 90 -14q43 -15 74 -43q29 -27 47 -66q18 -41 18 -90q0 -52 -18 -92q-20 -43 -47 -68q-33 -29 -72 -43q-41 -14 -92 -14q-53 0 -90 14q-41 16 -72 43q-29 27 -45 68q-16 43 -16 90zM598 1794q0 -51 29 -84 q27 -29 84 -29q51 0 80 29q33 33 32 84q0 49 -32 82q-31 31 -80 31q-51 0 -82 -31t-31 -82z" />
<glyph unicode="&#x16f;" horiz-adv-x="1204" d="M164 381v717h182v-707q0 -129 53.5 -194.5t163.5 -65.5q76 0 135 27q55 25 90 75q31 43 48 125q14 70 14 170v570h182v-1098h-147l-27 147h-10q-27 -45 -60 -75q-29 -25 -75 -52q-40 -22 -86 -30q-51 -10 -95 -10q-88 0 -159 22q-68 23 -117 74q-41 45 -68 125 q-24 78 -24 180zM377 1456q0 47 16 90q16 41 45 68q31 27 72 43q37 14 90 14q49 0 90 -14q43 -15 74 -43q29 -27 47 -66q18 -41 18 -90q0 -52 -18 -92q-20 -43 -47 -68q-33 -29 -72 -43q-41 -14 -92 -14q-53 0 -90 14q-41 16 -72 43q-29 27 -45 68q-16 43 -16 90zM487 1456 q0 -51 29 -84q27 -29 84 -29q51 0 80 29q33 33 32 84q0 49 -32 82q-31 31 -80 31q-51 0 -82 -31t-31 -82z" />
<glyph unicode="&#x170;" horiz-adv-x="1429" d="M184 520v942h187v-952q0 -175 86 -270q86 -96 262 -97q92 0 153 27q66 29 105 76q40 49 61 116q20 63 21 150v952h186v-948q0 -117 -33 -213q-35 -102 -100 -170q-72 -76 -166 -113q-104 -41 -237 -40q-129 0 -226 38q-98 39 -164 109q-68 70 -102 172q-33 96 -33 221z M401 1579v27l45 67l22.5 36t24.5 42q8 12 45 82q22 40 37 74h199v-21q-12 -23 -47 -67q-41 -53 -70 -84l-80 -86q-29 -33 -75 -70h-101zM764 1579v27l45 67q33 53 47 78q8 12 45 82q22 40 37 74h198v-21q-12 -23 -47 -67q-31 -39 -71 -84l-78 -86q-29 -33 -76 -70h-100z" />
<glyph unicode="&#x171;" horiz-adv-x="1204" d="M164 381v717h182v-707q0 -129 53.5 -194.5t163.5 -65.5q76 0 135 27q55 25 90 75q31 43 48 125q14 70 14 170v570h182v-1098h-147l-27 147h-10q-27 -45 -60 -75q-29 -25 -75 -52q-40 -22 -86 -30q-51 -10 -95 -10q-88 0 -159 22q-68 23 -117 74q-41 45 -68 125 q-24 78 -24 180zM303 1241v27l45 67l22.5 36t24.5 42q8 12 45 82q22 40 37 74h199v-21q-12 -23 -47 -67q-41 -53 -70 -84l-80 -86q-29 -33 -75 -70h-101zM666 1241v27l45 67q33 53 47 78q8 12 45 82q22 40 37 74h198v-21q-12 -23 -47 -67q-31 -39 -71 -84l-78 -86 q-29 -33 -76 -70h-100z" />
<glyph unicode="&#x172;" horiz-adv-x="1429" d="M184 520v942h187v-952q0 -175 86 -270q86 -96 262 -97q92 0 153 27q66 29 105 76q40 49 61 116q20 63 21 150v952h186v-948q0 -117 -33 -213q-35 -102 -100 -170q-72 -76 -166 -113q-104 -41 -237 -40q-129 0 -226 38q-98 39 -164 109q-68 70 -102 172q-33 96 -33 221z M568 -252q0 45 14 80q18 43 39 70q33 41 51 57l55 45h129q-139 -133 -139 -238q0 -45 27 -67q23 -20 59 -21q33 0 47 2q22 3 37 7v-113q-25 -8 -57 -12q-41 -4 -62 -4q-100 0 -149 53q-51 55 -51 141z" />
<glyph unicode="&#x173;" horiz-adv-x="1204" d="M164 381v717h182v-707q0 -129 53.5 -194.5t163.5 -65.5q76 0 135 27q55 25 90 75q31 43 48 125q14 70 14 170v570h182v-1098h-147l-27 147h-10q-27 -45 -60 -75q-29 -25 -75 -52q-40 -22 -86 -30q-51 -10 -95 -10q-88 0 -159 22q-68 23 -117 74q-41 45 -68 125 q-24 78 -24 180zM727 -252q0 45 14 80q18 43 39 70q33 41 51 57l55 45h129q-139 -133 -139 -238q0 -45 27 -67q23 -20 59 -21q33 0 47 2q22 3 37 7v-113q-25 -8 -57 -12q-41 -4 -62 -4q-100 0 -149 53q-51 55 -51 141z" />
<glyph unicode="&#x174;" horiz-adv-x="1808" d="M20 1462h197l223 -889l23 -96l18 -98q6 -33 15 -94q6 -51 12 -84q6 37 12 86q2 18 9.5 54t9.5 48q12 74 20 111q12 55 25 104l225 858h197l229 -856l29 -112l14 -49t14 -60q6 -23 21 -98q12 -61 16 -86q2 18 10 84q8 61 15 94q4 18 9 51t7 49q10 63 21 101l200 882h199 l-367 -1462h-188l-254 938q-14 47 -27 104l-12 51.5l-12 51.5l-23 106q-4 -23 -10 -49t-12 -57l-23 -103q-16 -74 -26 -110l-242 -932h-188zM573 1579v27q14 14 28.5 31.5l30.5 35.5q51 55 68 78q6 6 64 82q29 37 45 74h192q16 -37 45 -74q57 -76 64 -82q16 -23 67 -78 l60 -67v-27h-121q-45 29 -105 82q-49 43 -106 104l-107 -104q-49 -45 -104 -82h-121z" />
<glyph unicode="&#x175;" horiz-adv-x="1527" d="M20 1098h191l131 -584l9 -44l11 -54q12 -63 19 -103q14 -76 16 -98q2 -12 5.5 -37.5t5.5 -36.5h6q2 14 6 31.5t8 38.5q9 43 18 92q6 27 12.5 50.5t10.5 45.5q4 14 11 41t9 39l179 619h196l172 -619q8 -35 21 -80q10 -37 22 -94q4 -14 21 -92q8 -41 12 -72h6q2 8 5 33 t5 37q10 68 15 94q2 16 9 51l11 56q12 68 21 102l137 584h186l-284 -1098h-215l-168 616q-2 12 -11 41q-4 14 -12 48l-12 51l-12 51l-29 119h-6l-27 -121l-12 -53.5t-12 -49.5q-18 -76 -23 -90l-172 -612h-211zM432 1241v27q14 14 28.5 31.5l30.5 35.5q51 55 68 78 q6 6 64 82q29 37 45 74h192q16 -37 45 -74q57 -76 64 -82q16 -23 67 -78l60 -67v-27h-121q-45 29 -105 82q-49 43 -106 104l-107 -104q-49 -45 -104 -82h-121z" />
<glyph unicode="&#x176;" horiz-adv-x="1077" d="M0 1462h203l336 -739l340 739h200l-446 -893v-569h-187v559zM211 1579v27q14 14 28.5 31.5l30.5 35.5q51 55 68 78q6 6 64 82q29 37 45 74h192q16 -37 45 -74q57 -76 64 -82q16 -23 67 -78l60 -67v-27h-121q-45 29 -105 82q-49 43 -106 104l-107 -104q-49 -45 -104 -82 h-121z" />
<glyph unicode="&#x177;" horiz-adv-x="999" d="M10 1098h189l215 -613l28 -84q8 -20 27 -88q14 -49 23 -86q8 -39 12 -75h6l6 25l10 42q10 43 25 92q16 66 27 97q8 27 15 46t11 33l199 611h188l-434 -1241q-29 -82 -61 -146q-35 -68 -74 -108q-41 -43 -103 -70q-57 -25 -137 -25q-66 0 -90 5q-41 6 -65 12v145 q16 -4 53 -8q41 -4 67 -4q49 0 82 12q41 14 62 33q27 25 45 53q12 20 33 74l57 160zM172 1241v27q14 14 28.5 31.5l30.5 35.5q51 55 68 78q6 6 64 82q29 37 45 74h192q16 -37 45 -74q57 -76 64 -82q16 -23 67 -78l60 -67v-27h-121q-45 29 -105 82q-49 43 -106 104l-107 -104 q-49 -45 -104 -82h-121z" />
<glyph unicode="&#x178;" horiz-adv-x="1077" d="M0 1462h203l336 -739l340 739h200l-446 -893v-569h-187v559zM258 1732.5q0 53.5 29 78.5q28 25 67.5 24.5t67.5 -24.5q29 -25 29 -78.5t-29 -77.5q-28 -25 -67.5 -25t-67.5 25q-29 24 -29 77.5zM633 1732.5q0 53.5 29 78.5q28 25 67 24q18 0 37 -6t31 -18q10 -10 20 -31 q8 -16 8 -47q0 -53 -28 -78q-27 -25 -68 -25q-40 0 -67 25q-29 24 -29 77.5z" />
<glyph unicode="&#x179;" horiz-adv-x="1103" d="M82 0v145l711 1151h-691v166h899v-145l-710 -1151h731v-166h-940zM450 1579v27l45 67l22.5 36t24.5 42q8 12 45 82q22 40 37 74h219v-21q-12 -23 -47 -67q-31 -39 -71 -84l-78 -86q-29 -33 -76 -70h-121z" />
<glyph unicode="&#x17a;" horiz-adv-x="901" d="M82 0v125l536 836h-503v137h688v-146l-524 -815h542v-137h-739zM350 1241v27l45 67l22.5 36t24.5 42q8 12 45 82q22 40 37 74h219v-21q-12 -23 -47 -67q-31 -39 -71 -84l-78 -86q-29 -33 -76 -70h-121z" />
<glyph unicode="&#x17b;" horiz-adv-x="1103" d="M82 0v145l711 1151h-691v166h899v-145l-710 -1151h731v-166h-940zM457 1733q0 59 30 88q29 27 76 26q23 0 41 -6q20 -8 35 -20q12 -12 23 -37q8 -18 8 -51q0 -58 -31 -86q-33 -29 -76 -29t-76 29q-30 28 -30 86z" />
<glyph unicode="&#x17c;" horiz-adv-x="901" d="M82 0v125l536 836h-503v137h688v-146l-524 -815h542v-137h-739zM365 1395q0 59 30 88q29 27 76 26q23 0 41 -6q20 -8 35 -20q12 -12 23 -37q8 -18 8 -51q0 -58 -31 -86q-33 -29 -76 -29t-76 29q-30 28 -30 86z" />
<glyph unicode="&#x17d;" horiz-adv-x="1103" d="M82 0v145l711 1151h-691v166h899v-145l-710 -1151h731v-166h-940zM225 1880v27h121q55 -37 104 -82l107 -105q57 61 106 105q59 53 105 82h121v-27l-60 -67q-51 -55 -67 -78q-23 -27 -64 -80q-27 -33 -45 -76h-192q-18 43 -45 76q-41 53 -64 80q-16 23 -68 78l-30.5 35.5 t-28.5 31.5z" />
<glyph unicode="&#x17e;" horiz-adv-x="901" d="M82 0v125l536 836h-503v137h688v-146l-524 -815h542v-137h-739zM135 1542v27h121q55 -37 104 -82l107 -105q57 61 106 105q59 53 105 82h121v-27l-60 -67q-51 -55 -67 -78q-23 -27 -64 -80q-27 -33 -45 -76h-192q-18 43 -45 76q-41 53 -64 80q-16 23 -68 78l-30.5 35.5 t-28.5 31.5z" />
<glyph unicode="&#x17f;" horiz-adv-x="587" d="M174 0v1200q0 104 23 178q20 68 65 113q41 41 105 59q55 16 139 17q68 0 108 -11q61 -14 88 -26l-47 -141q-25 10 -67 20q-33 8 -76 8q-39 0 -69.5 -10t-47.5 -33q-23 -31 -30 -65q-8 -39 -9 -107v-1202h-182z" />
<glyph unicode="&#x192;" d="M203 -324q14 -4 55 -14q18 -4 59 -4q35 0 70 10q29 8 47 33q20 27 29 66q10 47 10 106v963h-194v75l194 68v137q0 104 23 178q20 68 65 113q41 41 105 59q55 16 139 17q68 0 108 -10q61 -14 88 -27l-47 -141q-25 10 -67 20q-33 8 -76 8q-39 0 -69.5 -10t-47.5 -33 q-23 -31 -30 -65q-8 -39 -9 -107v-145h246v-137h-246v-961q0 -104 -22 -178q-20 -68 -66 -113q-41 -41 -104 -59q-55 -16 -139 -17q-20 0 -62 5q-25 2 -59 10v153z" />
<glyph unicode="&#x1f0;" horiz-adv-x="528" d="M-68 -319q16 -6 54 -15q28 -6 61 -6q20 0 49 8q20 6 41 27q18 18 27 51q10 37 10 84v1268h182v-1256q0 -84 -16 -139q-20 -66 -53 -104q-37 -43 -92 -68q-51 -23 -129 -23q-49 0 -80 7q-33 6 -54 18v148zM-68 1542v27h121q55 -37 104 -82l107 -105q57 61 106 105 q59 53 105 82h121v-27l-60 -67q-51 -55 -67 -78q-23 -27 -64 -80q-27 -33 -45 -76h-192q-18 43 -45 76q-41 53 -64 80q-16 23 -68 78l-30.5 35.5t-28.5 31.5z" />
<glyph unicode="&#x1fa;" horiz-adv-x="1243" d="M0 0l504 1243q-52 25 -80 74q-29 51 -29 117q0 47 17 90q16 41 45 67q31 29 69 43q37 14 92 15q49 0 91 -15q47 -16 73 -41q31 -28 49 -67q16 -35 17 -90q0 -68 -31 -117q-33 -51 -80 -74l508 -1245h-190l-154 391h-557l-156 -391h-188zM410 557h426l-148 381l-14 39 q-9 22 -19 49l-16 57q-4 14 -9 28.5t-9 29.5q-2 -10 -17 -58l-7 -27.5t-9 -29.5q-9 -28 -19 -49q-12 -37 -14 -39zM506 1434q0 -47 26 -80q25 -29 74 -33h12q51 0 82 30.5t31 82t-30.5 82t-82 30.5t-82 -30.5t-30.5 -81.5zM543 1700v20q29 33 45 54q25 31 47 63 q10 12 25.5 35.5t19.5 30.5q18 27 37 59h219v-16q-4 -6 -47 -54q-31 -33 -70 -69l-80 -68q-33 -29 -75 -55h-121z" />
<glyph unicode="&#x1fb;" horiz-adv-x="1085" d="M94 307q0 164 115 252q115 86 352 96l184 7v69q0 70 -14 113t-43 71q-27 27 -67 39t-93 13q-86 0 -155 -25q-82 -29 -137 -57l-64 137q74 40 166 68q96 29 190 28q106 0 177 -20q72 -20 122 -66q45 -39 72 -112q25 -68 25 -168v-752h-131l-37 152h-8q-35 -45 -66 -78 t-72 -54q-41 -23 -88 -30q-55 -10 -110 -10q-61 0 -127 20q-55 18 -101 59q-39 37 -65 103q-25 61 -25 145zM283 305q0 -92 49 -135t127 -43q61 0 112 18q55 20 91 58q39 41 59 98q23 61 22 137v99l-143 -7q-80 -2 -151 -20q-55 -14 -97 -45q-39 -29 -53 -68 q-16 -43 -16 -92zM317 1413q0 47 17 90q16 41 45 68q31 27 72 43q37 14 90 14q49 0 90 -14q43 -15 74 -43q29 -27 47 -66t18 -90q0 -52 -18 -92q-20 -43 -47 -68q-33 -29 -72 -43q-41 -14 -92 -14q-53 0 -90 14q-41 16 -72 43q-29 27 -45 68q-17 43 -17 90zM428 1413 q0 -51 29 -84q27 -29 84 -29q51 0 80 29q33 33 32 84q0 49 -32 82q-31 31 -80 31q-51 0 -82 -31t-31 -82zM455 1700v20q29 33 45 54q25 31 47 63q10 12 25.5 35.5t19.5 30.5q18 27 37 59h219v-16q-4 -6 -47 -54q-31 -33 -70 -69l-80 -68q-33 -29 -76 -55h-120z" />
<glyph unicode="&#x1fc;" horiz-adv-x="1744" d="M-2 0l655 1462h969v-164h-573v-452h534v-162h-534v-520h573v-164h-760v453h-475l-203 -453h-186zM459 618h403v680h-108zM942 1579v27l45 67l22.5 36t24.5 42q8 12 45 82q22 40 37 74h219v-21q-12 -23 -47 -67q-31 -39 -71 -84l-78 -86q-29 -33 -76 -70h-121z" />
<glyph unicode="&#x1fd;" horiz-adv-x="1705" d="M94 307q0 164 115 252q115 86 352 96l184 7v69q0 70 -14 113t-43 71q-27 27 -67 39t-93 13q-86 0 -155 -25q-82 -29 -137 -57l-64 137q74 40 166 68q96 29 190 28q131 0 213 -43q84 -43 127 -135q53 86 133 131q84 47 186.5 47t174.5 -35q76 -37 131 -100q53 -61 82 -156 q29 -92 29 -200v-113h-672q6 -195 77.5 -285t221.5 -90q63 0 92 4q51 8 82 15q37 8 76 24q49 20 73 33v-162q-8 -4 -77 -33q-27 -12 -76 -22q-53 -12 -82 -14q-57 -4 -92 -4q-139 0 -239.5 57t-162.5 172q-27 -43 -71 -96q-29 -33 -86 -72q-43 -29 -107 -45 q-61 -16 -131 -16q-66 0 -133 20q-57 18 -107 59q-43 39 -69 103q-27 67 -27 145zM283 305q0 -92 49 -135t127 -43q61 0 112 18q55 20 91 58q39 41 59 98q23 61 22 137v99l-143 -7q-80 -2 -151 -20q-55 -14 -97 -45q-39 -29 -53 -68q-16 -43 -16 -92zM936 662h471 q0 70 -12.5 125t-41 96t-69.5 61q-45 23 -100 23q-109 0 -174 -78q-62 -73 -74 -227zM766 1241v27l45 67l22.5 36t24.5 42q8 12 45 82q22 40 37 74h219v-21q-12 -23 -47 -67q-31 -39 -71 -84l-78 -86q-29 -33 -76 -70h-121z" />
<glyph unicode="&#x1fe;" horiz-adv-x="1519" d="M125 735q0 164 39 309q37 137 117 236q82 100 198 152q123 53 283 53q98 0 174 -21q82 -23 147 -59l80 127l137 -78l-92 -149q90 -96 137.5 -244t47.5 -328q0 -166 -41 -307q-41 -145 -119 -240q-78 -96 -199 -151t-274 -55q-188 0 -322 71l-78 -127l-137 78l90 145 q-98 102 -143 248q-45 147 -45 340zM322 733q0 -127 22 -235q20 -104 72 -183l579 945q-59 33 -104 45q-61 16 -129 16q-111 0 -197 -41q-84 -41 -137 -115q-55 -77 -80 -184q-26 -117 -26 -248zM530 201q46 -28 105 -43q55 -14 125 -15q111 0 196 41q83 40 136 117 q57 84 79 186q25 111 25 246q0 258 -88 408zM651 1579v27l45 67l22.5 36t24.5 42q8 12 45 82q22 40 37 74h219v-21q-12 -23 -47 -67q-31 -39 -71 -84l-78 -86q-29 -33 -76 -70h-121z" />
<glyph unicode="&#x1ff;" horiz-adv-x="1181" d="M115 551q0 133 35 242q35 106 94 178q61 74 151 110q88 37 201 37q68 0 119 -14q59 -16 106 -43l68 108l131 -73l-80 -129q63 -76 96 -179q35 -109 35 -237q0 -139 -33 -244q-31 -100 -96 -178q-61 -74 -151 -111q-94 -39 -201 -38q-123 0 -223 53l-68 -109l-131 74 l80 131q-65 71 -98 178q-35 111 -35 244zM303 551q0 -78 10 -150q9 -65 31 -116l397 647q-23 16 -67 26q-33 8 -82 9q-156 0 -221 -103q-68 -104 -68 -313zM446 164q23 -14 66 -25q33 -8 82 -8q154 0 221.5 104.5t67.5 315.5q0 162 -39 258zM473 1241v27l45 67l22.5 36 t24.5 42q8 12 45 82q22 40 37 74h219v-21q-12 -23 -47 -67q-31 -39 -71 -84l-78 -86q-29 -33 -76 -70h-121z" />
<glyph unicode="&#x218;" horiz-adv-x="1062" d="M104 49v178q51 -23 78 -32q39 -14 90 -27q49 -12 101 -18q70 -8 100 -9q162 0 236 60q78 61 77 172q0 57 -14 94q-16 41 -51 74q-39 37 -98 65q-61 31 -154 68q-92 35 -154 76q-70 45 -108 94q-41 49 -64 119q-20 61 -20 149q0 86 32.5 157.5t90.5 116.5q61 49 137 72 q80 25 178 25q113 0 213 -23q88 -20 170 -57l-67 -156q-76 33 -148 51q-80 20 -170 21q-119 0 -188 -57q-68 -55 -68 -152q0 -57 14 -98q14 -39 52 -76q27 -27 92 -62q49 -27 141 -63.5t160 -73.5q70 -39 115 -86q47 -49 69 -110q23 -59 23 -150q0 -94 -35 -174 q-34 -77 -98 -129q-66 -53 -156 -80q-96 -29 -207 -28q-113 0 -207 18q-103 20 -162 51zM367 -426q10 20 24 64l25 79q18 63 22 84q10 45 13 74h178v-20q-8 -29 -21 -64q-6 -18 -39 -82q-22 -43 -49 -86q-25 -39 -55 -76h-98v27z" />
<glyph unicode="&#x219;" horiz-adv-x="923" d="M90 49v166q20 -10 70 -31q45 -18 80 -28q43 -12 86 -19q57 -8 88 -8q72 0 110 10q47 12 74 33q31 25 41 49q14 37 14 65.5t-10 55.5t-37 51q-31 27 -71 49q-37 20 -119 56q-71 31 -129.5 61.5t-98.5 67.5q-41 39 -61 84q-20 47 -21 116q0 72 27 125q25 51 78 90t121 58 q70 18 155 18q100 0 177 -20q86 -23 153 -56l-63 -147q-80 35 -133 51q-63 20 -140 21q-104 0 -151 -33q-49 -33 -49 -96q0 -37 12 -62q16 -31 39 -49q18 -14 76 -45q53 -29 116 -53q102 -45 129 -60q57 -33 97 -67q40 -37 61 -86q20 -47 20 -115q0 -76 -28 -139 q-27 -59 -84 -101q-55 -41 -131 -61q-74 -20 -174 -20q-111 0 -187 18q-84 20 -137 51zM297 -426q10 20 24 64l25 79q18 63 22 84q10 45 13 74h178v-20q-8 -29 -21 -64q-6 -18 -39 -82q-22 -43 -49 -86q-25 -39 -55 -76h-98v27z" />
<glyph unicode="&#x2bc;" horiz-adv-x="356" d="M23 961q10 39 28 126l29 132l24 129l10.5 62.5l8.5 51.5h199l14 -22l-33 -115q-18 -61 -43 -123l-49 -125q-6 -16 -51 -116h-137z" />
<glyph unicode="&#x2c6;" horiz-adv-x="1181" d="M258 1241v27q14 14 28.5 31.5l30.5 35.5q51 55 68 78q6 6 64 82q29 37 45 74h192q16 -37 45 -74q57 -76 64 -82q16 -23 67 -78l60 -67v-27h-121q-45 29 -105 82q-49 43 -106 104l-107 -104q-49 -45 -104 -82h-121z" />
<glyph unicode="&#x2c7;" horiz-adv-x="1181" d="M258 1542v27h121q55 -37 104 -82l107 -105q57 61 106 105q59 53 105 82h121v-27l-60 -67q-51 -55 -67 -78q-23 -27 -64 -80q-27 -33 -45 -76h-192q-18 43 -45 76q-41 53 -64 80q-16 23 -68 78l-30.5 35.5t-28.5 31.5z" />
<glyph unicode="&#x2c9;" horiz-adv-x="1140" d="M283 1241v150h575v-150h-575z" />
<glyph unicode="&#x2d8;" horiz-adv-x="1181" d="M289 1518h108q3 -43 19 -68q16 -27 37 -37q27 -14 57 -16q45 -4 78 -4q25 0 69 4q25 2 58 18q23 10 43 39q16 23 20 64h113q-2 -55 -26.5 -110.5t-59.5 -88.5q-39 -35 -94 -57q-53 -20 -125 -20.5t-127 18.5q-53 18 -92 57q-37 37 -56 88q-20 56 -22 113z" />
<glyph unicode="&#x2d9;" horiz-adv-x="528" d="M160 1395q0 59 30 88q29 27 76 26q23 0 41 -6q20 -8 35 -20q12 -12 23 -37q8 -18 8 -51q0 -58 -31 -86q-33 -29 -76 -29t-76 29q-30 28 -30 86z" />
<glyph unicode="&#x2da;" horiz-adv-x="1181" d="M365 1456q0 47 16 90q16 41 45 68q31 27 72 43q37 14 90 14q49 0 90 -14q43 -15 74 -43q29 -27 47 -66q18 -41 18 -90q0 -52 -18 -92q-20 -43 -47 -68q-33 -29 -72 -43q-41 -14 -92 -14q-53 0 -90 14q-41 16 -72 43q-29 27 -45 68q-16 43 -16 90zM475 1456q0 -51 29 -84 q27 -29 84 -29q51 0 80 29q33 33 32 84q0 49 -32 82q-31 31 -80 31q-51 0 -82 -31t-31 -82z" />
<glyph unicode="&#x2db;" horiz-adv-x="378" d="M31 -252q0 45 14 80q18 43 39 70q33 41 51 57l55 45h129q-139 -133 -139 -238q0 -45 27 -67q23 -20 59 -21q33 0 47 2q22 3 37 7v-113q-25 -8 -57 -12q-41 -4 -62 -4q-100 0 -149 53q-51 55 -51 141z" />
<glyph unicode="&#x2dc;" horiz-adv-x="1181" d="M258 1241q6 63 21 109q16 51 43 84q31 37 63 53q37 18 84 18q43 0 82 -18q8 -4 25.5 -11.5l31 -13.5t23.5 -12l71 -39q35 -18 64 -18q45 0 68 26q25 27 38 88h105q-6 -63 -21 -108q-16 -51 -43 -84q-31 -37 -63 -53q-37 -18 -84 -19q-45 0 -80 17q-37 16 -78 40 q-14 8 -41.5 22.5t-29.5 16.5q-31 16 -68 17q-45 0 -70 -27q-20 -23 -37 -88h-104z" />
<glyph unicode="&#x2dd;" horiz-adv-x="1181" d="M223 1241v27l45 67l22.5 36t24.5 42q8 12 45 82q22 40 37 74h199v-21q-12 -23 -47 -67q-41 -53 -70 -84l-80 -86q-29 -33 -75 -70h-101zM586 1241v27l45 67q33 53 47 78q8 12 45 82q22 40 37 74h198v-21q-12 -23 -47 -67q-31 -39 -71 -84l-78 -86q-29 -33 -76 -70h-100z " />
<glyph unicode="&#x2f3;" horiz-adv-x="681" d="M115 -340q0 47 16 90q16 41 45 68q31 27 72 43q37 14 90 14q49 0 90 -14q43 -15 74 -43q29 -27 47 -66t18 -90q0 -52 -18 -92q-20 -43 -47 -68q-31 -28 -74 -43q-41 -14 -90 -14q-53 0 -90 14q-41 16 -72 43q-29 27 -45 68q-16 43 -16 90zM225 -340q0 -51 29 -84 q27 -29 84 -29q53 0 82 29q31 31 31 84t-31 84q-29 29 -82 29t-82 -29q-31 -31 -31 -84z" />
<glyph unicode="&#x384;" horiz-adv-x="1181" d="M504 1241v27q18 63 20 69l19 78l18 80q9 40 12 74h199v-21q-4 -14 -22 -63q-6 -18 -39 -82l-49 -86q-29 -51 -50 -76h-108z" />
<glyph unicode="&#x385;" horiz-adv-x="1181" d="M276 1394.5q0 53.5 27 78.5q29 25 70 24q18 0 36.5 -6t30.5 -18q10 -10 21 -31q8 -16 8 -47q0 -53 -29 -78q-27 -25 -67.5 -25t-69.5 25q-27 24 -27 77.5zM510 1389v26l22 68l25 76l25 81q4 16 10 44t8 32h207v-20l-41 -70q-16 -27 -53 -80l-58 -80l-63 -77h-82z M713 1394.5q0 53.5 28 78.5t68 24q18 0 36.5 -6t31.5 -18q10 -10 20 -31q8 -16 8 -47q0 -53 -28.5 -78t-67.5 -25q-40 0 -68 25q-28 24 -28 77.5z" />
<glyph unicode="&#x386;" horiz-adv-x="1243" d="M0 0l537 1468h170l538 -1468h-190l-160 453h-545l-162 -453h-188zM410 618h426l-148 424l-4 12.5l-4 12.5l-6 18q-2 10 -8.5 25.5t-10.5 32.5l-16 61q-4 18 -9 33.5t-9 30.5q-2 -12 -17 -64l-16 -63q-9 -31 -19 -56q-4 -10 -6 -18t-4 -12t-4 -13zM-22 1137v27 q18 63 20 69l19 78l18 80q9 40 12 74h199v-21q-4 -14 -22 -63q-6 -18 -39 -82l-49 -86q-29 -51 -50 -76h-108z" />
<glyph unicode="&#x387;" horiz-adv-x="548" d="M147 723q0 35 11 65q10 29 26 43q20 16 39 23q29 8 51 8q16 0 50 -8q20 -4 41 -23q16 -14 26 -43q10 -31 10 -65q0 -37 -10 -63.5t-26 -43.5q-14 -14 -41 -24q-23 -8 -50 -8q-33 0 -51 8q-25 10 -39 24q-16 16 -26.5 43t-10.5 64z" />
<glyph unicode="&#x388;" horiz-adv-x="1224" d="M342 0v1462h759v-164h-573v-452h535v-162h-535v-520h573v-164h-759zM-24 1137v27q18 63 20 69l19 78l18 80q9 40 12 74h199v-21q-4 -14 -22 -63q-6 -18 -39 -82l-49 -86q-29 -51 -50 -76h-108z" />
<glyph unicode="&#x389;" horiz-adv-x="1558" d="M322 0v1462h186v-616h666v616h186v-1462h-186v682h-666v-682h-186zM-24 1137v27q18 63 20 69l19 78l18 80q9 40 12 74h199v-21q-4 -14 -22 -63q-6 -18 -39 -82l-49 -86q-29 -51 -50 -76h-108z" />
<glyph unicode="&#x38a;" horiz-adv-x="944" d="M334 0v102l172 41v1176l-172 41v102h530v-102l-172 -41v-1176l172 -41v-102h-530zM-24 1137v27q18 63 20 69l19 78l18 80q9 40 12 74h199v-21q-4 -14 -22 -63q-6 -18 -39 -82l-49 -86q-29 -51 -50 -76h-108z" />
<glyph unicode="&#x38c;" horiz-adv-x="1601" d="M207 735q0 164 39 309q37 137 117 236q82 100 198 152q123 53 283 53q154 0 272.5 -53.5t198.5 -151.5q78 -96 119 -237.5t41 -309.5q0 -166 -41 -307q-41 -145 -119 -240q-78 -96 -199 -151t-274 -55q-163 0 -283 55q-121 55 -198 151q-76 92 -115 240q-39 145 -39 309z M404 733q0 -127 26 -246q23 -102 80 -186q52 -77 135 -117q86 -41 196.5 -41t196.5 41q83 40 136 117q57 84 79 186q25 111 25 246q0 139 -25 248q-25 104 -77 184q-49 74 -135.5 115t-197 41t-196.5 -41q-84 -41 -137 -115q-55 -77 -80 -184q-26 -117 -26 -248zM-24 1137 v27q18 63 20 69l19 78l18 80q9 40 12 74h199v-21q-4 -14 -22 -63q-6 -18 -39 -82l-49 -86q-29 -51 -50 -76h-108z" />
<glyph unicode="&#x38e;" horiz-adv-x="1363" d="M285 1462h203l336 -739l340 739h200l-446 -893v-569h-187v559zM-24 1137v27q18 63 20 69l19 78l18 80q9 40 12 74h199v-21q-4 -14 -22 -63q-6 -18 -39 -82l-49 -86q-29 -51 -50 -76h-108z" />
<glyph unicode="&#x38f;" horiz-adv-x="1609" d="M168 0v164h354q-66 51 -119 115q-57 70 -96 151q-43 88 -63 184q-23 102 -23 211q0 145 41 273q39 119 121 207t196 133q119 47 272.5 47t272.5 -47t199 -133t119 -207q41 -127 41 -273q0 -109 -23 -211q-20 -96 -63 -184t-95 -151q-49 -59 -120 -115h354v-164h-592v147 q98 68 160 140q70 84 106 162q39 82 58 178q18 92 18 194q0 117 -24.5 209t-77.5 158q-52 65 -136 98q-86 35 -196.5 35t-196.5 -35q-83 -34 -135 -98q-53 -66 -77.5 -158t-24.5 -209q0 -102 18 -194q18 -96 57 -178q37 -78 107 -162q61 -72 160 -140v-147h-592zM-24 1137 v27q18 63 20 69l19 78l18 80q9 40 12 74h199v-21q-4 -14 -22 -63q-6 -18 -39 -82l-49 -86q-29 -51 -50 -76h-108z" />
<glyph unicode="&#x390;" horiz-adv-x="669" d="M164 324v772h182v-772q0 -96 31 -145.5t104 -49.5q27 0 41 2q6 0 20.5 2t22.5 2l20.5 5t18.5 3q16 2 27 7v-138q-14 -6 -33 -12q-29 -8 -45 -10q-8 -2 -24.5 -4t-24.5 -4q-16 -2 -51 -2q-59 0 -115 16q-52 15 -92 55q-39 39 -60 105q-22 72 -22 168zM-27 1394.5 q0 53.5 27 78.5q29 25 70 24q18 0 36.5 -6t30.5 -18q10 -10 21 -31q8 -16 8 -47q0 -53 -29 -78q-27 -25 -67.5 -25t-69.5 25q-27 24 -27 77.5zM207 1389v26l22 68l25 76l25 81q4 16 10 44t8 32h207v-20l-41 -70q-16 -27 -53 -80l-58 -80l-63 -77h-82zM410 1394.5 q0 53.5 28 78.5t68 24q18 0 36.5 -6t31.5 -18q10 -10 20 -31q8 -16 8 -47q0 -53 -28.5 -78t-67.5 -25q-40 0 -68 25q-28 24 -28 77.5z" />
<glyph unicode="&#x391;" horiz-adv-x="1243" d="M0 0l537 1468h170l538 -1468h-190l-160 453h-545l-162 -453h-188zM410 618h426l-148 424l-4 12.5l-4 12.5l-6 18q-2 10 -8.5 25.5t-10.5 32.5l-16 61q-4 18 -9 33.5t-9 30.5q-2 -12 -17 -64l-16 -63q-9 -31 -19 -56q-4 -10 -6 -18t-4 -12t-4 -13z" />
<glyph unicode="&#x392;" horiz-adv-x="1271" d="M199 0v1462h399q117 0 225 -20q100 -18 164 -61.5t98 -114.5q33 -68 33 -174q0 -53 -20 -115q-18 -57 -56 -96q-37 -40 -92 -68t-123 -37v-10q61 -10 129 -35q59 -20 107 -61q45 -39 70 -101q27 -66 26 -145q0 -100 -32.5 -178t-94.5 -133q-63 -57 -149 -84 q-92 -29 -199 -29h-485zM385 158h266q92 0 148 20q66 25 96 55q35 35 51 86q16 53 17 113q0 53 -17 103q-16 47 -53 81q-35 31 -100 52q-61 18 -154 18h-254v-528zM385 842h244q86 0 141 14q59 16 92 45q37 33 51.5 74t14.5 104q0 121 -76 172.5t-244 51.5h-223v-461z" />
<glyph unicode="&#x393;" horiz-adv-x="1005" d="M199 0v1462h759v-166h-573v-1296h-186z" />
<glyph unicode="&#x394;" horiz-adv-x="1161" d="M37 0v133l450 1329h187l454 -1337v-125h-1091zM238 166h686l-252 752q-35 113 -54 182q-31 119 -38 157q-16 -74 -37 -157q-10 -41 -51 -176z" />
<glyph unicode="&#x395;" horiz-adv-x="1079" d="M199 0v1462h759v-164h-573v-452h535v-162h-535v-520h573v-164h-759z" />
<glyph unicode="&#x396;" horiz-adv-x="1103" d="M82 0v145l711 1151h-691v166h899v-145l-710 -1151h731v-166h-940z" />
<glyph unicode="&#x397;" horiz-adv-x="1435" d="M199 0v1462h186v-616h666v616h186v-1462h-186v682h-666v-682h-186z" />
<glyph unicode="&#x398;" horiz-adv-x="1519" d="M125 735q0 164 39 309q37 137 117 236q82 100 198 152q123 53 283 53q154 0 272.5 -53.5t198.5 -151.5q78 -96 119 -237.5t41 -309.5q0 -166 -41 -307q-41 -145 -119 -240q-78 -96 -199 -151t-274 -55q-163 0 -283 55q-121 55 -198 151q-76 92 -115 240q-39 145 -39 309z M322 733q0 -127 26 -246q23 -102 80 -186q52 -77 135 -117q86 -41 196.5 -41t196.5 41q83 40 136 117q57 84 79 186q25 111 25 246q0 139 -25 248q-25 104 -77 184q-49 74 -135.5 115t-197 41t-196.5 -41q-84 -41 -137 -115q-55 -77 -80 -184q-26 -117 -26 -248zM492 664 v161h534v-161h-534z" />
<glyph unicode="&#x399;" horiz-adv-x="692" d="M82 0v102l172 41v1176l-172 41v102h530v-102l-172 -41v-1176l172 -41v-102h-530z" />
<glyph unicode="&#x39a;" horiz-adv-x="1185" d="M199 0v1462h186v-731l121 168l452 563h209l-520 -637l539 -825h-211l-451 698l-139 -114v-584h-186z" />
<glyph unicode="&#x39b;" horiz-adv-x="1161" d="M0 0l487 1462h187l489 -1462h-198l-293 922q-35 113 -54 182q-31 119 -38 158q-6 -20 -17.5 -73.5t-19.5 -84.5q-10 -41 -51 -176l-295 -928h-197z" />
<glyph unicode="&#x39c;" horiz-adv-x="1781" d="M199 0v1462h276l412 -1192h6l414 1192h276v-1462h-186v887q0 74 2 119l6 129l6 143h-8l-447 -1278h-153l-443 1280h-8q8 -98 10 -147q6 -109 7 -132q2 -47 2 -127v-874h-172z" />
<glyph unicode="&#x39d;" horiz-adv-x="1492" d="M199 0v1462h213l716 -1204h7l-7 150q0 10 -1 31.5t-1 33.5l-4 68q0 12 -1 32.5t-1 30.5v58v800h174v-1462h-215l-719 1210h-8q8 -102 10 -153l7 -135q2 -47 2 -129v-793h-172z" />
<glyph unicode="&#x39e;" horiz-adv-x="1085" d="M82 0v164h924v-164h-924zM123 1298v164h842v-164h-842zM205 684v162h678v-162h-678z" />
<glyph unicode="&#x39f;" horiz-adv-x="1519" d="M125 735q0 164 39 309q37 137 117 236q82 100 198 152q123 53 283 53q154 0 272.5 -53.5t198.5 -151.5q78 -96 119 -237.5t41 -309.5q0 -166 -41 -307q-41 -145 -119 -240q-78 -96 -199 -151t-274 -55q-163 0 -283 55q-121 55 -198 151q-76 92 -115 240q-39 145 -39 309z M322 733q0 -127 26 -246q23 -102 80 -186q52 -77 135 -117q86 -41 196.5 -41t196.5 41q83 40 136 117q57 84 79 186q25 111 25 246q0 139 -25 248q-25 104 -77 184q-49 74 -135.5 115t-197 41t-196.5 -41q-84 -41 -137 -115q-55 -77 -80 -184q-26 -117 -26 -248z" />
<glyph unicode="&#x3a0;" horiz-adv-x="1413" d="M199 0v1462h1018v-1462h-187v1298h-645v-1298h-186z" />
<glyph unicode="&#x3a1;" horiz-adv-x="1179" d="M199 0v1462h362q129 0 232 -28q92 -27 159 -84q61 -53 92 -133t31 -183q0 -90 -28.5 -176t-90.5 -147q-63 -63 -165.5 -102.5t-255.5 -39.5h-150v-569h-186zM385 727h129q86 0 162 16q70 14 115 52q49 39 69 92q23 57 23 137q0 143 -82 211q-84 68 -256 68h-160v-576z " />
<glyph unicode="&#x3a3;" horiz-adv-x="1089" d="M78 0v152l414 614l-402 549v147h893v-164h-680l389 -530l-409 -604h759v-164h-964z" />
<glyph unicode="&#x3a4;" horiz-adv-x="1062" d="M20 1298v164h1022v-164h-417v-1298h-187v1298h-418z" />
<glyph unicode="&#x3a5;" horiz-adv-x="1077" d="M0 1462h203l336 -739l340 739h200l-446 -893v-569h-187v559z" />
<glyph unicode="&#x3a6;" horiz-adv-x="1570" d="M104 758q0 102 31 200q33 102 92 175q66 80 160 122q100 47 231 48h74v180h187v-180h73q131 0 232 -48q94 -43 159 -122q59 -72 93 -175q31 -98 30 -200q0 -61 -12 -125q-10 -57 -39 -127q-25 -61 -67.5 -116.5t-102.5 -94.5q-66 -43 -139 -66q-80 -25 -180 -24h-47v-225 h-187v225h-47q-100 0 -180 24q-74 23 -139 66q-59 39 -103 94q-41 51 -69 117q-23 49 -37 127q-13 64 -13 125zM297 762q0 -84 22 -162q20 -72 70 -127q45 -51 115 -82q66 -29 162 -29h26v781h-57q-86 0 -149.5 -31t-106.5 -82q-39 -47 -62 -121q-20 -67 -20 -147zM879 362 h26q96 0 162 29q70 31 115 82q49 55 69 127q23 78 23 162q0 80 -21 147q-23 74 -61 121q-43 53 -105 82q-63 31 -151 31h-57v-781z" />
<glyph unicode="&#x3a7;" horiz-adv-x="1118" d="M0 0l453 764l-422 698h198l332 -559l334 559h190l-421 -692l456 -770h-211l-354 635l-367 -635h-188z" />
<glyph unicode="&#x3a8;" horiz-adv-x="1570" d="M104 979v483h193v-479q0 -84 22 -158q20 -70 70 -120q47 -51 115 -74q76 -27 162 -27h26v858h187v-858h26q184 0 276.5 98.5t92.5 276.5v483h192v-479q0 -61 -12 -125q-10 -55 -39 -123q-27 -63 -67 -112q-45 -55 -103 -93q-63 -41 -139 -61q-84 -23 -180 -23h-47v-446 h-187v446h-47q-96 0 -180 23q-76 20 -139 61q-61 39 -103 91q-39 47 -69 112q-23 49 -37 121q-13 64 -13 125z" />
<glyph unicode="&#x3a9;" horiz-adv-x="1519" d="M78 0v164h354q-66 51 -119 115q-57 70 -96 151q-43 88 -63 184q-23 102 -23 211q0 145 41 273q39 119 121 207t196 133q119 47 272.5 47t272.5 -47t199 -133t119 -207q41 -127 41 -273q0 -109 -23 -211q-20 -96 -63 -184t-95 -151q-49 -59 -120 -115h354v-164h-592v147 q98 68 160 140q70 84 106 162q39 82 58 178q18 92 18 194q0 117 -24.5 209t-77.5 158q-52 65 -136 98q-86 35 -196.5 35t-196.5 -35q-83 -34 -135 -98q-53 -66 -77.5 -158t-24.5 -209q0 -102 18 -194q18 -96 57 -178q37 -78 107 -162q61 -72 160 -140v-147h-592z" />
<glyph unicode="&#x3aa;" horiz-adv-x="692" d="M82 0v102l172 41v1176l-172 41v102h530v-102l-172 -41v-1176l172 -41v-102h-530zM63 1732.5q0 53.5 29 78.5q28 25 67.5 24.5t67.5 -24.5q29 -25 29 -78.5t-29 -77.5q-28 -25 -67.5 -25t-67.5 25q-29 24 -29 77.5zM438 1732.5q0 53.5 29 78.5q28 25 67 24q18 0 37 -6 t31 -18q10 -10 20 -31q8 -16 8 -47q0 -53 -28 -78q-27 -25 -68 -25q-40 0 -67 25q-29 24 -29 77.5z" />
<glyph unicode="&#x3ab;" horiz-adv-x="1077" d="M0 1462h203l336 -739l340 739h200l-446 -893v-569h-187v559zM258 1732.5q0 53.5 29 78.5q28 25 67.5 24.5t67.5 -24.5q29 -25 29 -78.5t-29 -77.5q-28 -25 -67.5 -25t-67.5 25q-29 24 -29 77.5zM633 1732.5q0 53.5 29 78.5q28 25 67 24q18 0 37 -6t31 -18q10 -10 20 -31 q8 -16 8 -47q0 -53 -28 -78q-27 -25 -68 -25q-40 0 -67 25q-29 24 -29 77.5z" />
<glyph unicode="&#x3ac;" horiz-adv-x="1198" d="M113 547q0 141 30 248q29 102 88 178q55 72 138 108q80 37 180 37q117 0 184 -41q74 -45 121 -127h12q6 23 27 76q14 39 41 72h143q-10 -31 -20 -84q-12 -68 -17 -113q-8 -82 -10 -125q-4 -86 -4 -117v-419q0 -61 24.5 -86t59.5 -25q8 0 33 4q16 2 26 6v-133 q-16 -10 -46.5 -18t-67.5 -8q-43 0 -70 8q-29 8 -55 28q-23 16 -43 52q-18 31 -31 79h-12q-25 -39 -51 -65q-37 -37 -68 -53q-47 -25 -86 -35q-57 -14 -109 -14q-92 0 -170 36q-80 39 -133 107q-51 66 -84 178q-30 109 -30 246zM301 545q0 -211 64 -312q66 -102 200 -102 q82 0 129 23q49 23 84 73q35 49 49 125q12 66 17 180v15q0 100 -13 180q-12 76 -47 131q-37 57 -86 82q-53 27 -135 27q-133 0 -198 -109q-64 -106 -64 -313zM529 1241v27q18 63 20 69l19 78l18 80q9 40 12 74h199v-21q-4 -14 -22 -63q-6 -18 -39 -82l-49 -86 q-29 -51 -50 -76h-108z" />
<glyph unicode="&#x3ad;" horiz-adv-x="927" d="M90 299q0 63 19 107q16 39 51 73q33 33 71 53q23 12 86 35v11q-45 16 -77 36q-41 27 -62 52q-23 27 -39 71q-14 37 -14 90q0 68 29 125q25 49 82 90q55 39 124.5 57.5t157.5 18.5q37 0 98 -4q33 -2 86 -14q40 -9 80 -25q59 -23 78 -33l-63 -147q-78 35 -140 53 q-65 18 -135 19q-109 0 -166 -39t-57 -115q0 -43 20 -78q20 -33 56 -51q41 -20 86 -29q43 -8 110 -8h97v-153h-129q-139 0 -205 -45.5t-66 -139.5q0 -53 21 -86q22 -34 55 -55q35 -23 82 -31q43 -8 104 -8q35 0 97 8q46 6 86 19q27 8 75 28q37 15 68 31v-160 q-59 -35 -137 -55q-76 -20 -189 -20q-114 0 -196 24q-82 25 -137 68q-49 39 -80 102q-27 55 -27 125zM451 1241v27q18 63 20 69l19 78l18 80q9 40 12 74h199v-21q-4 -14 -22 -63q-6 -18 -39 -82l-49 -86q-29 -51 -50 -76h-108z" />
<glyph unicode="&#x3ae;" horiz-adv-x="1204" d="M174 0v1098h148l26 -148h10q23 41 60 74q33 31 76 53q40 22 86 31q51 10 94 10q184 0 276 -96t92 -305v-1209h-182v1199q0 129 -53 194.5t-164 65.5q-76 0 -135 -27q-57 -27 -90 -76q-31 -47 -47 -125q-14 -70 -15 -170v-569h-182zM572 1241v27q18 63 20 69l19 78l18 80 q9 40 12 74h199v-21q-4 -14 -22 -63q-6 -18 -39 -82l-49 -86q-29 -51 -50 -76h-108z" />
<glyph unicode="&#x3af;" horiz-adv-x="669" d="M164 324v772h182v-772q0 -96 31 -145.5t104 -49.5q27 0 41 2q6 0 20.5 2t22.5 2l20.5 5t18.5 3q16 2 27 7v-138q-14 -6 -33 -12q-29 -8 -45 -10q-8 -2 -24.5 -4t-24.5 -4q-16 -2 -51 -2q-59 0 -115 16q-52 15 -92 55q-39 39 -60 105q-22 72 -22 168zM199 1241v27 q18 63 20 69l19 78l18 80q9 40 12 74h199v-21q-4 -14 -22 -63q-6 -18 -39 -82l-49 -86q-29 -51 -50 -76h-108z" />
<glyph unicode="&#x3b0;" horiz-adv-x="1206" d="M164 498v600h182v-590q0 -80 16 -156q14 -70 50 -119q37 -53 84 -77q51 -27 120 -27q145 0 215 117q72 119 72 362q0 51 -4 133q-4 63 -12 121q-12 78 -21 117q-16 78 -26 119h182l27 -117q8 -39 20 -117q8 -57 12 -125q4 -86 4 -139q0 -317 -122.5 -468.5t-358.5 -151.5 q-127 0 -215 40q-86 39 -133 109q-51 74 -72 166q-20 90 -20 203zM292 1394.5q0 53.5 27 78.5q29 25 70 24q18 0 36.5 -6t30.5 -18q10 -10 21 -31q8 -16 8 -47q0 -53 -29 -78q-27 -25 -67.5 -25t-69.5 25q-27 24 -27 77.5zM526 1389v26l22 68l25 76l25 81q4 16 10 44t8 32 h207v-20l-41 -70q-16 -27 -53 -80l-58 -80l-63 -77h-82zM729 1394.5q0 53.5 28 78.5t68 24q18 0 36.5 -6t31.5 -18q10 -10 20 -31q8 -16 8 -47q0 -53 -28.5 -78t-67.5 -25q-40 0 -68 25q-28 24 -28 77.5z" />
<glyph unicode="&#x3b1;" horiz-adv-x="1198" d="M113 547q0 141 30 248q29 102 88 178q55 72 138 108q80 37 180 37q117 0 184 -41q74 -45 121 -127h12q6 23 27 76q14 39 41 72h143q-10 -31 -20 -84q-12 -68 -17 -113q-8 -82 -10 -125q-4 -86 -4 -117v-419q0 -61 24.5 -86t59.5 -25q8 0 33 4q16 2 26 6v-133 q-16 -10 -46.5 -18t-67.5 -8q-43 0 -70 8q-29 8 -55 28q-23 16 -43 52q-18 31 -31 79h-12q-25 -39 -51 -65q-37 -37 -68 -53q-47 -25 -86 -35q-57 -14 -109 -14q-92 0 -170 36q-80 39 -133 107q-51 66 -84 178q-30 109 -30 246zM301 545q0 -211 64 -312q66 -102 200 -102 q82 0 129 23q49 23 84 73q35 49 49 125q12 66 17 180v15q0 100 -13 180q-12 76 -47 131q-37 57 -86 82q-53 27 -135 27q-133 0 -198 -109q-64 -106 -64 -313z" />
<glyph unicode="&#x3b2;" horiz-adv-x="1232" d="M174 -492v1588q0 121 35 213q33 88 94.5 145t145.5 86q80 27 182 27q95 0 178 -25q80 -25 139 -74q61 -51 94 -122.5t33 -171.5q0 -152 -76 -236q-78 -88 -219 -109v-6q176 -23 269 -123q92 -102 92 -286q0 -109 -31 -189t-92.5 -135t-145.5 -82q-90 -29 -196 -28 q-90 0 -178 16q-76 14 -142 47v-535h-182zM356 209q29 -16 70 -33q49 -18 82 -26q23 -6 82 -15q41 -6 76 -6q82 0 135 21q66 25 92 57q35 41 49 94q16 59 16 127q0 84 -26 139q-27 57 -76 97q-47 39 -113 57q-63 18 -145 18h-102v152h77q86 0 142 20q63 23 98 56 q39 37 57.5 88t18.5 112q0 65 -19 111q-18 47 -53 78q-31 29 -82 45q-49 16 -104 16q-53 0 -107 -16q-47 -14 -86 -53t-59 -101q-23 -68 -23 -160v-878z" />
<glyph unicode="&#x3b3;" horiz-adv-x="999" d="M10 1098h189l217 -582l28 -86q20 -61 29 -92q2 -6 10.5 -37t12.5 -47q12 -57 14 -68h6q2 8 7 32t7 36t23 86q4 16 13 47t14 45q10 39 24 78l199 588h188l-383 -1080q-14 -41 -39 -131q-12 -45 -28 -135q-12 -72 -19 -129q-6 -66 -6 -115h-190q0 20 8 103q4 37 20 129 q8 45 33 139q20 76 39 133z" />
<glyph unicode="&#x3b4;" horiz-adv-x="1181" d="M111 438q0 100 34 187q35 84 91 143q57 59 132.5 102t163.5 68q-51 29 -102 70q-46 37 -80 79q-35 45 -53 93q-18 49 -18 106q0 68 26 125q25 51 72 86t108 53q55 16 136 17q63 0 124 -11q55 -9 105 -24q39 -12 88 -35q29 -14 76 -39l-74 -145q-27 18 -68 39 q-43 20 -77 34q-29 10 -86 23q-51 10 -97 10q-41 0 -71 -12q-35 -14 -49 -29q-18 -18 -28.5 -44.5t-10.5 -51.5q0 -33 14 -68q12 -31 43 -61q27 -27 80 -63.5t119 -73.5q88 -49 151 -103q76 -61 115 -116q45 -63 69.5 -137t24.5 -162q0 -125 -35 -223.5t-98 -161.5 q-66 -66 -152 -99q-92 -35 -198 -34q-104 0 -191 30q-82 29 -149 90q-59 55 -99 144q-36 85 -36 194zM303 434q0 -66 19 -121q18 -57 55 -96q39 -43 90 -63q55 -23 119 -23q141 0 219 90q76 88 76 260q0 74 -15 125q-15 55 -43 99q-29 43 -69 81q-37 33 -95 68 q-41 -10 -120 -45q-59 -25 -115 -78q-53 -51 -86 -121q-35 -76 -35 -176z" />
<glyph unicode="&#x3b5;" horiz-adv-x="927" d="M90 299q0 63 19 107q16 39 51 73q33 33 71 53q23 12 86 35v11q-45 16 -77 36q-41 27 -62 52q-23 27 -39 71q-14 37 -14 90q0 68 29 125q25 49 82 90q55 39 124.5 57.5t157.5 18.5q37 0 98 -4q33 -2 86 -14q40 -9 80 -25q59 -23 78 -33l-63 -147q-78 35 -140 53 q-65 18 -135 19q-109 0 -166 -39t-57 -115q0 -43 20 -78q20 -33 56 -51q41 -20 86 -29q43 -8 110 -8h97v-153h-129q-139 0 -205 -45.5t-66 -139.5q0 -53 21 -86q22 -34 55 -55q35 -23 82 -31q43 -8 104 -8q35 0 97 8q46 6 86 19q27 8 75 28q37 15 68 31v-160 q-59 -35 -137 -55q-76 -20 -189 -20q-114 0 -196 24q-82 25 -137 68q-49 39 -80 102q-27 55 -27 125z" />
<glyph unicode="&#x3b6;" horiz-adv-x="931" d="M113 453q0 145 47 276q46 129 123 246q80 121 176 223l209 217q-20 0 -43 -2l-47 -4q-14 -2 -43 -3t-46 -1q-33 -2 -94 -2h-221v153h694v-141q-113 -102 -221 -221q-78 -84 -153 -190q-66 -90 -103 -168q-35 -72 -57 -144q-20 -63 -27 -121q-6 -55 -6 -104q0 -86 23 -143 q23 -55 63 -86q45 -33 102 -50q20 -6 136 -34q74 -16 118 -37q47 -23 76 -54q33 -37 43 -65q12 -37 12 -78q0 -43 -10 -90q-8 -41 -28 -84q-25 -53 -39 -78q-29 -49 -43 -69h-170q20 27 45 67q14 25 39 74q18 37 26 67q10 37 11 64q0 20 -7 39q-6 16 -30 35q-23 16 -70 32 q-46 15 -123 31q-98 20 -156 49q-72 35 -114 88q-51 61 -70 129q-22 81 -22 179z" />
<glyph unicode="&#x3b7;" horiz-adv-x="1204" d="M174 0v1098h148l26 -148h10q23 41 60 74q33 31 76 53q40 22 86 31q51 10 94 10q184 0 276 -96t92 -305v-1209h-182v1199q0 129 -53 194.5t-164 65.5q-76 0 -135 -27q-57 -27 -90 -76q-31 -47 -47 -125q-14 -70 -15 -170v-569h-182z" />
<glyph unicode="&#x3b8;" horiz-adv-x="1157" d="M113 780q0 176 26 336q25 147 80 252q53 102 143 158q86 53 216 53q117 0 206 -53q84 -49 146 -156q61 -104 88 -252q29 -154 29 -338q0 -188 -25 -336q-23 -135 -84 -251q-53 -100 -145 -158q-89 -55 -215 -55q-119 0 -205 55q-90 57 -146 158q-58 104 -86 251 q-28 154 -28 336zM297 725q3 -147 18 -258q14 -106 52 -186q35 -76 86 -113t124.5 -37t124.5 37q52 37 86 111q35 76 54 186q16 104 20 260h-565zM297 879h563q-8 268 -76 411q-63 137 -206 137q-68 0 -121 -34q-51 -33 -86 -103q-31 -63 -52 -172q-16 -85 -22 -239z" />
<glyph unicode="&#x3b9;" horiz-adv-x="669" d="M164 324v772h182v-772q0 -96 31 -145.5t104 -49.5q27 0 41 2q6 0 20.5 2t22.5 2l20.5 5t18.5 3q16 2 27 7v-138q-14 -6 -33 -12q-29 -8 -45 -10q-8 -2 -24.5 -4t-24.5 -4q-16 -2 -51 -2q-59 0 -115 16q-52 15 -92 55q-39 39 -60 105q-22 72 -22 168z" />
<glyph unicode="&#x3ba;" horiz-adv-x="1015" d="M174 0v1098h180v-281q0 -76 -2 -110q-4 -55 -6 -91q-2 -16 -5 -42.5t-3 -36.5l131 176l307 385h205l-401 -490l428 -608h-205l-340 489l-109 -81v-408h-180z" />
<glyph unicode="&#x3bb;" horiz-adv-x="1046" d="M-14 0l440 1075l-53 160q-10 33 -29 74q-16 37 -37 59q-23 25 -51 37q-35 14 -74 14q-27 0 -59 -4q-29 -4 -45 -8v145q23 6 59 13q23 4 68 4q78 0 127 -21q51 -20 92 -65q37 -39 70 -113q39 -84 63 -160l328 -970q16 -51 41 -82q23 -29 61 -29q8 0 33 4q16 2 27 6v-133 q-22 -12 -50 -18q-37 -8 -65 -8q-41 0 -68 8q-31 10 -53 28q-23 20 -43 54q-14 25 -33 77l-135 418l-25 80q-18 55 -28 96q-8 33 -25 90l-10 42t-6 28h-6q-12 -82 -39 -162q-29 -90 -58 -164l-229 -575h-188z" />
<glyph unicode="&#x3bc;" horiz-adv-x="1216" d="M174 -492v1590h182v-707q0 -129 53.5 -194.5t163.5 -65.5q78 0 138 27q51 23 88 75q31 43 47 125q14 70 14 170v570h182v-1098h-147l-27 147h-10q-47 -80 -121 -124q-70 -43 -174 -43q-70 0 -125 22q-53 23 -88 66q0 -51 2 -78q4 -45 4 -78v-84v-320h-182z" />
<glyph unicode="&#x3bd;" horiz-adv-x="1058" d="M0 1098h188l201 -592q8 -20 27 -82l30 -102q6 -25 14.5 -49.5t14.5 -47.5l9 -42.5t8 -28.5h6q86 92 147 198q53 94 90 219q33 111 45 246q12 129 13 281h182q0 -163 -19 -307q-18 -150 -63 -277q-45 -129 -125 -260q-82 -135 -193 -254h-192z" />
<glyph unicode="&#x3be;" horiz-adv-x="931" d="M113 422q0 77 24 141q27 70 62 113q41 49 90 82t106 51v12q-100 27 -157 94q-57 66 -58 185q0 68 23 123q20 51 61 88q37 35 94 61q51 25 115 43q-34 -3 -74 -6q-12 -2 -37.5 -3t-37.5 -1q-29 -2 -88 -2h-62v153h641v-141h-55q-72 0 -146 -18q-66 -16 -129 -60 q-59 -41 -94 -96t-35 -137q0 -51 17 -94q14 -37 51 -68q31 -25 90 -41q55 -14 139 -14h150v-137h-162q-80 0 -145.5 -25t-106.5 -66q-43 -43 -65.5 -100t-22.5 -121q0 -76 23 -127q18 -45 63 -75q39 -29 102 -48q20 -6 136 -34q74 -16 118 -37q47 -23 76 -54q33 -37 43 -65 q12 -37 12 -78q0 -43 -10 -90q-8 -41 -28 -84q-25 -53 -39 -78q-29 -49 -43 -69h-170q20 27 45 67q14 25 39 74q18 37 26 67q10 37 11 64q0 20 -7 39q-6 16 -30 35q-23 16 -70 32q-46 15 -123 31q-176 33 -270 133q-92 99 -92 281z" />
<glyph unicode="&#x3bf;" horiz-adv-x="1181" d="M113 551q0 133 34 242q35 106 95 178q61 74 151 110.5t201 36.5q104 0 190 -37q84 -37 150 -110q63 -72 100 -178q35 -98 35 -242q0 -139 -33 -244q-31 -100 -96 -178q-61 -74 -152 -111q-94 -39 -200 -38q-100 0 -191 38q-84 37 -149 111q-61 70 -98 178 q-37 107 -37 244zM301 551q0 -211 67.5 -315.5t223.5 -104.5q154 0 221.5 104.5t67.5 315.5q0 209 -68 313q-66 102 -223 103q-156 0 -221 -103q-68 -104 -68 -313z" />
<glyph unicode="&#x3c0;" horiz-adv-x="1288" d="M25 944v74l137 80h1063v-154h-211v-690q0 -71 24 -98q25 -27 66 -27q27 0 51 6q27 6 39 15v-144q-16 -10 -51 -18q-33 -8 -86 -8q-115 0 -170.5 65.5t-55.5 196.5v702h-403v-944h-182v944h-221z" />
<glyph unicode="&#x3c1;" horiz-adv-x="1181" d="M164 -492v1043q0 141 33 242q35 111 92 178q63 76 145 110q86 37 189 37q94 0 178 -37q83 -37 141 -110q61 -78 94 -178.5t33 -241.5q0 -137 -31 -244q-29 -100 -90 -178q-57 -72 -143 -111q-88 -39 -187 -38q-74 0 -147 22q-70 20 -125 68h-6q0 -57 2 -88q4 -53 4 -88 v-95v-291h-182zM346 231q53 -51 125 -75q70 -25 147 -25q139 0 201 104.5t62 315.5q0 209 -62 313q-59 102 -203 103q-138 0 -202 -99q-66 -98 -68 -297v-340z" />
<glyph unicode="&#x3c2;" horiz-adv-x="931" d="M113 516q0 152 37 266q37 113 102 189q65 74 154 110.5t196 36.5q86 0 152 -16q78 -20 125 -43l-54 -154q-14 6 -51 19q-53 18 -57 18t-26.5 5t-33.5 7q-37 4 -55 4q-76 0 -137 -28q-55 -27 -94 -84q-33 -51 -54 -139q-16 -74 -16 -189q0 -98 14 -156q16 -66 50 -100 q37 -39 100 -63q61 -25 160 -45q74 -16 118 -37q47 -23 76 -54q33 -37 43 -65q12 -37 12 -78q0 -43 -10 -90q-8 -41 -28 -84q-25 -53 -39 -78q-29 -49 -43 -69h-170q20 27 45 67q14 25 39 74q18 37 26 67q10 37 11 64q0 20 -7 39q-6 16 -30 35q-23 16 -70 32q-46 15 -123 31 q-86 16 -143 47q-66 35 -115 92q-47 55 -76 150q-28 92 -28 219z" />
<glyph unicode="&#x3c3;" horiz-adv-x="1202" d="M113 524q0 160 39 264q41 113 110 179q74 72 174 100q104 31 232 31h489v-154h-266q25 -27 70 -88q33 -45 57 -100q18 -39 37 -117q14 -57 14 -135q0 -111 -31 -207q-31 -95 -92 -166q-61 -70 -151 -111q-92 -41 -207 -40q-106 0 -195 34q-84 33 -149 105q-63 70 -97 170 q-34 104 -34 235zM301 524q0 -82 16.5 -157.5t51.5 -124.5q35 -51 92 -82q51 -29 131 -29q78 0 131 27q51 25 90 78q37 47 51 114q16 72 17 146q0 147 -39 251.5t-115 196.5h-59q-90 0 -164 -22q-66 -20 -115 -72q-46 -49 -67 -129q-21 -76 -21 -197z" />
<glyph unicode="&#x3c4;" horiz-adv-x="919" d="M18 944v74l134 80h718v-154h-372v-606q0 -59 12 -100q12 -39 35 -66q20 -25 53 -37q31 -12 68 -12q6 0 18 1t21 1q12 0 40 4q14 2 39 6q6 0 11.5 2l11.5 4t8 2v-135q-8 -4 -33 -12l-43 -12q-16 -4 -49 -9q-18 -2 -53 -2q-68 0 -123 15q-63 16 -102 53q-47 45 -70 104 q-27 74 -27 172v627h-297z" />
<glyph unicode="&#x3c5;" horiz-adv-x="1206" d="M164 498v600h182v-590q0 -80 16 -156q14 -70 50 -119q37 -53 84 -77q51 -27 120 -27q145 0 215 117q72 119 72 362q0 51 -4 133q-4 63 -12 121q-12 78 -21 117q-16 78 -26 119h182l27 -117q8 -39 20 -117q8 -57 12 -125q4 -86 4 -139q0 -317 -122.5 -468.5t-358.5 -151.5 q-127 0 -215 40q-86 39 -133 109q-51 74 -72 166q-20 90 -20 203z" />
<glyph unicode="&#x3c6;" horiz-adv-x="1429" d="M113 555q0 78 16 160q14 76 43 143q33 78 68 133q47 72 84 117l141 -96q-45 -61 -68 -103q-41 -70 -55 -108q-23 -63 -35 -121q-12 -61 -12 -133q0 -109 24 -187q23 -72 70 -124q43 -49 103 -74q58 -25 122 -31v606q0 190 82 285q84 96 228 96q88 0 163 -41 q68 -37 123 -110q51 -70 80 -174q27 -98 27 -222q0 -151 -43 -258q-43 -109 -115 -180.5t-168 -108t-198 -42.5v-474h-179v474q-113 6 -200.5 38.5t-157.5 102.5q-72 72 -106 174q-37 107 -37 258zM793 131q72 6 133 37q66 33 106 82q45 55 70 133q27 86 26 186 q0 94 -16 172q-16 82 -41 125q-31 53 -63 76q-37 25 -80 25q-31 0 -51 -11q-25 -12 -43 -38q-14 -23 -29 -70q-12 -43 -12 -109v-608z" />
<glyph unicode="&#x3c7;" horiz-adv-x="1071" d="M-20 -492l454 830l-160 446q-29 82 -63 123q-39 45 -88 45q-33 0 -64 -10v143q18 6 54 13q20 4 75 4q47 0 82 -15q37 -16 66 -47q29 -33 53 -77q23 -43 45 -107l123 -344l287 586h178l-397 -776l178 -480q4 -10 13 -34.5t15 -36.5q16 -35 33 -58q18 -25 45 -41 q23 -14 64 -14q35 0 49 2q29 4 39 6v-141q-14 -4 -51 -12q-18 -4 -68 -5q-70 0 -115 19q-43 16 -82 53q-37 34 -61 86q-35 74 -49 117l-131 362l-330 -637h-194z" />
<glyph unicode="&#x3c8;" horiz-adv-x="1515" d="M164 555v543h182v-551q0 -117 27 -191q29 -78 71 -125q47 -51 107 -71q66 -23 125 -29v1423h178v-1421q82 10 143 39q72 33 113 84q51 61 74 131q27 84 26 182q0 49 -4 136q0 18 -2 39.5t-5 47t-5 39.5q-6 65 -18 130q-4 18 -8.5 40.5l-10.5 51t-10 45.5h182l29 -137 l18 -130q10 -66 13 -124q4 -86 4 -132q0 -158 -43 -268q-43 -109 -117 -180t-172 -104q-102 -35 -207 -41v-474h-178v474q-109 2 -205 36q-94 35 -162 101q-70 70 -106 176q-39 113 -39 260z" />
<glyph unicode="&#x3c9;" horiz-adv-x="1540" d="M113 532q0 57 8 152q6 66 22 139q16 76 39 135q27 74 56 140h186q-37 -88 -55 -140q-23 -59 -39 -135q-16 -74 -23 -139q-8 -94 -8 -152q0 -104 14 -174q16 -82 41 -125q29 -51 66 -75q39 -27 82 -27q47 0 80 21q39 25 57 57q20 35 33 84q10 41 10 106v306h178v-306 q0 -129 49 -198.5t131 -69.5q41 0 82 27q37 25 66 75q25 43 41 125q14 70 14 174q0 57 -8 152q-6 66 -23 139q-16 76 -38 135q-18 51 -56 140h187q29 -66 55 -140q23 -59 39 -135q20 -88 24 -139q6 -70 7 -152q0 -123 -25 -223t-74 -174q-51 -78 -117 -115q-72 -41 -161 -40 q-106 0 -176 43t-101 135h-10q-31 -92 -100 -135q-72 -43 -177 -43q-88 0 -159 40q-68 39 -119 115q-49 74 -73.5 174t-24.5 223z" />
<glyph unicode="&#x3ca;" horiz-adv-x="669" d="M164 324v772h182v-772q0 -96 31 -145.5t104 -49.5q27 0 41 2q6 0 20.5 2t22.5 2l20.5 5t18.5 3q16 2 27 7v-138q-14 -6 -33 -12q-29 -8 -45 -10q-8 -2 -24.5 -4t-24.5 -4q-16 -2 -51 -2q-59 0 -115 16q-52 15 -92 55q-39 39 -60 105q-22 72 -22 168zM20 1394.5 q0 53.5 29 78.5q28 25 67.5 24.5t67.5 -24.5q29 -25 29 -78.5t-29 -77.5q-28 -25 -67.5 -25t-67.5 25q-29 24 -29 77.5zM395 1394.5q0 53.5 29 78.5q28 25 67 24q18 0 37 -6t31 -18q10 -10 20 -31q8 -16 8 -47q0 -53 -28 -78q-27 -25 -68 -25q-40 0 -67 25q-29 24 -29 77.5z " />
<glyph unicode="&#x3cb;" horiz-adv-x="1206" d="M164 498v600h182v-590q0 -80 16 -156q14 -70 50 -119q37 -53 84 -77q51 -27 120 -27q145 0 215 117q72 119 72 362q0 51 -4 133q-4 63 -12 121q-12 78 -21 117q-16 78 -26 119h182l27 -117q8 -39 20 -117q8 -57 12 -125q4 -86 4 -139q0 -317 -122.5 -468.5t-358.5 -151.5 q-127 0 -215 40q-86 39 -133 109q-51 74 -72 166q-20 90 -20 203zM307 1394.5q0 53.5 29 78.5q28 25 67.5 24.5t67.5 -24.5q29 -25 29 -78.5t-29 -77.5q-28 -25 -67.5 -25t-67.5 25q-29 24 -29 77.5zM682 1394.5q0 53.5 29 78.5q28 25 67 24q18 0 37 -6t31 -18 q10 -10 20 -31q8 -16 8 -47q0 -53 -28 -78q-27 -25 -68 -25q-40 0 -67 25q-29 24 -29 77.5z" />
<glyph unicode="&#x3cc;" horiz-adv-x="1181" d="M113 551q0 133 34 242q35 106 95 178q61 74 151 110.5t201 36.5q104 0 190 -37q84 -37 150 -110q63 -72 100 -178q35 -98 35 -242q0 -139 -33 -244q-31 -100 -96 -178q-61 -74 -152 -111q-94 -39 -200 -38q-100 0 -191 38q-84 37 -149 111q-61 70 -98 178 q-37 107 -37 244zM301 551q0 -211 67.5 -315.5t223.5 -104.5q154 0 221.5 104.5t67.5 315.5q0 209 -68 313q-66 102 -223 103q-156 0 -221 -103q-68 -104 -68 -313zM518 1241v27q18 63 20 69l19 78l18 80q9 40 12 74h199v-21q-4 -14 -22 -63q-6 -18 -39 -82l-49 -86 q-29 -51 -50 -76h-108z" />
<glyph unicode="&#x3cd;" horiz-adv-x="1206" d="M164 498v600h182v-590q0 -80 16 -156q14 -70 50 -119q37 -53 84 -77q51 -27 120 -27q145 0 215 117q72 119 72 362q0 51 -4 133q-4 63 -12 121q-12 78 -21 117q-16 78 -26 119h182l27 -117q8 -39 20 -117q8 -57 12 -125q4 -86 4 -139q0 -317 -122.5 -468.5t-358.5 -151.5 q-127 0 -215 40q-86 39 -133 109q-51 74 -72 166q-20 90 -20 203zM520 1241v27q18 63 20 69l19 78l18 80q9 40 12 74h199v-21q-4 -14 -22 -63q-6 -18 -39 -82l-49 -86q-29 -51 -50 -76h-108z" />
<glyph unicode="&#x3ce;" horiz-adv-x="1540" d="M113 532q0 57 8 152q6 66 22 139q16 76 39 135q27 74 56 140h186q-37 -88 -55 -140q-23 -59 -39 -135q-16 -74 -23 -139q-8 -94 -8 -152q0 -104 14 -174q16 -82 41 -125q29 -51 66 -75q39 -27 82 -27q47 0 80 21q39 25 57 57q20 35 33 84q10 41 10 106v306h178v-306 q0 -129 49 -198.5t131 -69.5q41 0 82 27q37 25 66 75q25 43 41 125q14 70 14 174q0 57 -8 152q-6 66 -23 139q-16 76 -38 135q-18 51 -56 140h187q29 -66 55 -140q23 -59 39 -135q20 -88 24 -139q6 -70 7 -152q0 -123 -25 -223t-74 -174q-51 -78 -117 -115q-72 -41 -161 -40 q-106 0 -176 43t-101 135h-10q-31 -92 -100 -135q-72 -43 -177 -43q-88 0 -159 40q-68 39 -119 115q-49 74 -73.5 174t-24.5 223zM699 1241v27q18 63 20 69l19 78l18 80q9 40 12 74h199v-21q-4 -14 -22 -63q-6 -18 -39 -82l-49 -86q-29 -51 -50 -76h-108z" />
<glyph unicode="&#x3d1;" horiz-adv-x="1228" d="M10 825q29 14 86.5 28.5t104.5 14.5q53 0 84 -14q39 -18 57 -39q20 -25 31 -59q10 -37 10 -74q0 -49 -4 -78q-2 -25 -6 -48.5t-6 -41.5q-2 -16 -5.5 -47t-5.5 -47q-4 -33 -4 -94q0 -37 10 -78q8 -37 35 -66q23 -25 64 -41q43 -16 96 -16q163 0 246 154q82 152 82 456v53 q0 23 -4 52q-178 4 -295 39q-125 39 -197 98q-76 63 -108.5 137t-32.5 158q0 61 20 123q18 59 60 98q43 43 104 63q68 23 152 23q104 0 184 -43q82 -45 139 -119q59 -78 97 -190q37 -111 55 -250h143v-137h-137q2 -14 2 -52q0 -8 1 -28.5t1 -30.5q0 -150 -33 -297 q-29 -133 -96 -237q-63 -98 -162 -158q-96 -57 -229 -57q-109 0 -184 28q-70 27 -115 74q-41 45 -62 111q-16 55 -16 131q0 55 4 86q2 10 4 29.5t4 34.5t4 28l11 82q4 25 4 61q0 47 -15 62q-16 16 -47 16q-14 0 -51 -8q-25 -6 -43 -17zM426 1272q0 -53 23 -109 q23 -53 76 -94t139 -65q94 -27 210 -27q-10 90 -43 192q-29 90 -65 144q-41 59 -84 88q-47 31 -94 31q-76 0 -119 -43t-43 -117z" />
<glyph unicode="&#x3d2;" horiz-adv-x="1105" d="M0 1462h203l338 -731l55 160l35.5 92l27.5 72q31 80 62 147q43 94 53 113q25 47 45 71q27 33 51 50q31 20 58 28q35 10 73 11q27 0 56 -5q20 -2 39 -12v-145q-8 2 -29 6q-10 2 -29 2q-4 0 -24 -4q-16 -4 -31 -14q-14 -12 -33 -33q-18 -22 -37 -56l-32 -67 q-35 -72 -45 -96l-23.5 -49t-30.5 -70l-53 -131l-51 -133q-39 -109 -45 -127v-541h-187v559z" />
<glyph unicode="&#x3d6;" horiz-adv-x="1695" d="M18 944v74l134 80h1480v-154h-243q25 -55 43 -117q25 -82 32 -125q16 -86 21 -127q8 -82 8 -118q0 -244 -98.5 -360.5t-278.5 -116.5q-104 0 -176 43q-70 43 -100 135h-11q-31 -92 -100.5 -135t-175.5 -43q-180 0 -278.5 116.5t-98.5 360.5q0 63 8 118q6 41 27 127 q14 61 37 125q18 51 47 117h-277zM362 471q0 -104 15 -164q16 -70 41 -104q27 -39 65.5 -55.5t81.5 -16.5q47 0 80 21q35 23 55.5 57.5t32.5 83.5t12 106v176h179v-176q0 -131 49 -198q51 -70 131 -70q43 0 82 16.5t65 55.5q25 35 41 104q14 59 15 164q0 57 -7 119 q-4 37 -20 121q-12 63 -31 120q-20 68 -39 113h-737l-43 -113q-14 -39 -35 -120q-16 -63 -24 -121q-9 -56 -9 -119z" />
<glyph unicode="&#x401;" horiz-adv-x="1079" d="M199 0v1462h759v-164h-573v-452h535v-162h-535v-520h573v-164h-759zM297 1732.5q0 53.5 29 78.5q28 25 67.5 24.5t67.5 -24.5q29 -25 29 -78.5t-29 -77.5q-28 -25 -67.5 -25t-67.5 25q-29 24 -29 77.5zM672 1732.5q0 53.5 29 78.5q28 25 67 24q18 0 37 -6t31 -18 q10 -10 20 -31q8 -16 8 -47q0 -53 -28 -78q-27 -25 -68 -25q-40 0 -67 25q-29 24 -29 77.5z" />
<glyph unicode="&#x402;" horiz-adv-x="1439" d="M20 1298v164h945v-164h-418v-401h346q92 0 166 -25q72 -25 123 -71.5t78 -116.5q27 -68 26 -158v-137q0 -109 -26 -182q-29 -78 -74 -127q-47 -49 -115 -76q-63 -25 -145 -24q-49 0 -82 6q-35 6 -60 18v160q18 -6 64 -14q33 -6 72 -7q37 0 63 9q33 10 59.5 36.5 t40.5 67.5q16 45 17 113v133q0 115 -53 174q-51 57 -175 57h-325v-733h-187v1298h-340z" />
<glyph unicode="&#x403;" horiz-adv-x="1005" d="M199 0v1462h759v-166h-573v-1296h-186zM444 1579v27l45 67l22.5 36t24.5 42q8 12 45 82q22 40 37 74h219v-21q-12 -23 -47 -67q-31 -39 -71 -84l-78 -86q-29 -33 -76 -70h-121z" />
<glyph unicode="&#x404;" horiz-adv-x="1234" d="M125 733q0 164 43 303.5t129 237.5q88 100 209 153q125 55 287 56q104 0 206 -23q98 -20 177 -63l-78 -156q-82 39 -137 55q-78 23 -168 23q-96 0 -175 -33q-86 -37 -141 -92q-53 -53 -98 -150q-39 -82 -51 -198h628v-162h-634q6 -131 36 -231q29 -94 93 -168 q61 -72 143 -107t199 -35q98 0 170 17q66 14 157 41v-162q-35 -14 -78 -27q-41 -12 -81 -18q-57 -8 -91 -10q-66 -4 -108 -4q-164 0 -285 55t-198 151q-76 92 -115 240q-39 145 -39 307z" />
<glyph unicode="&#x405;" horiz-adv-x="1062" d="M104 49v178q51 -23 78 -32q39 -14 90 -27q49 -12 101 -18q70 -8 100 -9q162 0 236 60q78 61 77 172q0 57 -14 94q-16 41 -51 74q-39 37 -98 65q-61 31 -154 68q-92 35 -154 76q-70 45 -108 94q-41 49 -64 119q-20 61 -20 149q0 86 32.5 157.5t90.5 116.5q61 49 137 72 q80 25 178 25q113 0 213 -23q88 -20 170 -57l-67 -156q-76 33 -148 51q-80 20 -170 21q-119 0 -188 -57q-68 -55 -68 -152q0 -57 14 -98q14 -39 52 -76q27 -27 92 -62q49 -27 141 -63.5t160 -73.5q70 -39 115 -86q47 -49 69 -110q23 -59 23 -150q0 -94 -35 -174 q-34 -77 -98 -129q-66 -53 -156 -80q-96 -29 -207 -28q-113 0 -207 18q-103 20 -162 51z" />
<glyph unicode="&#x406;" horiz-adv-x="692" d="M82 0v102l172 41v1176l-172 41v102h530v-102l-172 -41v-1176l172 -41v-102h-530z" />
<glyph unicode="&#x407;" horiz-adv-x="692" d="M82 0v102l172 41v1176l-172 41v102h530v-102l-172 -41v-1176l172 -41v-102h-530zM63 1732.5q0 53.5 29 78.5q28 25 67.5 24.5t67.5 -24.5q29 -25 29 -78.5t-29 -77.5q-28 -25 -67.5 -25t-67.5 25q-29 24 -29 77.5zM438 1732.5q0 53.5 29 78.5q28 25 67 24q18 0 37 -6 t31 -18q10 -10 20 -31q8 -16 8 -47q0 -53 -28 -78q-27 -25 -68 -25q-40 0 -67 25q-29 24 -29 77.5z" />
<glyph unicode="&#x408;" horiz-adv-x="552" d="M-184 -205q25 -6 73 -14q41 -6 84 -6q33 0 74 10q35 8 68 35q35 27 51 67q18 43 18 113v1462h187v-1442q0 -111 -29 -182q-33 -80 -82 -127q-55 -51 -127 -76q-74 -25 -162 -24q-53 0 -90 6q-39 6 -65 18v160z" />
<glyph unicode="&#x409;" horiz-adv-x="1863" d="M0 2v154q14 -8 51 -21q25 -8 62 -8q49 0 80 31q27 27 51 82t35 106l24 113q16 82 29 157q8 51 16 109.5t19 122.5q23 141 41 287l43 327h659v-616h109q156 0 256 -33q98 -31 165 -90q61 -53 91 -131q29 -80 28 -164q0 -96 -30 -176q-33 -84 -93 -135q-66 -57 -159 -86 q-98 -31 -232 -31h-321v1298h-318l-31 -235l-32 -240q-18 -147 -33 -225q-25 -147 -33 -186q-25 -119 -47 -185q-29 -86 -65 -135q-41 -55 -95 -86q-51 -29 -133 -29q-35 0 -71 7q-39 6 -66 18zM1110 160h119q172 0 256 65q82 63 82 203q0 68 -23 119q-18 45 -69 78 q-47 31 -115 43q-82 14 -162 14h-88v-522z" />
<glyph unicode="&#x40a;" horiz-adv-x="1908" d="M199 0v1462h186v-616h584v616h186v-616h109q156 0 256 -33q98 -31 166 -90q61 -53 90 -131q29 -80 28 -164q0 -96 -30 -176q-33 -84 -93 -135q-66 -57 -159 -86q-98 -31 -232 -31h-321v682h-584v-682h-186zM1155 160h119q172 0 256 65q82 63 82 203q0 68 -23 119 q-18 45 -69 78q-47 31 -115 43q-82 14 -162 14h-88v-522z" />
<glyph unicode="&#x40b;" horiz-adv-x="1439" d="M20 1298v164h945v-164h-418v-401h346q92 0 166 -25q72 -25 123 -71.5t78 -116.5q27 -68 26 -158v-526h-186v502q0 115 -53 174q-51 57 -175 57h-325v-733h-187v1298h-340z" />
<glyph unicode="&#x40c;" horiz-adv-x="1185" d="M199 0v1462h186v-708l565 708h207l-565 -702l594 -760h-219l-582 741v-741h-186zM530 1579v27l45 67l22.5 36t24.5 42q8 12 45 82q22 40 37 74h219v-21q-12 -23 -47 -67q-31 -39 -71 -84l-78 -86q-29 -33 -76 -70h-121z" />
<glyph unicode="&#x40e;" horiz-adv-x="1196" d="M25 1462h204l383 -809l5.5 -11l5.5 -11q4 -8 8 -25q0 -4 4 -12l6 -12t5 -11.5t3 -9.5h2q2 8 8 25q4 8 6.5 16t4.5 16l12 31q8 20 8 21l311 792h197l-428 -1030q-39 -96 -80 -176q-45 -86 -96 -143q-49 -55 -135 -97q-78 -37 -189 -36q-35 0 -96 8q-41 6 -82 22v185 q31 -18 82 -33q43 -12 96.5 -12t94.5 12q45 14 73 37q35 29 62 69q29 45 55 107zM242 1897h170q6 -53 18 -93q10 -33 39 -57q20 -18 64 -29q33 -8 90 -8q39 0 80 10q35 8 63 31q27 20 45 57q16 33 23 89h174q-6 -80 -31 -138q-25 -59 -70 -98t-118 -61q-68 -20 -170 -21 q-100 0 -172 19q-68 18 -115 61q-41 39 -64 98q-20 56 -26 140z" />
<glyph unicode="&#x40f;" horiz-adv-x="1413" d="M199 0v1462h186v-1296h645v1296h187v-1462h-422v-385h-177v385h-419z" />
<glyph unicode="&#x410;" horiz-adv-x="1243" d="M0 0l537 1468h170l538 -1468h-190l-160 453h-545l-162 -453h-188zM410 618h426l-148 424l-4 12.5l-4 12.5l-6 18q-2 10 -8.5 25.5t-10.5 32.5l-16 61q-4 18 -9 33.5t-9 30.5q-2 -12 -17 -64l-16 -63q-9 -31 -19 -56q-4 -10 -6 -18t-4 -12t-4 -13z" />
<glyph unicode="&#x411;" horiz-adv-x="1179" d="M199 0v1462h788v-164h-602v-452h150q156 0 256 -33q98 -31 165 -90q61 -53 91 -131q29 -80 28 -164q0 -96 -31 -176q-33 -84 -92 -135q-66 -57 -159 -86q-98 -31 -232 -31h-362zM385 160h160q172 0 256 65q82 63 82 203q0 68 -23 119q-18 45 -69 78q-47 31 -115 43 q-82 14 -162 14h-129v-522z" />
<glyph unicode="&#x412;" horiz-adv-x="1271" d="M199 0v1462h399q117 0 225 -20q100 -18 164 -61.5t98 -114.5q33 -68 33 -174q0 -53 -20 -115q-18 -57 -56 -96q-37 -40 -92 -68t-123 -37v-10q61 -10 129 -35q59 -20 107 -61q45 -39 70 -101q27 -66 26 -145q0 -100 -32.5 -178t-94.5 -133q-63 -57 -149 -84 q-92 -29 -199 -29h-485zM385 158h266q92 0 148 20q66 25 96 55q35 35 51 86q16 53 17 113q0 53 -17 103q-16 47 -53 81q-35 31 -100 52q-61 18 -154 18h-254v-528zM385 842h244q86 0 141 14q59 16 92 45q37 33 51.5 74t14.5 104q0 121 -76 172.5t-244 51.5h-223v-461z" />
<glyph unicode="&#x413;" horiz-adv-x="1005" d="M199 0v1462h759v-166h-573v-1296h-186z" />
<glyph unicode="&#x414;" horiz-adv-x="1329" d="M14 166h113q57 106 90 184q35 82 82 209q16 45 70 223q29 100 57 232q23 104 39 229q14 113 18 219h613v-1296h194v-551h-176v385h-924v-385h-176v551zM319 166h590v1130h-262q-2 -59 -20 -168q-16 -96 -37 -194q-12 -59 -55 -205q-20 -70 -66 -205q-39 -117 -72 -192 q-49 -111 -78 -166z" />
<glyph unicode="&#x415;" horiz-adv-x="1079" d="M199 0v1462h759v-164h-573v-452h535v-162h-535v-520h573v-164h-759z" />
<glyph unicode="&#x416;" horiz-adv-x="1667" d="M4 0l545 754l-531 708h205l522 -708v708h179v-708l522 708h205l-531 -708l545 -754h-211l-530 741v-741h-179v741l-530 -741h-211z" />
<glyph unicode="&#x417;" horiz-adv-x="1114" d="M72 59v170q51 -25 92 -41q53 -20 96 -30q47 -12 100 -19q49 -6 95 -6q176 0 266 74q88 74 88 209q0 137 -104 200q-102 63 -289 64h-191v151h176q90 0 162 18.5t121 55.5q47 35 74 88q25 49 24 111q0 53 -18 96q-16 41 -53 70q-37 31 -82 45q-43 14 -105 14 q-111 0 -194 -33q-88 -35 -160 -88l-92 125q29 25 88 58q41 23 106 47q53 18 123 32q63 12 137 13q113 0 193 -27q86 -29 139 -76q57 -51 84 -114q29 -70 29 -146q0 -72 -25 -133q-25 -59 -71.5 -104t-108.5 -72q-63 -29 -137 -41v-6q92 -12 156 -39q68 -27 116 -74 q45 -43 72 -104q25 -59 25 -131q0 -98 -33 -176t-102.5 -137.5t-170.5 -90.5q-109 -33 -239 -32q-111 0 -205 18q-106 20 -182 61z" />
<glyph unicode="&#x418;" horiz-adv-x="1492" d="M201 0v1462h174v-800v-58q0 -10 -1 -30.5t-1 -32.5q0 -16 -1 -34t-1 -34q0 -45 -2 -65l-9 -150h7l716 1204h213v-1462h-172v793q0 82 2 129l5.5 69.5t3.5 65.5q4 102 8 153h-8l-719 -1210h-215z" />
<glyph unicode="&#x419;" horiz-adv-x="1492" d="M201 0v1462h174v-800v-58q0 -10 -1 -30.5t-1 -32.5q0 -16 -1 -34t-1 -34q0 -45 -2 -65l-9 -150h7l716 1204h213v-1462h-172v793q0 82 2 129l5.5 69.5t3.5 65.5q4 102 8 153h-8l-719 -1210h-215zM344 1897h170q6 -53 18 -93q10 -33 39 -57q20 -18 64 -29q33 -8 90 -8 q39 0 80 10q35 8 63 31q27 20 45 57q16 33 23 89h174q-6 -80 -31 -138q-25 -59 -70 -98t-118 -61q-68 -20 -170 -21q-100 0 -172 19q-68 18 -115 61q-41 39 -64 98q-20 56 -26 140z" />
<glyph unicode="&#x41a;" horiz-adv-x="1185" d="M199 0v1462h186v-708l565 708h207l-565 -702l594 -760h-219l-582 741v-741h-186z" />
<glyph unicode="&#x41b;" horiz-adv-x="1368" d="M0 2v154q14 -8 51 -21q25 -8 62 -8q49 0 80 31q27 27 51 82t35 106l24 113q16 82 29 157q8 51 16 109.5t19 122.5q23 141 41 287l43 327h720v-1462h-186v1298h-379l-31 -235l-32 -240q-18 -147 -33 -225q-25 -147 -33 -186q-25 -119 -47 -185q-29 -86 -65 -135 q-41 -55 -95 -86q-51 -29 -133 -29q-35 0 -71 7q-39 6 -66 18z" />
<glyph unicode="&#x41c;" horiz-adv-x="1781" d="M199 0v1462h276l412 -1192h6l414 1192h276v-1462h-186v887q0 74 2 119l6 129l6 143h-8l-447 -1278h-153l-443 1280h-8q8 -98 10 -147q6 -109 7 -132q2 -47 2 -127v-874h-172z" />
<glyph unicode="&#x41d;" horiz-adv-x="1435" d="M199 0v1462h186v-616h666v616h186v-1462h-186v682h-666v-682h-186z" />
<glyph unicode="&#x41e;" horiz-adv-x="1519" d="M125 735q0 164 39 309q37 137 117 236q82 100 198 152q123 53 283 53q154 0 272.5 -53.5t198.5 -151.5q78 -96 119 -237.5t41 -309.5q0 -166 -41 -307q-41 -145 -119 -240q-78 -96 -199 -151t-274 -55q-163 0 -283 55q-121 55 -198 151q-76 92 -115 240q-39 145 -39 309z M322 733q0 -127 26 -246q23 -102 80 -186q52 -77 135 -117q86 -41 196.5 -41t196.5 41q83 40 136 117q57 84 79 186q25 111 25 246q0 139 -25 248q-25 104 -77 184q-49 74 -135.5 115t-197 41t-196.5 -41q-84 -41 -137 -115q-55 -77 -80 -184q-26 -117 -26 -248z" />
<glyph unicode="&#x41f;" horiz-adv-x="1413" d="M199 0v1462h1018v-1462h-187v1298h-645v-1298h-186z" />
<glyph unicode="&#x420;" horiz-adv-x="1179" d="M199 0v1462h362q129 0 232 -28q92 -27 159 -84q61 -53 92 -133t31 -183q0 -90 -28.5 -176t-90.5 -147q-63 -63 -165.5 -102.5t-255.5 -39.5h-150v-569h-186zM385 727h129q86 0 162 16q70 14 115 52q49 39 69 92q23 57 23 137q0 143 -82 211q-84 68 -256 68h-160v-576z " />
<glyph unicode="&#x421;" horiz-adv-x="1234" d="M125 733q0 164 43 303.5t129 237.5q88 100 209 153q125 55 287 56q104 0 206 -23q98 -20 177 -63l-78 -156q-82 39 -137 55q-78 23 -168 23q-106 0 -195 -41q-86 -40 -147 -117q-59 -74 -94 -184.5t-35 -245.5q0 -139 30 -250q31 -113 88 -184q59 -76 148 -115 q86 -39 205 -39q98 0 170 17q66 14 157 41v-162q-35 -14 -78 -27q-41 -12 -81 -18q-57 -8 -91 -10q-66 -4 -108 -4q-164 0 -285 55t-198 151q-76 92 -115 240q-39 145 -39 307z" />
<glyph unicode="&#x422;" horiz-adv-x="1062" d="M20 1298v164h1022v-164h-417v-1298h-187v1298h-418z" />
<glyph unicode="&#x423;" horiz-adv-x="1196" d="M25 1462h204l383 -809l5.5 -11l5.5 -11q4 -8 8 -25q0 -4 4 -12l6 -12t5 -11.5t3 -9.5h2q2 8 8 25q4 8 6.5 16t4.5 16l12 31q8 20 8 21l311 792h197l-428 -1030q-39 -96 -80 -176q-45 -86 -96 -143q-49 -55 -135 -97q-78 -37 -189 -36q-35 0 -96 8q-41 6 -82 22v185 q31 -18 82 -33q43 -12 96.5 -12t94.5 12q45 14 73 37q35 29 62 69q29 45 55 107z" />
<glyph unicode="&#x424;" horiz-adv-x="1570" d="M104 758q0 102 31 200q33 102 92 175q66 80 160 122q100 47 231 48h74v180h187v-180h73q131 0 232 -48q94 -43 159 -122q59 -72 93 -175q31 -98 30 -200q0 -61 -12 -125q-10 -57 -39 -127q-25 -61 -67.5 -116.5t-102.5 -94.5q-66 -43 -139 -66q-80 -25 -180 -24h-47v-225 h-187v225h-47q-100 0 -180 24q-74 23 -139 66q-59 39 -103 94q-41 51 -69 117q-23 49 -37 127q-13 64 -13 125zM297 762q0 -84 22 -162q20 -72 70 -127q45 -51 115 -82q66 -29 162 -29h26v781h-57q-86 0 -149.5 -31t-106.5 -82q-39 -47 -62 -121q-20 -67 -20 -147zM879 362 h26q96 0 162 29q70 31 115 82q49 55 69 127q23 78 23 162q0 80 -21 147q-23 74 -61 121q-43 53 -105 82q-63 31 -151 31h-57v-781z" />
<glyph unicode="&#x425;" horiz-adv-x="1118" d="M0 0l453 764l-422 698h198l332 -559l334 559h190l-421 -692l456 -770h-211l-354 635l-367 -635h-188z" />
<glyph unicode="&#x426;" horiz-adv-x="1433" d="M199 0v1462h186v-1296h645v1296h187v-1296h176v-551h-176v385h-1018z" />
<glyph unicode="&#x427;" horiz-adv-x="1351" d="M166 879v583h186v-559q0 -115 54 -174q51 -57 174 -57q94 0 182 20q115 27 205 60v710h186v-1462h-186v598q-131 -49 -213 -68q-102 -23 -194.5 -22.5t-166.5 24.5q-72 25 -123 72q-49 45 -77 117q-27 66 -27 158z" />
<glyph unicode="&#x428;" horiz-adv-x="2041" d="M199 0v1462h186v-1296h543v1296h186v-1296h543v1296h186v-1462h-1644z" />
<glyph unicode="&#x429;" horiz-adv-x="2041" d="M199 0v1462h186v-1296h543v1296h186v-1296h543v1296h186v-1296h176v-551h-176v385h-1644z" />
<glyph unicode="&#x42a;" horiz-adv-x="1339" d="M20 1298v164h527v-616h149q156 0 256 -33q98 -31 166 -90q66 -55 92 -131q27 -74 27 -164q0 -96 -31 -176q-33 -84 -92 -135q-66 -57 -160 -86q-98 -31 -231 -31h-363v1298h-340zM547 160h160q172 0 256 65q82 63 81 203q0 68 -22 119q-18 45 -70 78q-45 31 -114 43 q-80 14 -162 14h-129v-522z" />
<glyph unicode="&#x42b;" horiz-adv-x="1685" d="M199 0v1462h186v-616h150q156 0 256 -33q98 -31 165 -90q61 -53 91 -131q29 -80 28 -164q0 -96 -31 -176q-33 -84 -92 -135q-66 -57 -159 -86q-98 -31 -232 -31h-362zM385 160h160q172 0 256 65q82 63 82 203q0 68 -23 119q-18 45 -69 78q-47 31 -115 43q-82 14 -162 14 h-129v-522zM1300 0v1462h187v-1462h-187z" />
<glyph unicode="&#x42c;" horiz-adv-x="1179" d="M199 0v1462h186v-616h150q156 0 256 -33q98 -31 165 -90q61 -53 91 -131q29 -80 28 -164q0 -96 -31 -176q-33 -84 -92 -135q-66 -57 -159 -86q-98 -31 -232 -31h-362zM385 160h160q172 0 256 65q82 63 82 203q0 68 -23 119q-18 45 -69 78q-47 31 -115 43q-82 14 -162 14 h-129v-522z" />
<glyph unicode="&#x42d;" horiz-adv-x="1216" d="M59 1397q78 43 177 63q102 23 206 23q164 0 283 -53q125 -55 205 -151.5t121 -229.5q41 -135 41 -291q0 -176 -41 -324q-39 -141 -123 -244q-82 -98 -207 -155q-123 -55 -287 -55q-41 0 -106 4q-37 2 -92 10q-41 6 -82 18q-43 12 -78 27v162q92 -27 157 -41 q72 -16 170 -17q238 0 361 140q123 137 129 401h-629v162h625q-10 113 -45 198q-39 92 -92 150q-59 63 -136 92q-86 33 -174 33q-90 0 -168 -23q-55 -16 -137 -55z" />
<glyph unicode="&#x42e;" horiz-adv-x="2076" d="M199 0v1462h186v-616h342q12 156 53 264q45 121 119 201q78 84 186.5 129t254 45t262.5 -53q115 -53 192 -152q76 -98 117 -238q39 -135 39 -309q0 -172 -39 -307q-41 -143 -117 -240q-74 -94 -192 -151q-114 -55 -265 -55q-145 0 -264 51q-111 47 -188 141 q-77 92 -117 221q-39 125 -45 289h-338v-682h-186zM920 733q0 -135 24.5 -245.5t75.5 -186.5q53 -78 131 -117q82 -41 186.5 -41t186.5 41q78 39 131 117q47 70 74 186q25 111 24 246q0 139 -24 248q-25 108 -74 184q-47 74 -129 115t-187 41q-106 0 -188 -41 q-80 -41 -131 -114.5t-76 -184.5q-24 -109 -24 -248z" />
<glyph unicode="&#x42f;" horiz-adv-x="1206" d="M25 0l381 655q-59 23 -105 52q-49 31 -86 79q-39 53 -59 115q-23 72 -23 162q0 197 127 299q125 100 377 100h373v-1462h-187v604h-245l-334 -604h-219zM326 1047q0 -61 20 -119q18 -51 57 -88q39 -35 99 -58q55 -20 141 -20h180v541h-188q-76 0 -131 -15 q-59 -16 -98 -45q-37 -29 -60 -80q-20 -46 -20 -116z" />
<glyph unicode="&#x430;" horiz-adv-x="1085" d="M94 307q0 164 115 252q115 86 352 96l184 7v69q0 70 -14 113t-43 71q-27 27 -67 39t-93 13q-86 0 -155 -25q-82 -29 -137 -57l-64 137q74 40 166 68q96 29 190 28q106 0 177 -20q72 -20 122 -66q45 -39 72 -112q25 -68 25 -168v-752h-131l-37 152h-8q-35 -45 -66 -78 t-72 -54q-41 -23 -88 -30q-55 -10 -110 -10q-61 0 -127 20q-55 18 -101 59q-39 37 -65 103q-25 61 -25 145zM283 305q0 -92 49 -135t127 -43q61 0 112 18q55 20 91 58q39 41 59 98q23 61 22 137v99l-143 -7q-80 -2 -151 -20q-55 -14 -97 -45q-39 -29 -53 -68 q-16 -43 -16 -92z" />
<glyph unicode="&#x431;" horiz-adv-x="1165" d="M117 659q0 180 24 322q25 143 76 242q49 96 133 163q78 63 195 89l246 51l223 45l33 -160q-14 -2 -51.5 -8t-59.5 -10q-27 -4 -43 -7.5t-36.5 -8.5t-45.5 -9q-27 -6 -57.5 -11t-63.5 -11l-102 -23q-70 -16 -113 -47q-47 -33 -86 -90q-31 -47 -55 -139q-23 -84 -25 -195 h13q20 31 49 59q27 27 74 53.5t94 41.5q55 16 118 16q100 0 174 -37q76 -39 125 -102q51 -68 76 -156q25 -89 25 -197q0 -131 -35 -239q-33 -102 -96 -172q-66 -72 -150 -105q-88 -35 -190.5 -34.5t-192.5 45.5q-86 43 -149 131q-59 84 -94 213q-33 122 -33 290zM305 655 q0 -98 12.5 -194t44.5 -168q35 -76 91 -117q61 -45 145 -45q59 0 108.5 18.5t84.5 63.5q37 47 55 117q18 72 18 176q0 84 -12 151q-10 61 -43 115q-29 47 -74 72q-49 27 -110 26q-59 0 -113 -24q-57 -27 -96 -57.5t-70 -72t-41 -61.5z" />
<glyph unicode="&#x432;" horiz-adv-x="1159" d="M174 0v1098h453q88 0 153 -15q74 -16 123 -45q47 -29 82 -86q29 -49 29 -131q0 -104 -62 -162q-63 -59 -168 -77v-7q55 -6 105 -24q45 -16 84 -49q33 -27 55 -76q20 -43 21 -109q0 -72 -23 -124q-25 -59 -74 -103q-45 -39 -131 -65q-80 -25 -192 -25h-455zM356 150h260 q51 0 102.5 10t80.5 28q35 23 53 56q18 34 18 86q0 92 -65 129q-61 35 -193 35h-256v-344zM356 647h236q47 0 108 8q47 6 78 25q33 20 47 47q14 29 15 76q0 80 -54 108q-59 33 -163 33h-267v-297z" />
<glyph unicode="&#x433;" horiz-adv-x="817" d="M174 0v1098h604v-154h-422v-944h-182z" />
<glyph unicode="&#x434;" horiz-adv-x="1118" d="M41 154h86q66 98 115 206q47 104 82 234q33 117 51 250q18 129 18 254h535v-944h151v-535h-174v381h-690v-381h-174v535zM319 154h426v804h-192q-6 -102 -25 -210q-16 -100 -47 -213q-23 -84 -69 -201q-40 -96 -93 -180z" />
<glyph unicode="&#x435;" horiz-adv-x="1095" d="M113 541q0 139 32 243q35 109 95 181q63 76 143 114.5t184 38.5q102 0 178 -35q78 -37 134 -100q51 -59 84 -156q31 -90 30 -200v-113h-692q6 -195 82 -285t227 -90q66 0 95 4q57 8 83 15q43 10 78 24q70 29 78 33v-162l-78 -33q-27 -10 -80 -22t-84 -14q-57 -4 -94 -4 q-109 0 -201 36.5t-157 108.5q-61 68 -100 176q-37 105 -37 240zM305 662h492q0 70 -13 124q-10 51 -43 97q-27 39 -71.5 61.5t-106.5 22.5q-113 0 -180 -78q-66 -73 -78 -227z" />
<glyph unicode="&#x436;" horiz-adv-x="1474" d="M4 0l463 565l-424 533h197l415 -533v533h164v-533l416 533h197l-424 -533l462 -565h-206l-445 557v-557h-164v557l-444 -557h-207z" />
<glyph unicode="&#x437;" horiz-adv-x="940" d="M68 49v166q20 -10 69 -31q41 -16 82 -28q43 -12 92 -19q66 -8 99 -8q59 0 102 8q51 10 84 31q34 22 55 55q20 33 21 86q0 94 -65.5 139.5t-205.5 45.5h-129v153h97q68 0 110 8q45 8 86 29q35 18 56 51q20 35 20 78q0 76 -57.5 115t-165.5 39q-71 0 -135 -19 q-61 -18 -140 -53l-63 147q18 10 78 33q40 15 80 25q53 12 86 14q61 4 98 4q86 0 158 -18q70 -18 125 -58q57 -41 81 -90q29 -57 29 -125q0 -51 -14 -88q-16 -41 -39 -69q-16 -20 -62 -49q-25 -16 -77 -35v-11q51 -18 86 -36q41 -23 71 -56q35 -39 51 -77q18 -45 19 -107 q0 -70 -27 -125q-31 -63 -80 -102q-55 -43 -137 -68q-83 -25 -196 -24q-111 0 -197 18q-90 18 -145 51z" />
<glyph unicode="&#x438;" horiz-adv-x="1255" d="M174 0v1098h172v-668l-12 -252l516 920h233v-1098h-172v647l11 271l-514 -918h-234z" />
<glyph unicode="&#x439;" horiz-adv-x="1255" d="M174 0v1098h172v-668l-12 -252l516 920h233v-1098h-172v647l11 271l-514 -918h-234zM244 1559h170q6 -53 18 -93q10 -33 39 -57q20 -18 64 -29q33 -8 90 -8q39 0 80 10q35 8 63 31q27 20 45 57q16 33 23 89h174q-6 -80 -31 -138q-25 -59 -70 -98t-118 -61 q-68 -20 -170 -21q-100 0 -172 19q-68 18 -115 61q-41 39 -64 98q-20 56 -26 140z" />
<glyph unicode="&#x43a;" horiz-adv-x="1005" d="M174 0v1098h180v-533l408 533h196l-415 -527l454 -571h-206l-437 557v-557h-180z" />
<glyph unicode="&#x43b;" horiz-adv-x="1116" d="M16 -2v131q22 -6 50 -6q57 0 100 59q45 61 78 178q39 141 61 304q25 182 43 434h596v-1098h-182v944h-258q-23 -272 -51 -440q-29 -172 -80 -297q-47 -115 -112.5 -168t-151.5 -53q-18 0 -52 4q-31 4 -41 8z" />
</font>
</defs>
</svg>
