<?xml version="1.0" standalone="no"?>
<!DOCTYPE svg PUBLIC "-//W3C//DTD SVG 1.1//EN" "http://www.w3.org/Graphics/SVG/1.1/DTD/svg11.dtd" >
<svg xmlns="http://www.w3.org/2000/svg">
<metadata>
This is a custom SVG webfont generated by Font Squirrel.
Copyright   : Digitized data copyright  2006 Google Corporation
Foundry     : Ascender Corporation
Foundry URL : httpwwwascendercorpcom
</metadata>
<defs>
<font id="webfont8VfWbLAP" horiz-adv-x="1126" >
<font-face units-per-em="2048" ascent="1638" descent="-410" />
<missing-glyph horiz-adv-x="530" />
<glyph unicode=" "  horiz-adv-x="530" />
<glyph unicode="&#x09;" horiz-adv-x="530" />
<glyph unicode="&#xa0;" horiz-adv-x="530" />
<glyph unicode="!" horiz-adv-x="585" d="M117 143q0 41 14 80q10 29 37 51q20 18 55 28.5t70 10.5q33 0 67.5 -10t55.5 -29q23 -20 37 -50.5t14 -80t-14 -77.5q-18 -37 -37 -54q-25 -22 -56 -30q-27 -8 -67 -9q-43 0 -70 9q-31 9 -55 30q-25 20 -37 54q-14 36 -14 77zM121 1462h346l-51 -977h-244z" />
<glyph unicode="&#x22;" horiz-adv-x="966" d="M133 1462h279l-41 -528h-197zM555 1462h279l-41 -528h-197z" />
<glyph unicode="#" horiz-adv-x="1320" d="M45 406v206h277l47 232h-252v209h289l77 407h219l-77 -407h198l78 407h215l-78 -407h240v-209h-279l-47 -232h258v-206h-297l-77 -406h-220l78 406h-194l-76 -406h-215l74 406h-238zM539 612h196l47 232h-196z" />
<glyph unicode="$" d="M98 1044q0 72 29 136q27 59 82 108q52 46 129 74q78 29 170 37v157h137v-151q104 -8 178 -25q90 -20 191 -63l-101 -234q-78 29 -135 47q-55 16 -133 25v-293l39 -14q90 -31 166 -72q74 -39 119 -84q51 -51 69 -102q23 -61 23 -133q0 -78 -27 -140q-27 -63 -78 -110 t-131 -80t-180 -41v-205h-137v201q-86 4 -123 8q-70 8 -104 16q-59 14 -93 27q-41 14 -88 35v264q51 -27 93 -41q33 -12 102 -33q41 -12 106 -26q49 -10 107 -15v318q-4 0 -8 2t-8.5 4t-8.5 4t-8 2q-6 2 -14 6q-86 31 -160 72q-59 33 -113 86q-46 46 -67 104q-23 61 -23 129 zM399 1051q0 -45 27 -78t82 -53v233q-53 -6 -82 -31q-27 -24 -27 -71zM645 328q59 10 86 39q29 33 29 84q0 25 -6 43t-21 32q-16 16 -35 27l-53 27v-252z" />
<glyph unicode="%" horiz-adv-x="1802" d="M63 1026q0 111 21 193q23 90 61 143q43 59 109 90q65 31 154 31q88 0 151 -31q68 -33 111 -90q45 -61 65 -143q23 -90 23 -193q0 -113 -21 -195q-23 -90 -63 -145q-43 -59 -108.5 -90t-157.5 -31q-84 0 -149.5 31t-108.5 90q-41 55 -64 145.5t-23 194.5zM315 1024 q0 -127 23 -190q23 -61 72 -61.5t73 61.5q23 55 23 190q0 250 -96 250q-49 0 -72 -62q-23 -63 -23 -188zM375 0l811 1462h239l-811 -1462h-239zM1047 442q0 111 20 193q23 90 61 143q43 59 109 90q65 31 154 31q88 0 151 -31q68 -33 111 -90q45 -61 65 -143q23 -90 23 -193 q0 -113 -21 -194q-23 -86 -63 -144q-43 -59 -109 -90q-70 -33 -157 -32q-80 0 -150 32q-61 29 -106 90.5t-66 143.5q-22 90 -22 194zM1298 440q0 -127 23 -190q23 -61 72 -61.5t73 61.5q23 57 23 190q0 250 -96 250q-49 0 -72 -61q-23 -64 -23 -189z" />
<glyph unicode="&#x26;" horiz-adv-x="1478" d="M82 395q0 76 18 137q16 55 53 108.5t83 90.5q49 41 108 76q-45 57 -65 88q-25 39 -41 84q-20 59 -25 84q-6 43 -6 86q0 78 31 139q33 63 84 105q61 49 131 67q80 23 165 23q88 0 158 -21q72 -20 125 -61q49 -37 82 -101q31 -58 31 -135q0 -66 -23 -127q-20 -53 -59 -106 q-37 -49 -90 -90q-63 -49 -111 -76l260 -268q33 61 62 139q25 66 45 147h317q-20 -78 -35 -120q-18 -55 -49 -127q-18 -41 -61 -125q-27 -53 -78 -121l283 -291h-377l-97 100q-76 -53 -176 -88q-92 -33 -213 -32q-119 0 -217 30q-100 31 -168 84q-70 55 -106 131 q-39 82 -39 170zM403 424q0 -43 17 -80q14 -33 43 -57q28 -25 67 -37q47 -14 84 -14q55 0 111 16q51 14 94 43l-309 330q-55 -45 -80 -90q-27 -48 -27 -111zM489 1122q0 -49 23 -98q18 -41 63 -92q74 41 117 88q39 41 39 104q0 27 -10 52q-8 18 -27 36q-14 14 -36.5 20.5 t-41.5 6.5q-23 0 -45 -6t-41 -19q-16 -10 -30 -36q-11 -19 -11 -56z" />
<glyph unicode="'" horiz-adv-x="544" d="M133 1462h279l-41 -528h-197z" />
<glyph unicode="(" horiz-adv-x="692" d="M82 561q0 123 18 246q18 125 56 237q37 117 92 220q53 100 135 198h250q-143 -197 -213 -424q-72 -233 -72 -475q0 -121 19 -237q20 -131 53 -231.5t90 -219.5q43 -90 121 -199h-248q-86 100 -135 193q-57 109 -92 215q-37 114 -56 233q-18 121 -18 244z" />
<glyph unicode=")" horiz-adv-x="692" d="M61 1462h250q82 -98 135 -198q55 -102 93 -220q37 -113 55 -237q18 -123 18 -246t-18 -244q-18 -120 -55 -233q-35 -106 -93 -215q-49 -92 -135 -193h-248q78 109 121 199q57 119 90 219.5t54 231.5q18 117 18 237q0 242 -72 475q-70 227 -213 424z" />
<glyph unicode="*" horiz-adv-x="1114" d="M63 1042l39 250l365 -104l-41 368h262l-41 -368l373 104l33 -252l-340 -24l223 -297l-227 -121l-156 313l-137 -311l-236 119l221 297z" />
<glyph unicode="+" d="M88 612v219h367v369h219v-369h366v-219h-366v-364h-219v364h-367z" />
<glyph unicode="," horiz-adv-x="593" d="M63 -264q6 23 15.5 65.5l13.5 61.5l29 131l24 129l10.5 62.5t8.5 52.5h280l15 -23l-33 -115q-18 -61 -43 -123q-8 -25 -49 -124q-6 -16 -51 -117h-220z" />
<glyph unicode="-" horiz-adv-x="657" d="M61 424v250h537v-250h-537z" />
<glyph unicode="." horiz-adv-x="583" d="M117 143q0 41 14 80q10 29 37 51q20 18 55 28.5t70 10.5q33 0 67.5 -10t55.5 -29q23 -20 37 -50.5t14 -80t-14 -77.5q-18 -37 -37 -54q-25 -22 -56 -30q-27 -8 -67 -9q-43 0 -70 9q-31 9 -55 30q-25 20 -37 54q-14 36 -14 77z" />
<glyph unicode="/" horiz-adv-x="845" d="M14 0l545 1462h277l-545 -1462h-277z" />
<glyph unicode="0" d="M63 731q0 182 27 318q27 137 88.5 235t155.5 149.5t229 51.5q125 0 219.5 -51.5t158 -147.5t94 -237.5t30.5 -317.5q0 -182 -27 -315q-29 -141 -88 -238q-57 -92 -157 -147q-94 -51 -230 -51q-127 0 -221 51q-96 53 -156 147q-61 98 -92 238q-31 137 -31 315zM371 731 q0 -252 43 -377t149 -125q104 0 150 125q45 123 45 377t-45 377q-47 127 -150 127q-51 0 -90 -33t-59 -94q-25 -74 -33 -158q-10 -106 -10 -219z" />
<glyph unicode="1" d="M92 1087l471 375h254v-1462h-309v846v63q0 12 1 37t1 39l4 80q0 14 1 37.5t1 34.5q-2 -2 -7 -8.5t-9 -10.5q-6 -6 -13.5 -12t-15.5 -14q-14 -14 -31 -29q-10 -10 -30 -27l-168 -135z" />
<glyph unicode="2" d="M78 1274q61 53 94 78q59 43 109 67q63 31 129 47q63 16 159 17q102 0 189 -29q80 -27 141.5 -82t91.5 -131q31 -78 31 -170q0 -84 -31 -164q-31 -82 -82 -155q-47 -68 -121 -150l-145 -151l-176 -177v-14h596v-260h-981v215l344 371l119 129q53 59 90 114q39 57 59 115 q20 55 21 125q0 74 -45 115t-119 41q-80 0 -152 -39q-74 -40 -153 -111z" />
<glyph unicode="3" d="M57 59v263q35 -18 95 -41q45 -16 100 -31q49 -12 98 -18.5t92 -6.5q82 0 144 17q51 14 90 45q33 27 49 69q14 37 14 88q0 45 -18 82q-18 39 -59 62q-41 25 -109 39q-63 14 -166 14h-104v217h102q88 0 154 16q55 14 96 46q35 27 51 65.5t16 81.5q0 80 -49 123t-153 43 q-43 0 -90 -10q-45 -10 -76 -23q-35 -14 -66 -33q-35 -20 -53 -34l-156 206q57 41 91 58q59 29 108 45q59 18 125 31q55 10 143 10q115 0 197 -23q80 -23 151 -69q61 -41 97 -109q35 -66 35 -147q0 -74 -25 -136q-25 -63 -66 -106q-43 -45 -100 -76q-63 -33 -125 -47v-6 q176 -20 268 -107q90 -84 91 -231q0 -92 -35 -178q-33 -78 -105 -142q-63 -55 -180 -92q-111 -35 -256 -34q-104 0 -221 20q-103 18 -195 59z" />
<glyph unicode="4" d="M4 303v215l621 944h284v-919h176v-240h-176v-303h-301v303h-604zM276 543h332v248v38q0 8 1 26.5t1 29t1 31t1 32.5l4 64q0 10 1 27.5t1 23.5q0 8 1.5 19.5t1.5 13.5h-9q-2 -4 -41 -88q-18 -41 -51 -95z" />
<glyph unicode="5" d="M86 59v267q16 -10 82 -37q47 -18 94 -31q63 -16 100 -20q49 -6 95 -7q133 0 205 56q70 55 69 176q0 106 -69.5 163.5t-210.5 57.5q-35 0 -56 -2q-37 -4 -57 -8l-55 -12q-6 -2 -22.5 -5.5t-22.5 -5.5l-123 66l55 745h772v-262h-504l-24 -287q61 12 75 15q43 6 109 6 q92 0 174 -29q74 -27 141 -86q59 -53 94 -139t35 -191q0 -117 -36.5 -213t-108.5 -161q-74 -68 -180 -101q-111 -35 -244 -34q-53 0 -108 6q-70 8 -105 14q-53 10 -94 25q-51 18 -80 34z" />
<glyph unicode="6" d="M76 621q0 104 12 208q14 117 41 201q29 90 80 176q47 80 127 144q74 59 186 94q111 35 254 35h45q8 0 25.5 -2t25.5 -2q16 0 50 -5q25 -3 43 -6v-247q-27 6 -80 14q-43 6 -86 6q-137 0 -221 -33q-88 -35 -140 -94q-49 -59 -71 -143q-20 -78 -27 -187h12q22 37 49 68 q29 31 66 53q43 27 86 37q45 12 106 12q94 0 170 -30.5t129 -90.5q51 -57 80 -145q29 -90 29 -197q0 -121 -33 -213q-33 -94 -96 -159q-66 -68 -150 -101q-92 -35 -198 -34q-111 0 -203 38.5t-162 116.5q-70 80 -110 201q-39 117 -39 285zM383 510q0 -53 12 -102 q12 -45 39 -91q27 -41 62 -65q37 -25 88 -25q45 0 75.5 14.5t57.5 47.5q25 31 37 80q14 57 14 114q0 104 -45 168q-43 61 -135 62q-47 0 -84 -18.5t-66 -47.5q-25 -25 -41 -63q-14 -35 -14 -74z" />
<glyph unicode="7" d="M55 1200v260h1008v-194l-533 -1266h-323l520 1200h-672z" />
<glyph unicode="8" d="M72 371q0 72 22 135q18 55 60 108q33 43 90 84q61 43 108 66q-49 31 -92 67q-39 33 -73.5 82.5t-51.5 98.5q-18 55 -18 118q0 86 37 152q39 70 98 111q63 43 143 65q84 23 170 23q88 0 172 -23q78 -20 142 -65q59 -41 98 -111q35 -61 35 -154q0 -72 -21 -120 q-25 -59 -53 -97q-35 -43 -84 -77t-104 -62q49 -27 114 -70q53 -35 99 -84q41 -45 67 -106q27 -63 27 -133q0 -96 -35 -166t-102 -125q-63 -51 -155.5 -79.5t-199.5 -28.5q-123 0 -211 26q-84 25 -153 78q-61 47 -97 123q-32 72 -32 164zM358 389q0 -40 13 -74 q10 -29 39 -57q25 -25 63 -37q43 -14 88 -14q106 0 157.5 49t51.5 131q0 43 -18 76q-20 37 -45 61q-31 31 -62 54l-70 45l-22 14q-37 -18 -80 -47q-33 -23 -61 -58q-25 -31 -39.5 -65.5t-14.5 -77.5zM408 1106q0 -41 12 -72q12 -29 35 -55q16 -20 49 -41l61 -37q29 14 60 35 q28 18 49 43q23 27 35 55q12 31 12 72q0 37 -12 63q-14 31 -33 48q-23 20 -49 28q-31 10 -64 10q-31 0 -61 -10q-27 -8 -49 -28q-18 -16 -33 -48q-12 -26 -12 -63z" />
<glyph unicode="9" d="M63 971q0 121 33 213q33 94 97 159q66 68 149 101q92 35 199 35q111 0 202 -39q98 -41 162 -117q72 -86 111 -201q39 -117 39 -284q0 -121 -11 -209q-14 -117 -40.5 -201t-81.5 -176q-47 -80 -127 -143q-74 -59 -187 -95q-111 -35 -254 -34q-6 0 -22.5 1t-24.5 1t-24.5 1 t-24.5 1q-16 0 -49 4q-25 3 -43 6v248q27 -6 80 -15q43 -6 86 -6q139 0 223 33q86 33 137 94q49 57 72 146q20 78 27 184h-13q-22 -37 -49 -68q-29 -31 -65 -53q-45 -27 -86 -37q-49 -12 -107 -12q-95 0 -172 31q-72 29 -127 90t-82 145q-27 82 -27 197zM362 975 q0 -109 46 -168q47 -61 135 -62q47 0 84 18.5t65 47.5q25 25 41 63q14 35 15 74q0 51 -13 101q-14 55 -37 92q-25 39 -63 65q-37 25 -88 25q-45 0 -76 -14.5t-57 -47.5q-27 -35 -39 -79q-13 -49 -13 -115z" />
<glyph unicode=":" horiz-adv-x="583" d="M117 143q0 41 14 80q10 29 37 51q20 18 55 28.5t70 10.5q33 0 67.5 -10t55.5 -29q23 -20 37 -50.5t14 -80t-14 -77.5q-18 -37 -37 -54q-25 -22 -56 -30q-27 -8 -67 -9q-43 0 -70 9q-31 9 -55 30q-25 20 -37 54q-14 36 -14 77zM117 969q0 41 14 80q10 31 37 53 q20 18 55 28q27 8 70 9q41 0 67 -9q35 -10 55.5 -28.5t37.5 -52.5q14 -31 14 -80q0 -47 -14 -78q-16 -35 -37 -53.5t-55.5 -28.5t-67.5 -10q-35 0 -70 10t-55 29q-27 23 -37 53q-14 39 -14 78z" />
<glyph unicode=";" horiz-adv-x="593" d="M63 -264q6 23 15.5 65.5l13.5 61.5l29 131l24 129l10.5 62.5t8.5 52.5h280l15 -23l-33 -115q-18 -61 -43 -123q-8 -25 -49 -124q-6 -16 -51 -117h-220zM117 969q0 41 14 80q10 31 37 53q20 18 55 28q27 8 70 9q41 0 67 -9q35 -10 55.5 -28.5t37.5 -52.5q14 -31 14 -80 q0 -47 -14 -78q-16 -35 -37 -53.5t-55.5 -28.5t-67.5 -10q-35 0 -70 10t-55 29q-27 23 -37 53q-14 39 -14 78z" />
<glyph unicode="&#x3c;" d="M88 641v143l952 496v-240l-643 -317l643 -281v-239z" />
<glyph unicode="=" d="M88 418v219h952v-219h-952zM88 807v217h952v-217h-952z" />
<glyph unicode="&#x3e;" d="M88 203v239l643 281l-643 317v240l952 -496v-143z" />
<glyph unicode="?" horiz-adv-x="937" d="M25 1358q43 25 94 47q59 27 104 41q49 16 110.5 26.5t110.5 10.5q101 0 185 -25q78 -23 139 -72q55 -43 86 -112q31 -68 31 -154q0 -68 -15 -112q-16 -55 -41 -93q-27 -43 -69 -81q-59 -55 -96 -84q-27 -20 -68 -58q-20 -18 -41 -47q-16 -25 -23 -45q-4 -16 -4 -55v-60 h-264v74q0 45 10 92q8 37 33 80q18 31 55 72q37 39 82 74q25 18 70 59q27 23 47 51q16 20 27 53q8 25 8 66q0 57 -39 94q-41 37 -117 37q-68 0 -149 -29q-66 -23 -164 -71zM231 143q0 46 13 80q8 25 39 51q23 20 55 29q37 10 69.5 10t67.5 -10t55 -29q23 -20 37.5 -50.5 t14.5 -80t-15 -77.5q-18 -37 -37 -54q-25 -22 -55 -30q-27 -8 -67 -9q-39 0 -70 9q-29 8 -55 30q-27 25 -39 54q-13 30 -13 77z" />
<glyph unicode="@" horiz-adv-x="1773" d="M102 602q0 129 27 238q29 119 78 211q51 96 125 176q80 86 168 137q96 57 207 86q113 31 241 31q154 0 291 -51.5t229 -143.5q98 -98 151.5 -229t53.5 -305q0 -92 -22 -189q-20 -86 -70 -166q-47 -74 -115 -118q-70 -45 -163 -46q-41 0 -72 8.5t-62 28.5q-27 18 -47 41 t-32 51h-15q-12 -16 -45 -49q-18 -18 -55 -41q-33 -20 -68 -28q-41 -10 -82 -11q-80 0 -147 29q-66 29 -109 80q-47 57 -67 127q-23 78 -23 162q0 102 31 188q33 90 88 150q59 63 141 96q86 35 187 35q61 0 94 -4q61 -8 92 -15l40 -7t42 -9q20 -4 68 -21l-21 -419 q-2 -14 -2 -43v-27q0 -43 6 -70q4 -23 17 -41q8 -14 24 -22q12 -6 29 -6q37 0 61 26q25 28 43 74q16 43 27 107q8 55 8 131q0 121 -39 227q-37 102 -104.5 170t-159.5 104.5t-203 36.5q-156 0 -270.5 -51t-194.5 -143t-118 -215q-41 -129 -41 -275q0 -135 34 -246 q31 -98 105 -178q68 -74 170 -110q101 -37 233 -37q55 0 115 6q39 4 117 20q84 18 116 29q88 31 107 37v-192q-86 -39 -209 -66q-113 -25 -244 -25q-184 0 -323 52q-150 55 -242 147q-98 98 -149.5 237.5t-51.5 319.5zM711 627q0 -111 39 -162q37 -49 100 -49q37 0 72 20 q33 20 51 56q25 47 31 83q9 49 12 111l12 221q-16 4 -47 8q-18 2 -55 3q-61 0 -101 -25q-41 -25 -65 -66q-25 -39 -37 -94q-12 -53 -12 -106z" />
<glyph unicode="A" horiz-adv-x="1329" d="M0 0l475 1468h379l477 -1468h-313l-100 348h-504l-101 -348h-313zM489 608h357l-94 320l-19 59q-6 20 -11 43t-13 47q-4 16 -13.5 50t-13.5 50.5t-16 84.5l-11 -52q-8 -41 -14 -63l-9 -31.5t-9.5 -36t-16.5 -63.5l-14 -53q-2 -12 -6 -20.5t-4 -14.5z" />
<glyph unicode="B" horiz-adv-x="1314" d="M184 0v1462h428q125 0 242 -20q102 -18 174 -62q66 -39 105 -114q37 -70 36 -174q0 -55 -16 -115q-16 -57 -43 -96q-29 -41 -70 -68q-43 -29 -96 -37v-10q53 -12 103 -35q47 -23 83 -61q33 -35 56 -101q20 -59 20 -145q0 -96 -35 -178q-31 -74 -100 -133 q-66 -55 -160 -84q-96 -29 -211 -29h-516zM494 256h182q61 0 102 14q45 16 67.5 39t37.5 64q10 31 10 82q0 47 -10 75q-12 33 -39 58q-29 25 -70 37q-43 12 -106 12h-174v-381zM494 883h161q51 0 97 10q35 8 63 33q27 23 35 51q10 35 10 74q0 84 -53 120q-52 37 -166 37 h-147v-325z" />
<glyph unicode="C" horiz-adv-x="1304" d="M119 729q0 170 45 305q45 133 133 238q84 100 215 155q129 55 293 56q113 0 219 -27q109 -27 209 -76l-100 -252q-88 43 -164 68q-86 29 -164 29q-88 0 -157.5 -35t-115.5 -98q-43 -61 -69 -158q-25 -92 -25 -207q0 -121 21 -209q20 -86 67 -153q43 -61 113 -95 q68 -33 166 -32q94 0 178 20q102 25 195 57v-260q-33 -14 -95 -35q-31 -10 -96 -22t-100 -14q-70 -4 -111 -4q-170 0 -293 55q-129 57 -204 151q-82 100 -121 235.5t-39 307.5z" />
<glyph unicode="D" horiz-adv-x="1433" d="M184 0v1462h428q160 0 291 -47q129 -46 221 -135q92 -88 142 -225q49 -135 49 -310q0 -182 -51 -325q-49 -139 -146 -232q-100 -96 -233 -141q-141 -47 -316 -47h-385zM494 256h114q197 0 295 121q98 119 98 360q0 123 -24 211q-23 84 -72 146q-45 57 -114.5 85.5 t-153.5 28.5h-143v-952z" />
<glyph unicode="E" horiz-adv-x="1146" d="M184 0v1462h842v-254h-532v-321h495v-254h-495v-377h532v-256h-842z" />
<glyph unicode="F" horiz-adv-x="1122" d="M184 0v1462h838v-254h-533v-377h496v-253h-496v-578h-305z" />
<glyph unicode="G" horiz-adv-x="1482" d="M119 733q0 168 51 311q49 137 147 236q96 96 239.5 149.5t326.5 53.5q119 0 229.5 -24.5t204.5 -65.5l-103 -248q-76 39 -153 57q-90 23 -180 23q-104 0 -183 -35q-84 -37 -141 -100q-55 -61 -88 -158q-31 -92 -31 -205t21 -197q23 -92 67.5 -155.5t118.5 -100t174 -36.5 q65 0 111 6q57 8 86 14v305h-277v258h580v-758q-78 -25 -117 -34q-76 -20 -123 -27q-86 -12 -133 -16q-71 -6 -147 -6q-164 0 -291 49q-129 51 -213 143q-84 94 -131 236q-45 137 -45 325z" />
<glyph unicode="H" horiz-adv-x="1484" d="M184 0v1462h310v-573h497v573h309v-1462h-309v631h-497v-631h-310z" />
<glyph unicode="I" horiz-adv-x="796" d="M66 0v176l178 82v946l-178 82v176h665v-176l-178 -82v-946l178 -82v-176h-665z" />
<glyph unicode="J" horiz-adv-x="677" d="M-199 -150q25 -6 78 -14q39 -6 88 -6q41 0 86 10q35 8 68 35q31 25 47 66q16 43 16 102v1419h310v-1409q0 -125 -37 -217q-39 -94 -101 -151q-63 -57 -157 -86q-96 -29 -201 -29q-66 0 -115 6q-41 4 -82 16v258z" />
<glyph unicode="K" horiz-adv-x="1296" d="M184 0v1462h310v-704l122 207l334 497h344l-467 -659l471 -803h-352l-336 608l-116 -86v-522h-310z" />
<glyph unicode="L" horiz-adv-x="1095" d="M184 0v1462h310v-1206h532v-256h-842z" />
<glyph unicode="M" horiz-adv-x="1869" d="M184 0v1462h422l316 -1118h6l336 1118h422v-1462h-289v692v60q0 10 1 33.5t1 36t1 38t1 37.5t2 36.5t2 37.5q4 92 6 174h-8l-346 -1145h-285l-321 1147h-9q8 -125 11 -178q2 -25 2 -76l4 -78q0 -12 1 -36.5t1 -35.5v-63v-680h-277z" />
<glyph unicode="N" horiz-adv-x="1603" d="M184 0v1462h391l574 -1095h6l-6 149q0 10 -2 31.5t-2 34t-1 35t-1 32.5q0 12 -1 34t-1 32v55v692h278v-1462h-393l-575 1106h-9q8 -102 11 -154l6 -135q2 -47 2 -129v-688h-277z" />
<glyph unicode="O" horiz-adv-x="1546" d="M119 735q0 174 39 309.5t121 235.5q80 98 204.5 151.5t292.5 53.5q166 0 291 -53q121 -51 203 -151.5t121 -238.5q39 -135 39 -309q0 -172 -39 -307q-41 -141 -121 -240q-76 -94 -205 -151q-123 -55 -291 -55t-291 55q-129 57 -204 151q-80 98 -121 240q-39 135 -39 309z M438 733q0 -119 21 -207q23 -98 61 -155q43 -63 105 -97q66 -35 149 -34q86 0 151.5 34.5t104.5 96.5q41 68 60 155q20 102 20 207t-20 207q-18 88 -60 156q-41 66 -102 98q-63 33 -151.5 33t-151.5 -33q-59 -31 -105 -98q-39 -57 -61 -156q-21 -88 -21 -207z" />
<glyph unicode="P" horiz-adv-x="1224" d="M184 0v1462h406q135 0 244 -32q104 -33 170 -89q68 -59 98 -143q31 -86 31 -192q0 -92 -29 -185q-27 -84 -96.5 -153.5t-174 -108.5t-268.5 -39h-71v-520h-310zM494 774h61q131 0 197 51q68 51 67 170q0 106 -59.5 159.5t-186.5 53.5h-79v-434z" />
<glyph unicode="Q" horiz-adv-x="1546" d="M119 735q0 174 39 309.5t121 235.5q80 98 204.5 151.5t292.5 53.5q166 0 291 -53q121 -51 203 -151.5t121 -238.5q39 -135 39 -309q0 -119 -19 -223q-18 -100 -59 -191q-40 -86 -99 -153q-55 -63 -141 -111l361 -403h-398l-268 330h-12q-2 0 -5.5 -1t-5.5 -1h-10 q-168 0 -291 55q-129 57 -204 151q-80 98 -121 240q-39 135 -39 309zM438 733q0 -119 21 -207q23 -98 61 -155q43 -63 105 -97q66 -35 149 -34q86 0 151.5 34.5t104.5 96.5q41 68 60 155q20 102 20 207t-20 207q-18 88 -60 156q-41 66 -102 98q-63 33 -151.5 33t-151.5 -33 q-59 -31 -105 -98q-39 -57 -61 -156q-21 -88 -21 -207z" />
<glyph unicode="R" horiz-adv-x="1288" d="M184 0v1462h400q279 0 415 -108q133 -106 134 -330q0 -76 -21 -135q-25 -70 -53 -109q-37 -51 -76 -84q-37 -33 -92 -59l199 -318l73 -116l64 -103l47 -71l16 -29h-344l-317 561h-135v-561h-310zM494 813h84q133 0 186 51q55 53 55 152q0 106 -59 147q-63 45 -187 45h-79 v-395z" />
<glyph unicode="S" horiz-adv-x="1071" d="M94 68v288q80 -39 96 -45l101 -39q41 -16 100 -26q55 -10 101 -10q51 0 88 12q43 14 59 31q25 25 33 49q10 31 10 63q0 41 -18 72q-23 37 -48 59q-27 25 -77 53l-99 56l-102 57q-53 31 -109 86q-49 49 -84 121q-35 74 -34 172q0 102 32 176q37 84 93 131q63 53 145 80 q90 29 192 29q53 0 103 -6q37 -4 100 -21q39 -10 101 -33q53 -20 102 -43l-100 -241q-55 27 -84 37q-27 10 -76 26q-27 8 -72 17q-37 6 -72 6q-80 0 -120.5 -41t-40.5 -111q0 -37 12 -65.5t41 -53.5q37 -33 70 -51l106 -59q76 -41 137 -82q59 -39 109 -92 q47 -51 71.5 -114.5t24.5 -149.5q0 -98 -33 -177q-33 -76 -98 -133q-63 -55 -158 -86q-92 -31 -215 -30q-102 0 -205 22q-96 21 -182 66z" />
<glyph unicode="T" horiz-adv-x="1122" d="M41 1204v258h1042v-258h-366v-1204h-309v1204h-367z" />
<glyph unicode="U" horiz-adv-x="1464" d="M174 520v942h309v-919q0 -76 17 -137q14 -55 47 -95q31 -37 78 -55q41 -16 110 -16q131 0 189 75q59 78 59 230v917h309v-946q0 -113 -34.5 -213t-104.5 -170q-76 -76 -176 -113q-111 -41 -250 -40q-135 0 -238 38q-106 41 -174 109q-63 63 -104 172q-37 98 -37 221z" />
<glyph unicode="V" horiz-adv-x="1247" d="M0 1462h313l248 -880q4 -10 14 -58q4 -16 7.5 -38.5t9.5 -49.5q10 -47 18 -94q4 -18 8.5 -46t6.5 -36q2 8 6 36t8 46l18 94q4 18 12.5 52t8.5 36q10 47 14 58l244 880h313l-456 -1462h-338z" />
<glyph unicode="W" horiz-adv-x="1896" d="M0 1462h305l166 -798q2 -10 8 -46l13 -69q4 -27 14 -80q10 -51 14 -82q4 -23 8 -41t7 -33l8 -57q6 47 8 55q6 35 12 74l12 80l15 76l12 63q2 10 5 22.5t3 16.5l203 819h272l203 -819q2 -4 4 -16.5t4 -22.5l13 -63q2 -12 6 -33l8 -43l12 -80q6 -39 13 -74q2 -8 8 -55 q0 4 2 15.5t3 21.5t3 20q6 34 12 74q4 31 15 82q4 18 8 38.5l8 41.5q6 39 12 69l8 46l166 798h305l-352 -1462h-352l-180 721q-2 4 -5 18.5l-5 24.5q-8 33 -13 59l-12 72q-2 14 -7 37.5t-7 34.5q-8 45 -11 65q-2 25 -6 47q-4 -23 -6 -47q-2 -20 -10 -65q-2 -16 -6 -34 l-8 -36l-13 -72q-6 -34 -12 -61q-2 -8 -5 -23.5t-5 -21.5l-178 -719h-353z" />
<glyph unicode="X" horiz-adv-x="1282" d="M0 0l444 754l-413 708h342l274 -526l268 526h334l-418 -725l453 -737h-354l-299 553l-299 -553h-332z" />
<glyph unicode="Y" horiz-adv-x="1193" d="M0 1462h336l262 -602l264 602h334l-444 -893v-569h-308v559z" />
<glyph unicode="Z" horiz-adv-x="1103" d="M49 0v201l619 1005h-600v256h968v-200l-618 -1006h637v-256h-1006z" />
<glyph unicode="[" horiz-adv-x="677" d="M143 -324v1786h484v-211h-224v-1364h224v-211h-484z" />
<glyph unicode="\" horiz-adv-x="845" d="M12 1462h277l545 -1462h-277z" />
<glyph unicode="]" horiz-adv-x="677" d="M51 -113h223v1364h-223v211h484v-1786h-484v211z" />
<glyph unicode="^" horiz-adv-x="1089" d="M8 520l438 950h144l495 -950h-239l-322 643l-141 -323l-139 -320h-236z" />
<glyph unicode="_" horiz-adv-x="841" d="M-4 -184h850v-140h-850v140z" />
<glyph unicode="`" horiz-adv-x="1181" d="M332 1548v21h342q15 -34 37 -74l45 -82q20 -37 47 -78q6 -8 15 -22.5t16.5 -25.5t13.5 -19v-27h-203l-82 70l-94 86q-47 43 -84 84q-39 42 -53 67z" />
<glyph unicode="a" horiz-adv-x="1175" d="M86 334q0 176 115 262q113 84 340 94l178 6v84q0 70 -39 102.5t-113 32.5q-78 0 -141 -20q-61 -20 -137 -57l-99 202q82 45 187 74q98 27 213 27q211 0 321.5 -98.5t110.5 -297.5v-745h-213l-59 152h-9q-33 -45 -65 -78q-29 -29 -74 -54q-41 -23 -86 -30 q-55 -10 -113 -10q-66 0 -127 22q-59 23 -100 64q-39 39 -65 110q-25 68 -25 158zM399 332q0 -68 33 -99q35 -31 90 -30q43 0 78 14q31 12 62 43q29 29 43 70t14 96v92l-101 -4q-68 -4 -104 -16q-45 -16 -65 -37q-29 -29 -39 -55q-11 -29 -11 -74z" />
<glyph unicode="b" horiz-adv-x="1243" d="M160 0v1556h305v-362q0 -45 -2 -72q0 -12 -1 -35.5t-3 -35.5q0 -18 -2 -39t-4 -39h12q29 45 47 65q27 31 63 52q49 29 80 36q45 12 101 13q88 0 157 -37q68 -35 121 -111q53 -74 80 -180q29 -111 29 -250q0 -141 -29 -252q-29 -109 -80 -182q-53 -74 -125 -111 q-74 -37 -161 -36q-55 0 -99 12q-47 14 -78 33q-39 25 -59 45q-25 25 -47 53h-21l-51 -123h-233zM465 563q0 -72 10 -143q8 -63 31 -107q20 -41 59 -63.5t90 -22.5q90 0 133 86t43 252q0 164 -43 248q-43 82 -135 82q-49 0 -86 -18q-35 -18 -57 -56q-25 -41 -33 -94 q-8 -55 -12 -131v-33z" />
<glyph unicode="c" horiz-adv-x="1021" d="M102 553q0 164 37 278q37 113 107 183q70 68 164 96q98 29 215 29q90 0 172 -20.5t159 -59.5l-88 -232q-70 31 -127 47q-61 18 -116 19q-113 0 -160 -84q-51 -90 -51 -254t51 -248q49 -80 156 -80q84 0 157 23q59 18 146 57v-254q-4 -2 -72 -33q-25 -12 -70 -22 q-49 -12 -75 -14q-53 -4 -82 -4q-125 0 -217 32q-100 35 -164 103q-68 71 -105 178q-37 108 -37 260z" />
<glyph unicode="d" horiz-adv-x="1243" d="M102 557q0 141 29 252q29 109 80 182.5t127 110.5q74 37 160 37q55 0 100 -13q37 -10 80 -34q41 -25 65 -52q25 -29 50 -65h10q-2 12 -5 38.5t-5 41.5q-4 25 -9 71q-4 53 -4 72v358h305v-1556h-233l-59 145h-13q-25 -37 -49 -65q-29 -33 -61 -51q-41 -23 -80 -35 q-49 -14 -101 -14q-88 0 -157 36q-68 35 -121 111q-53 74 -80 180q-29 111 -29 250zM412 553q0 -166 45 -248t143 -82q55 0 92 18.5t62 55.5q20 31 34 94q12 55 13 131v33q0 72 -10 143q-8 57 -33 107q-20 41 -61.5 63.5t-98.5 22.5q-95 0 -141 -86q-45 -84 -45 -252z" />
<glyph unicode="e" horiz-adv-x="1189" d="M102 551q0 147 37 258t102.5 182.5t161.5 110.5q92 37 207 37t201 -33q90 -35 152 -98q63 -66 96 -160q33 -92 33 -217v-148h-682q4 -68 20 -116q16 -45 53 -86q34 -37 80 -56q47 -18 109 -18q49 0 96 6q57 8 88 16q57 16 86 26.5t86 39.5v-236q-40 -22 -80 -36 q-29 -10 -86 -23q-76 -14 -96 -16q-70 -4 -115 -4q-117 0 -221 34q-96 33 -174 107q-72 70 -113 178q-41 111 -41 252zM416 686h389q0 51 -12.5 94t-36.5 74q-27 33 -60 49q-37 18 -84 19q-84 0 -135 -58q-53 -59 -61 -178z" />
<glyph unicode="f" horiz-adv-x="792" d="M41 889v147l168 82v82q0 102 27 178q25 70 73 113q45 41 117 59q59 16 152 17q96 0 155 -15q68 -16 107 -32l-72 -224q-20 8 -66 21q-31 8 -79 8q-59 0 -84 -39q-25 -41 -25 -98v-70h227v-229h-227v-889h-305v889h-168z" />
<glyph unicode="g" horiz-adv-x="1128" d="M20 -182q0 63 21 106q20 45 55 76q33 29 80 53q27 12 92 31q-16 6 -41 25q-22 15 -37 36q-23 33 -28 48q-10 27 -10 53q0 31 10 57q12 33 26 49q20 25 45 43q12 10 62 41q-86 35 -139 121q-51 82 -52 199q0 94 27 162q29 74 82 120q55 49 135 74q86 27 184 27q29 0 46 -2 l49 -7q8 -2 23.5 -5t21.5 -3q18 -2 33 -6h380v-166l-163 -51q18 -29 28 -70q8 -33 8 -79q0 -88 -26 -156q-29 -72 -80 -121q-49 -47 -133 -76q-82 -29 -187 -28q-33 0 -51 2q-27 2 -39 6q-23 -18 -32 -35q-10 -14 -11 -45q0 -20 13 -33q14 -14 34 -20q27 -8 50 -11 q18 -2 57 -2h174q80 0 145 -18q61 -18 109 -57q43 -37 67.5 -96.5t24.5 -139.5q0 -90 -39 -172q-37 -78 -112 -129q-82 -55 -189 -82q-115 -29 -258 -29q-117 0 -199 21q-80 20 -143 63q-57 39 -84 97q-29 61 -29 129zM285 -158q0 -23 10 -49q8 -20 34.5 -40.5t63.5 -28.5 q45 -10 96 -11q156 0 236 43q78 41 78 119q0 63 -49 84q-47 20 -152 21h-141q-27 0 -57.5 -6.5t-57.5 -22.5q-25 -15 -43 -43q-18 -27 -18 -66zM395 752q0 -94 33 -142q35 -49 104 -49q74 0 105 49t31 141.5t-31 143.5q-31 53 -105 53q-137 1 -137 -196z" />
<glyph unicode="h" horiz-adv-x="1282" d="M160 0v1556h305v-317q0 -57 -2 -88q0 -14 -1 -43t-3 -43q-2 -16 -5 -46t-3 -44h16q49 86 125 125t172 39q90 0 151 -23q63 -23 115 -74q49 -49 74 -127q27 -84 26 -186v-729h-305v653q0 119 -36.5 180.5t-116.5 61.5q-58 0 -99 -25q-39 -25 -63 -69q-25 -47 -35 -117 q-10 -76 -10 -158v-526h-305z" />
<glyph unicode="i" horiz-adv-x="624" d="M147 1407q0 43 13 72q10 25 35 45q20 18 53 24q41 8 65 8q23 0 64 -8q33 -6 53 -24q25 -20 35 -45q14 -33 14 -72t-14 -72q-10 -25 -34.5 -45t-53.5 -26q-31 -6 -64 -7q-35 0 -65 7q-29 6 -53.5 26.5t-34.5 44.5q-13 29 -13 72zM160 0v1118h305v-1118h-305z" />
<glyph unicode="j" horiz-adv-x="624" d="M-82 -227q43 -12 57 -15q37 -4 62 -4q18 0 47 8q23 6 39 27q18 23 27 51q10 37 10 84v1194h305v-1239q0 -78 -19 -145q-18 -63 -63 -116.5t-113 -80.5q-70 -29 -168 -29q-49 0 -100 7q-49 6 -84 18v240zM147 1407q0 43 13 72q10 25 35 45q20 18 53 24q41 8 65 8 q23 0 64 -8q33 -6 53 -24q25 -20 35 -45q14 -33 14 -72t-14 -72q-10 -25 -34.5 -45t-53.5 -26q-31 -6 -64 -7q-35 0 -65 7q-29 6 -53.5 26.5t-34.5 44.5q-13 29 -13 72z" />
<glyph unicode="k" horiz-adv-x="1206" d="M160 0v1556h305v-694l-16 -254h4l112 170l273 340h344l-404 -485l430 -633h-352l-272 430l-119 -82v-348h-305z" />
<glyph unicode="l" horiz-adv-x="624" d="M160 0v1556h305v-1556h-305z" />
<glyph unicode="m" horiz-adv-x="1927" d="M160 0v1118h233l41 -143h17q27 45 57.5 73.5t73.5 51.5q40 22 86 30q41 8 90 9q119 0 196 -39q80 -41 123 -125h25q27 45 57 74q29 25 76 51q40 22 86 30q41 8 92 9q182 0 272.5 -96.5t90.5 -313.5v-729h-306v653q0 119 -36.5 180.5t-112.5 61.5q-109 0 -156 -86 q-45 -84 -45 -248v-561h-305v653q0 119 -37 180.5t-112 61.5q-55 0 -96.5 -24.5t-61.5 -69.5q-25 -51 -33 -117q-10 -76 -10 -158v-526h-305z" />
<glyph unicode="n" horiz-adv-x="1282" d="M160 0v1118h233l41 -143h17q23 41 59 74q29 25 76 51q40 22 86 30q41 8 94 9q88 0 149 -23q63 -23 115 -74q49 -49 74 -127q27 -84 26 -186v-729h-305v653q0 119 -36.5 180.5t-116.5 61.5q-61 0 -100.5 -24.5t-63.5 -69.5q-23 -43 -33 -117q-10 -76 -10 -158v-526h-305z " />
<glyph unicode="o" horiz-adv-x="1226" d="M102 561q0 145 35 248q37 109 103 180q72 78 161 113q95 37 215 37q111 0 203 -37t162 -113q68 -74 104 -180q39 -113 39 -248q0 -139 -37 -248q-39 -117 -100 -182q-68 -74 -162 -113q-92 -39 -215 -38q-115 0 -204 38q-94 41 -160 113q-70 76 -107 182q-37 109 -37 248 zM414 561q0 -164 47 -252q45 -84 153 -84q106 0 152 84q47 88 47 252q0 166 -47 250q-45 82 -154 82q-106 0 -151 -82q-47 -84 -47 -250z" />
<glyph unicode="p" horiz-adv-x="1243" d="M160 -492v1610h248l43 -145h14q25 39 47 63q31 35 63 54q49 29 80 36q45 12 101 13q88 0 157 -37q71 -37 123 -111q49 -70 78 -180.5t29 -249.5q0 -141 -29 -252q-27 -104 -82 -182q-53 -74 -125 -111q-74 -37 -159 -36q-55 0 -99 12q-47 14 -78 33q-39 25 -59 45 q-25 25 -47 53h-16q2 -12 5 -33.5t3 -32.5q2 -16 6 -53q2 -18 2 -43v-453h-305zM465 563q0 -72 10 -143q8 -63 31 -107q20 -41 59 -63.5t90 -22.5q90 0 133 86t43 252q0 164 -43 248q-43 82 -135 82q-49 0 -86 -18q-35 -18 -57 -56q-25 -41 -33 -94q-8 -55 -12 -131v-33z " />
<glyph unicode="q" horiz-adv-x="1243" d="M102 557q0 141 29 252q29 109 80 182.5t127 110.5q74 37 160 37q55 0 100 -13q41 -10 82 -34.5t65 -51.5q25 -29 50 -65h8l24 143h258v-1610h-305v469q0 29 2 48q0 8 2 26.5t2 28.5q0 16 2.5 32.5t4.5 32.5h-13q-29 -45 -47 -65q-27 -31 -63 -51q-43 -25 -80 -35 q-53 -14 -101 -14q-88 0 -157 36q-71 37 -123 111q-53 74 -80 180q-27 105 -27 250zM414 553q0 -170 45 -252t143 -82q55 0 92 19q41 20 62 55q18 33 32 94q12 55 13 131v37q0 72 -10 143q-10 66 -33 107q-25 43 -62 63q-41 23 -96 23q-95 0 -141 -86q-45 -84 -45 -252z" />
<glyph unicode="r" horiz-adv-x="888" d="M160 0v1118h231l45 -168h15q25 43 53 78q31 37 61 59q37 27 78 39q43 12 100 13h27q6 0 14.5 -1t12.5 -1t13 -2t13 -2q12 0 17 -3v-286q-4 2 -12 2q-7 2 -11 2q-20 4 -29 4q-6 0 -16 1t-14 1h-25q-63 0 -108 -14q-49 -15 -86 -49q-35 -31 -54 -89q-20 -61 -20 -133v-569 h-305z" />
<glyph unicode="s" horiz-adv-x="983" d="M98 827q0 80 29 136q31 58 86 98q57 41 133 59q77 18 172 19q96 0 191 -23q80 -20 184 -69l-92 -216q-82 39 -146 60q-72 23 -137 22q-61 0 -90 -22q-27 -20 -27 -60q0 -22 7 -36q6 -14 28 -31q33 -25 60 -37q57 -29 98 -47q71 -31 129 -62q55 -29 96 -69q45 -45 64 -90 q23 -55 22 -127q0 -84 -33 -154q-33 -68 -90 -110q-59 -43 -143 -66q-86 -23 -188 -22q-41 0 -103 4q-45 2 -88 12q-72 16 -82 18q-35 10 -78 31v252q37 -18 88 -39q31 -12 93 -29q45 -12 90 -18q57 -8 80 -8q33 0 69 8q29 6 49 20q16 10 27 33q8 16 8 39q0 22 -6 37 q-6 12 -31 35q-14 12 -67 43q-27 14 -119 57q-88 41 -127 66q-61 39 -88 71q-33 37 -51 93q-17 46 -17 122z" />
<glyph unicode="t" horiz-adv-x="847" d="M47 889v129l168 102l88 236h195v-238h272v-229h-272v-539q0 -63 32 -96q31 -31 84 -31q41 0 86 10q37 8 82 25v-227q-43 -23 -106 -37q-59 -14 -139 -14q-70 0 -135.5 18t-108.5 59q-47 43 -74 113q-27 68 -26 180v539h-146z" />
<glyph unicode="u" horiz-adv-x="1282" d="M154 389v729h305v-653q0 -121 37 -182q35 -59 116 -60q59 0 101 25q39 25 63 69q23 43 33 117q10 76 10 158v526h305v-1118h-233l-41 143h-16q-23 -41 -60 -73q-29 -25 -76 -52q-35 -18 -86 -28t-94 -10q-82 0 -149 24q-63 23 -115 74q-49 49 -74 127q-26 84 -26 184z " />
<glyph unicode="v" horiz-adv-x="1103" d="M0 1118h319l185 -637q14 -43 28 -119q14 -70 17 -110h6q2 49 16 113q16 78 29 116l184 637h320l-395 -1118h-314z" />
<glyph unicode="w" horiz-adv-x="1650" d="M0 1118h303l113 -495q10 -47 18 -93l19 -110q4 -23 8 -50.5l8 -54.5q8 -66 10 -79h6q0 8 4 49q4 45 9 65q4 35 10 72q8 49 12 70q8 49 10 55q4 27 7 35l122 536h336l117 -536q2 -8 6 -31t6 -37l17 -98q6 -31 14 -103q8 -66 8 -77h6q0 6 4.5 30.5t6.5 42.5q8 49 16 107 q4 18 10 56t11 56q8 51 18 95l117 495h299l-305 -1118h-332l-86 391q-2 6 -5 23.5t-5 25.5l-15 70q-8 39 -16 84q-4 25 -9.5 46.5t-9.5 41.5l-18 100.5t-25 122.5h-6q-8 -47 -20.5 -106.5t-22.5 -116.5l-16 -88q-10 -59 -17 -86q-8 -39 -14 -72q-2 -8 -5 -25.5t-5 -23.5 l-90 -387h-328z" />
<glyph unicode="x" horiz-adv-x="1120" d="M10 0l379 571l-360 547h346l186 -336l189 336h346l-365 -547l381 -571h-346l-205 362l-205 -362h-346z" />
<glyph unicode="y" horiz-adv-x="1103" d="M0 1118h334l180 -629q16 -57 23 -110q8 -82 10 -107h6q2 14 6 52q4 41 8 57q2 8 5 28.5t6 28.5q0 4 14 51l176 629h336l-442 -1261q-61 -176 -168 -263q-109 -86 -269 -86q-66 0 -90 5q-41 6 -65 12v242q16 -4 53 -9q41 -4 67 -4q47 0 82 13q33 12 58 36q27 27 43 58 q18 34 30 73l19 56z" />
<glyph unicode="z" horiz-adv-x="935" d="M55 0v180l457 705h-426v233h772v-198l-442 -687h461v-233h-822z" />
<glyph unicode="{" horiz-adv-x="743" d="M31 449v239q55 0 110 10q47 8 82 31q34 22 49 55q16 37 15 82v318q0 74 18 127q18 51 70 86q49 34 135 49q92 16 215 16v-225q-37 0 -72 -6q-33 -6 -55.5 -22.5t-34.5 -43t-12 -69.5v-299q-6 -187 -234 -222v-12q117 -18 177 -71q59 -55 57 -150v-299q0 -43 12 -69.5 t35 -43.5q20 -14 55 -20q45 -8 72 -8v-226q-123 0 -215 17q-86 15 -135 49q-51 35 -70 86q-18 53 -18 127v315q0 96 -65.5 137.5t-190.5 41.5z" />
<glyph unicode="|" d="M455 -465v2015h219v-2015h-219z" />
<glyph unicode="}" horiz-adv-x="743" d="M31 -98q31 0 71 8q37 8 56 20q23 16 35 43t12 70v299q-2 94 57 150q59 53 176 71v12q-227 34 -233 222v299q0 43 -12.5 69.5t-35 43t-55.5 22.5q-31 6 -71 6v225q125 0 217 -16q84 -14 133 -49q51 -35 70 -86q18 -53 18 -127v-318q0 -51 14 -82q15 -34 49 -55 q35 -23 82 -31q55 -10 111 -10v-239q-125 0 -190.5 -41t-65.5 -138v-315q0 -74 -18 -127q-18 -51 -70 -86q-49 -35 -133 -49q-92 -16 -217 -17v226z" />
<glyph unicode="~" d="M88 551v231q51 55 115 82q61 27 141 27q39 0 55.5 -2t53.5 -10q33 -8 63 -19q53 -20 84 -33q57 -25 66 -26l53 -17q35 -8 45 -10q14 -2 43 -2q25 0 59 10q31 9 62 25q27 12 59 39q29 23 53 47v-231q-102 -109 -256 -109q-39 0 -55 2q-20 2 -55 10q-33 8 -64 19 q-41 14 -82 32l-32.5 13.5l-32.5 13.5q-27 12 -53 19q-18 4 -43 8q-14 2 -45 2q-25 0 -60 -10q-31 -9 -61 -25q-20 -10 -57.5 -39t-55.5 -47z" />
<glyph unicode="&#xa1;" horiz-adv-x="585" d="M117 -369l51 975h244l51 -975h-346zM117 948q0 47 14 78q14 33 39 53q20 18 55 28.5t66 10.5q35 0 69.5 -10t55.5 -29q27 -23 37 -53q14 -39 14 -78q0 -41 -14 -80q-10 -31 -37 -53q-20 -18 -56 -29q-27 -8 -69 -8q-39 0 -66 8q-35 10 -55 29q-25 20 -39 53 q-14 31 -14 80z" />
<glyph unicode="&#xa2;" d="M143 743.5q0 143.5 27 241.5t82 170q51 68 127 105q80 41 164 51v172h178v-164q39 0 76 -6q49 -8 73 -15q37 -9 68 -18q37 -10 55 -20l-86 -226l-47 19l-55 18l-55 12q-37 4 -52 4q-70 0 -112 -20q-47 -23 -76 -61q-29 -41 -41 -105q-14 -76 -14 -151q0 -172 57 -250 q57 -80 186 -80q76 0 146 18q74 18 121 43v-239q-61 -33 -112.5 -45.5t-131.5 -16.5v-200h-178v206q-92 12 -166 50q-72 37 -125 104q-55 72 -82 166t-27 237.5z" />
<glyph unicode="&#xa3;" d="M82 0v248q45 18 76 39q27 16 57 51q20 23 35 70q12 40 12 98v145h-178v219h178v195q0 113 31 192q29 78 88 129q61 53 131 74q80 23 168 23q111 0 199 -25q98 -27 170 -57l-93 -230q-57 23 -129 46q-58 18 -122 18q-68 0 -105 -39q-37 -41 -37 -133v-193h334v-219h-334 v-143q0 -49 -14 -96q-12 -41 -35 -70q-18 -23 -49 -47q-23 -18 -53 -35h678v-260h-1008z" />
<glyph unicode="&#xa4;" d="M92 1047l148 147l127 -127q41 23 94 39q49 14 102 14q45 0 103 -14q45 -10 94 -41l127 129l149 -143l-129 -129q25 -43 39.5 -92.5t14.5 -106.5q0 -59 -15 -105q-16 -51 -39 -94l125 -125l-145 -145l-127 125q-39 -20 -94 -37q-45 -14 -102.5 -14t-106.5 12 q-43 10 -92 39l-125 -123l-146 145l127 125q-53 94 -53 197q0 59 14 104q16 53 39 93zM375 723q0 -43 14 -74q16 -35 41 -59.5t59 -40.5q31 -14 74 -14q45 0 76 14t61 41q23 20 41 59q14 31 14.5 74t-14.5 74q-18 43 -41 61q-25 23 -61.5 39t-75.5 16q-37 0 -73.5 -16 t-59.5 -39q-25 -25 -41 -61q-14 -31 -14 -74z" />
<glyph unicode="&#xa5;" d="M8 1462h316l241 -602l244 602h313l-362 -747h194v-178h-245v-138h245v-178h-245v-221h-287v221h-248v178h248v138h-248v178h191z" />
<glyph unicode="&#xa6;" d="M455 350h219v-815h-219v815zM455 735v815h219v-815h-219z" />
<glyph unicode="&#xa7;" horiz-adv-x="993" d="M106 59v207q25 -12 84 -37q66 -27 91 -32q23 -6 90 -21q39 -8 84 -8q61 0 94 8q35 8 59 27q22 15 31 37q10 25 10 45t-8 45q-6 20 -29 39q-14 12 -63 39q-33 16 -107 49q-51 20 -137 63q-53 27 -100 74q-41 41 -62 90q-23 55 -22 121q0 41 10 82q10 37 29 69q18 31 43 56 q27 27 51 43q-65 40 -98 98q-35 59 -35 135q0 66 29 119q27 49 83 90q53 39 127 59q70 20 166 21q109 0 191 -23q80 -23 172 -61l-82 -190q-84 39 -139 57q-76 27 -148 26q-80 0 -119 -22q-37 -20 -36 -72q0 -27 12 -47q10 -16 39 -39q31 -23 65 -39q76 -35 97 -43 q71 -28 129 -61q59 -35 100 -76q45 -45 65 -92q23 -51 23 -113q0 -98 -35 -161q-33 -59 -90 -99q66 -43 94 -92q31 -53 31 -127t-31 -133q-33 -61 -88 -102q-61 -45 -139 -66q-86 -23 -182 -22q-113 0 -195 20q-76 18 -154 59zM344 827q0 -61 57 -112q47 -41 174 -99l15 -6 q20 16 28.5 24.5t24.5 33.5q12 18 19 41q6 20 6 47q0 29 -11 59q-8 25 -36 53q-23 23 -72 49.5t-115 49.5q-16 -6 -34.5 -20.5t-28.5 -31.5q-12 -18 -19 -41q-8 -29 -8 -47z" />
<glyph unicode="&#xa8;" horiz-adv-x="1181" d="M248 1405q0 41 10 61q12 27 31 41q18 15 43 25q23 8 55.5 8t54.5 -8q25 -9 43 -25q18 -14 31 -41q12 -25 12 -61q0 -35 -12 -59q-12 -27 -31 -41q-18 -15 -43 -25q-23 -8 -55.5 -8t-54.5 8q-25 9 -43 25q-18 14 -31 41q-10 20 -10 59zM651 1405q0 41 11 61q12 27 30 41 q16 14 45 25q23 8 56 8q31 0 53 -8q29 -10 45 -25q18 -14 31 -41q12 -25 12 -61q0 -35 -12 -59q-12 -27 -31 -41q-16 -14 -45 -25q-23 -8 -53 -8q-61 0 -101 33q-41 34 -41 100z" />
<glyph unicode="&#xa9;" horiz-adv-x="1703" d="M100 731q0 109 27 201q29 98 76 178q53 90 116.5 153.5t153.5 116.5q80 47 178 76q92 27 201 27t201 -27q98 -29 178 -76q90 -53 153.5 -116.5t116.5 -153.5q47 -80 76 -178q27 -92 27 -200.5t-27 -201.5q-29 -98 -76 -178q-53 -90 -116.5 -153.5t-153.5 -116.5 q-80 -47 -178 -76q-92 -27 -201 -26.5t-201 26.5q-98 29 -178 76q-90 53 -153.5 116.5t-116.5 153.5q-47 80 -76 178q-27 92 -27 201zM242 731q0 -127 49 -237q53 -119 129 -195t194 -129q111 -49 238 -49t238 49q119 53 194.5 129t128.5 195q49 111 49 237.5t-49 237.5 q-53 119 -129 194.5t-194 128.5q-111 49 -238 49t-238 -49q-119 -53 -194.5 -129t-128.5 -194q-49 -111 -49 -238zM461 733q0 94 26 189q25 84 78 147q51 61 131 94q82 35 185 35q80 0 159.5 -22.5t145.5 -55.5l-74 -168q-113 57 -217 58q-96 0 -150 -74q-53 -76 -53 -205 q0 -137 47 -207q49 -74 156 -73q53 0 123 16q65 15 123 43v-191q-58 -28 -117 -43q-55 -14 -135 -14q-104 0 -186 35t-134 94q-55 63 -82 150q-26 81 -26 192z" />
<glyph unicode="&#xaa;" horiz-adv-x="741" d="M47 975q0 61 21 102q18 37 63 68q37 25 100 39q76 16 134 18l90 4q0 63 -29 90t-84 27q-45 0 -88 -16q-59 -23 -102 -45l-66 135q74 37 135 57q74 25 166 25q70 0 119 -19q51 -18 84 -55q34 -37 49 -86q16 -53 16 -113v-442h-135l-31 110q-41 -59 -96 -90 q-59 -33 -125 -32q-43 0 -90 14q-41 12 -69 41q-31 31 -46 70q-16 45 -16 98zM252 977q0 -37 18.5 -55.5t46.5 -18.5q37 0 58 10q25 12 43 31q20 18 28 47q8 25 9 60v36l-82 -6q-31 -2 -62 -14q-27 -10 -37 -23q-16 -20 -18 -32q-4 -25 -4 -35z" />
<glyph unicode="&#xab;" horiz-adv-x="1196" d="M82 547v26l309 455l219 -119l-217 -348l217 -348l-219 -119zM588 547v26l309 455l219 -119l-217 -348l217 -348l-219 -119z" />
<glyph unicode="&#xac;" d="M88 612v219h952v-583h-219v364h-733z" />
<glyph unicode="&#xad;" horiz-adv-x="657" d="M61 424v250h537v-250h-537z" />
<glyph unicode="&#xae;" horiz-adv-x="1703" d="M100 731q0 109 27 201q29 98 76 178q53 90 116.5 153.5t153.5 116.5q80 47 178 76q92 27 201 27t201 -27q98 -29 178 -76q90 -53 153.5 -116.5t116.5 -153.5q47 -80 76 -178q27 -92 27 -200.5t-27 -201.5q-29 -98 -76 -178q-53 -90 -116.5 -153.5t-153.5 -116.5 q-80 -47 -178 -76q-92 -27 -201 -26.5t-201 26.5q-98 29 -178 76q-90 53 -153.5 116.5t-116.5 153.5q-47 80 -76 178q-27 92 -27 201zM242 731q0 -127 49 -237q53 -119 129 -195t194 -129q111 -49 238 -49t238 49q119 53 194.5 129t128.5 195q49 111 49 237.5t-49 237.5 q-53 119 -129 194.5t-194 128.5q-111 49 -238 49t-238 -49q-119 -53 -194.5 -129t-128.5 -194q-49 -111 -49 -238zM543 272v916h264q184 0 266 -70q84 -72 84 -213q0 -96 -39 -149q-41 -57 -104 -84l237 -400h-254l-178 338h-47v-338h-229zM772 778h31q66 0 94.5 29t28.5 94 q0 29 -8 57q-6 25 -22.5 37.5t-39.5 18.5q-25 6 -55 6h-29v-242z" />
<glyph unicode="&#xaf;" horiz-adv-x="1024" d="M-6 1556v201h1036v-201h-1036z" />
<glyph unicode="&#xb0;" horiz-adv-x="876" d="M92 1136.5q0 73.5 26.5 135t74.5 108.5q49 49 110.5 76t135 27t135 -26.5t110.5 -76.5q47 -47 73.5 -108.5t26.5 -135t-26.5 -135t-73.5 -108.5q-46 -46 -111 -74q-61 -27 -134.5 -26.5t-135.5 26.5q-65 28 -110 74q-47 47 -74 108.5t-27 135zM283 1137q0 -31 12 -59.5 t32.5 -49t49.5 -33t61.5 -12.5t59.5 12q33 14 51 33q20 20 32.5 49t12.5 60q0 35 -12 61q-12 29 -33 49q-23 23 -51 35q-27 12 -59.5 12t-61.5 -12q-27 -12 -49 -35q-20 -20 -33 -49q-12 -26 -12 -61z" />
<glyph unicode="&#xb1;" d="M88 0v219h952v-219h-952zM88 674v219h367v369h219v-369h366v-219h-366v-365h-219v365h-367z" />
<glyph unicode="&#xb2;" horiz-adv-x="774" d="M47 1354q61 55 146 94q76 35 190 35q61 0 121 -17q49 -14 92 -47q39 -31 61 -78q20 -43 21 -108q0 -46 -12 -86q-14 -47 -39 -82q-37 -53 -70 -86q-61 -61 -102 -98l-105 -95h352v-200h-647v168l224 219l27.5 26.5l29.5 28.5t20 23q37 39 50 59q18 29 24 51q8 33 8 51 q0 37 -24 58q-23 20 -64 20q-43 0 -84 -20q-45 -23 -96 -68z" />
<glyph unicode="&#xb3;" horiz-adv-x="774" d="M59 639v190q66 -41 131 -65q63 -25 139.5 -25t108.5 27q35 29 35 80q0 25 -8 41q-8 18 -27 33q-14 10 -51 22q-35 10 -80 10h-112v160h92q57 0 84 8q35 10 51 25q14 12 22 35q6 18 7 41q0 39 -25 63.5t-76 24.5q-47 0 -90 -19q-31 -12 -98 -59l-101 141q66 49 138 78 q76 31 178 31q59 0 115 -17q49 -14 92 -47q39 -29 59 -71q23 -45 23 -97q0 -68 -41 -119q-43 -53 -129 -79v-13q51 -8 88 -30t61.5 -49.5t36.5 -61.5q12 -33 12 -68q0 -121 -88 -190.5t-274 -69.5q-84 0 -142 17q-65 18 -131 53z" />
<glyph unicode="&#xb4;" horiz-adv-x="1181" d="M332 1241v27l45 67q33 53 47 78q8 12 45 82q22 40 37 74h342v-21q-16 -23 -33 -43q-43 -49 -47 -53q-27 -29 -57 -57l-64 -58l-59 -53q-16 -14 -31.5 -25.5t-21.5 -17.5h-203z" />
<glyph unicode="&#xb5;" horiz-adv-x="1288" d="M160 -492v1610h305v-653q0 -121 37 -182q35 -59 119 -60q58 0 98 25q37 23 61.5 70t34.5 116q10 76 10 158v526h305v-1118h-233l-43 150h-12q-31 -80 -88 -127q-53 -43 -127 -43q-49 0 -99 22q-43 20 -73 68l6 -84q2 -25 2 -80q0 -14 1 -40t1 -38v-320h-305z" />
<glyph unicode="&#xb6;" horiz-adv-x="1339" d="M113 1042q0 150 32 246q33 94 93 158q57 61 143 86q82 25 182 24h604v-1816h-161v1616h-166v-1616h-162v819q-61 -18 -146 -18q-88 0 -172 26q-78 25 -133 84q-51 53 -84 156q-30 94 -30 235z" />
<glyph unicode="&#xb7;" horiz-adv-x="583" d="M117 723q0 41 14 80q10 29 37 51q25 22 55 31q27 8 70 8q41 0 67 -8q31 -9 56 -31q23 -20 37 -51t14 -80q0 -47 -14 -78q-16 -35 -37 -53.5t-55.5 -28.5t-67.5 -10q-35 0 -70 10t-55 29q-27 23 -37 53q-14 39 -14 78z" />
<glyph unicode="&#xb8;" horiz-adv-x="419" d="M-37 -303q4 0 15.5 -3t17.5 -5q6 0 19.5 -2t19.5 -4t18.5 -2t18.5 -3q12 -2 34 -2q28 0 50 13q23 12 22.5 49t-37.5 65t-129 43l78 154h193l-27 -61q35 -10 59 -27q37 -25 52 -41q25 -27 36 -53q14 -29 15 -68q0 -59 -14.5 -102t-53.5 -76t-94 -47q-61 -16 -147 -17 q-43 0 -80 7q-45 8 -66 14v168z" />
<glyph unicode="&#xb9;" horiz-adv-x="774" d="M92 1227l301 235h191v-876h-238v446v51q0 10 1 31t1 31t2 28.5t2 26.5t1 22.5t1 16.5q-4 -6 -16 -18q-6 -4 -10 -10.5t-8.5 -12.5t-10.5 -10t-12 -10q-10 -10 -18 -17l-78 -61z" />
<glyph unicode="&#xba;" horiz-adv-x="753" d="M57 1116q0 82 22.5 153.5t63.5 114.5q43 45 101 70q59 25 135 25q68 0 125 -24.5t100 -70t68 -114.5q25 -68 24 -154q0 -84 -22 -155q-20 -63 -65.5 -112.5t-100.5 -72.5q-57 -25 -133 -24q-68 0 -127 24q-55 23 -101 72q-43 47 -67 113q-23 61 -23 155zM260 1116 q0 -104 27 -151q29 -49 90 -49.5t88 49.5q27 47 27 151q0 102 -27 150q-27 49 -88.5 49t-89.5 -49q-27 -48 -27 -150z" />
<glyph unicode="&#xbb;" horiz-adv-x="1196" d="M84 213l217 348l-217 348l219 119l309 -455v-26l-309 -453zM590 213l217 348l-217 348l219 119l309 -455v-26l-309 -453z" />
<glyph unicode="&#xbc;" horiz-adv-x="1802" d="M320 0l811 1462h239l-811 -1462h-239zM47 1227l301 235h191v-876h-238v446v51q0 10 1 31t1 31t2 28.5t2 26.5t1 22.5t1 16.5q-4 -6 -16 -18q-6 -4 -10 -10.5t-8.5 -12.5t-10.5 -10t-12 -10q-10 -10 -18 -17l-78 -61zM936 151v154l385 577h236v-563h125v-168h-125v-151 h-238v151h-383zM1121 319h198v164q0 14 1 43t1 45q0 31 4 96q-2 -4 -7 -16t-7 -18q-16 -37 -20 -45q-6 -12 -12.5 -23.5t-10.5 -20.5l-20 -34z" />
<glyph unicode="&#xbd;" horiz-adv-x="1802" d="M320 0l811 1462h239l-811 -1462h-239zM47 1227l301 235h191v-876h-238v446v51q0 10 1 31t1 31t2 28.5t2 26.5t1 22.5t1 16.5q-4 -6 -16 -18q-6 -4 -10 -10.5t-8.5 -12.5t-10.5 -10t-12 -10q-10 -10 -18 -17l-78 -61zM1061 768q61 55 146 94q76 35 190 35q61 0 121 -17 q49 -14 92 -47q39 -31 61 -78q20 -43 21 -108q0 -46 -12 -86q-14 -47 -39 -82q-37 -53 -70 -86q-61 -61 -102 -98l-105 -95h352v-200h-647v168l224 219l27.5 26.5l29.5 28.5t20 23q37 39 50 59q18 29 24 51q8 33 8 51q0 37 -24 58q-23 20 -64 20q-43 0 -84 -20 q-45 -23 -96 -68z" />
<glyph unicode="&#xbe;" horiz-adv-x="1802" d="M391 0l811 1462h239l-811 -1462h-239zM966 151v154l385 577h236v-563h125v-168h-125v-151h-238v151h-383zM1151 319h198v164q0 14 1 43t1 45q0 31 4 96q-2 -4 -7 -16t-7 -18q-16 -37 -20 -45q-6 -12 -12.5 -23.5t-10.5 -20.5l-20 -34zM90 639v190q66 -41 131 -65 q63 -25 139.5 -25t108.5 27q35 29 35 80q0 25 -8 41q-8 18 -27 33q-14 10 -51 22q-35 10 -80 10h-112v160h92q57 0 84 8q35 10 51 25q14 12 22 35q6 18 7 41q0 39 -25 63.5t-76 24.5q-47 0 -90 -19q-31 -12 -98 -59l-101 141q66 49 138 78q76 31 178 31q59 0 115 -17 q49 -14 92 -47q39 -29 59 -71q23 -45 23 -97q0 -68 -41 -119q-43 -53 -129 -79v-13q51 -8 88 -30t61.5 -49.5t36.5 -61.5q12 -33 12 -68q0 -121 -88 -190.5t-274 -69.5q-84 0 -142 17q-65 18 -131 53z" />
<glyph unicode="&#xbf;" horiz-adv-x="937" d="M66 -29q0 55 14 113q12 47 41 92q27 43 69 82q59 55 97 84l67 57q20 18 41 47q14 20 20.5 45t6.5 56v59h264v-74q0 -45 -10 -92q-8 -37 -33 -80q-23 -39 -55 -71q-49 -49 -82 -74l-72 -59q-27 -23 -47 -52q-12 -16 -25 -53q-8 -25 -8 -65q0 -57 39 -95q40 -37 117 -36 q70 0 149 30q96 37 164 70l103 -221q-66 -37 -95 -49l-104 -39q-49 -16 -110.5 -26.5t-110.5 -10.5q-101 0 -184 24q-74 23 -138 72q-57 45 -87.5 112.5t-30.5 153.5zM369 948q0 47 14 78q14 33 39 53q20 18 55 28.5t66 10.5q35 0 69.5 -10t55.5 -29q27 -23 37 -53 q14 -39 14 -78q0 -41 -14 -80q-10 -31 -37 -53q-20 -18 -56 -29q-27 -8 -69 -8q-39 0 -66 8q-35 10 -55 29q-25 20 -39 53q-14 31 -14 80z" />
<glyph unicode="&#xc0;" horiz-adv-x="1329" d="M0 0l475 1468h379l477 -1468h-313l-100 348h-504l-101 -348h-313zM489 608h357l-94 320l-19 59q-6 20 -11 43t-13 47q-4 16 -13.5 50t-13.5 50.5t-16 84.5l-11 -52q-8 -41 -14 -63l-9 -31.5t-9.5 -36t-16.5 -63.5l-14 -53q-2 -12 -6 -20.5t-4 -14.5zM320 1886v21h342 q15 -34 37 -74l45 -82q20 -37 47 -78q6 -8 15 -22.5t16.5 -25.5t13.5 -19v-27h-203l-82 70l-94 86q-47 43 -84 84q-39 42 -53 67z" />
<glyph unicode="&#xc1;" horiz-adv-x="1329" d="M0 0l475 1468h379l477 -1468h-313l-100 348h-504l-101 -348h-313zM489 608h357l-94 320l-19 59q-6 20 -11 43t-13 47q-4 16 -13.5 50t-13.5 50.5t-16 84.5l-11 -52q-8 -41 -14 -63l-9 -31.5t-9.5 -36t-16.5 -63.5l-14 -53q-2 -12 -6 -20.5t-4 -14.5zM494 1579v27l45 67 q33 53 47 78q8 12 45 82q22 40 37 74h342v-21q-16 -23 -33 -43q-43 -49 -47 -53q-27 -29 -57 -57l-64 -58l-59 -53q-16 -14 -31.5 -25.5t-21.5 -17.5h-203z" />
<glyph unicode="&#xc2;" horiz-adv-x="1329" d="M0 0l475 1468h379l477 -1468h-313l-100 348h-504l-101 -348h-313zM489 608h357l-94 320l-19 59q-6 20 -11 43t-13 47q-4 16 -13.5 50t-13.5 50.5t-16 84.5l-11 -52q-8 -41 -14 -63l-9 -31.5t-9.5 -36t-16.5 -63.5l-14 -53q-2 -12 -6 -20.5t-4 -14.5zM254 1579v27 q27 29 57 67l64 78l63 82q25 33 52 74h356q27 -41 51 -74q12 -14 21.5 -28.5t17.5 -24.5l23 -29l65 -78l58 -67v-27h-203q-39 25 -107 78q-51 41 -106 98q-59 -59 -107 -98q-66 -53 -102 -78h-203z" />
<glyph unicode="&#xc3;" horiz-adv-x="1329" d="M0 0l475 1468h379l477 -1468h-313l-100 348h-504l-101 -348h-313zM489 608h357l-94 320l-19 59q-6 20 -11 43t-13 47q-4 16 -13.5 50t-13.5 50.5t-16 84.5l-11 -52q-8 -41 -14 -63l-9 -31.5t-9.5 -36t-16.5 -63.5l-14 -53q-2 -12 -6 -20.5t-4 -14.5zM275 1577 q6 82 26 137q23 63 53 97q37 41 76 57q43 18 97 18q37 0 79 -16l78 -35q10 -4 36 -17.5t40 -19.5q39 -16 74 -16q29 0 49 26q18 25 31 80h149q-6 -82 -27 -137q-23 -59 -53 -96q-33 -39 -76 -57.5t-96 -18.5q-37 0 -80 16q-18 6 -78 37q-39 20 -75 35q-39 16 -74 17 q-31 0 -49 -27q-20 -29 -31 -80h-149z" />
<glyph unicode="&#xc4;" horiz-adv-x="1329" d="M0 0l475 1468h379l477 -1468h-313l-100 348h-504l-101 -348h-313zM489 608h357l-94 320l-19 59q-6 20 -11 43t-13 47q-4 16 -13.5 50t-13.5 50.5t-16 84.5l-11 -52q-8 -41 -14 -63l-9 -31.5t-9.5 -36t-16.5 -63.5l-14 -53q-2 -12 -6 -20.5t-4 -14.5zM324 1743q0 41 10 61 q12 27 31 41q18 15 43 25q23 8 55.5 8t54.5 -8q25 -9 43 -25q18 -14 31 -41q12 -25 12 -61q0 -35 -12 -59q-12 -27 -31 -41q-18 -15 -43 -25q-23 -8 -55.5 -8t-54.5 8q-25 9 -43 25q-18 14 -31 41q-10 20 -10 59zM727 1743q0 41 11 61q12 27 30 41q16 14 45 25q23 8 56 8 q31 0 53 -8q29 -10 45 -25q18 -14 31 -41q12 -25 12 -61q0 -35 -12 -59q-12 -27 -31 -41q-16 -14 -45 -25q-23 -8 -53 -8q-61 0 -101 33q-41 34 -41 100z" />
<glyph unicode="&#xc5;" horiz-adv-x="1329" d="M0 0l475 1468h379l477 -1468h-313l-100 348h-504l-101 -348h-313zM489 608h357l-94 320l-19 59q-6 20 -11 43t-13 47q-4 16 -13.5 50t-13.5 50.5t-16 84.5l-11 -52q-8 -41 -14 -63l-9 -31.5t-9.5 -36t-16.5 -63.5l-14 -53q-2 -12 -6 -20.5t-4 -14.5zM416 1565 q0 57 18 100q20 47 50 74q35 33 79 47q49 16 101 16q49 0 98 -16q47 -16 82 -47q31 -27 53 -74q20 -41 20.5 -98.5t-18.5 -100.5q-18 -41 -55 -75q-35 -33 -80 -48q-49 -16 -100 -16t-101 16q-45 14 -79 48q-27 25 -50 75q-18 44 -18 99zM568 1565q0 -45 24 -70 q27 -27 72 -27q39 0 69 27q27 25 27 70q0 47 -26.5 71.5t-69.5 24.5t-69.5 -24.5t-26.5 -71.5z" />
<glyph unicode="&#xc6;" horiz-adv-x="1886" d="M0 0l655 1462h1112v-254h-532v-321h496v-254h-496v-377h532v-256h-841v348h-461l-150 -348h-315zM578 608h348v590h-97z" />
<glyph unicode="&#xc7;" horiz-adv-x="1304" d="M119 729q0 170 45 305q45 133 133 238q84 100 215 155q129 55 293 56q113 0 219 -27q109 -27 209 -76l-100 -252q-88 43 -164 68q-86 29 -164 29q-88 0 -157.5 -35t-115.5 -98q-43 -61 -69 -158q-25 -92 -25 -207q0 -121 21 -209q20 -86 67 -153q43 -61 113 -95 q68 -33 166 -32q94 0 178 20q102 25 195 57v-260q-33 -14 -95 -35q-31 -10 -96 -22t-100 -14q-70 -4 -111 -4q-170 0 -293 55q-129 57 -204 151q-82 100 -121 235.5t-39 307.5zM471 -303q4 0 15.5 -3t17.5 -5q6 0 19.5 -2t19.5 -4t18.5 -2t18.5 -3q12 -2 34 -2q28 0 50 13 q23 12 22.5 49t-37.5 65t-129 43l78 154h193l-27 -61q35 -10 59 -27q37 -25 52 -41q25 -27 36 -53q14 -29 15 -68q0 -59 -14.5 -102t-53.5 -76t-94 -47q-61 -16 -147 -17q-43 0 -80 7q-45 8 -66 14v168z" />
<glyph unicode="&#xc8;" horiz-adv-x="1146" d="M184 0v1462h842v-254h-532v-321h495v-254h-495v-377h532v-256h-842zM258 1886v21h342q15 -34 37 -74l45 -82q20 -37 47 -78q6 -8 15 -22.5t16.5 -25.5t13.5 -19v-27h-203l-82 70l-94 86q-47 43 -84 84q-39 42 -53 67z" />
<glyph unicode="&#xc9;" horiz-adv-x="1146" d="M184 0v1462h842v-254h-532v-321h495v-254h-495v-377h532v-256h-842zM424 1579v27l45 67q33 53 47 78q8 12 45 82q22 40 37 74h342v-21q-16 -23 -33 -43q-43 -49 -47 -53q-27 -29 -57 -57l-64 -58l-59 -53q-16 -14 -31.5 -25.5t-21.5 -17.5h-203z" />
<glyph unicode="&#xca;" horiz-adv-x="1146" d="M184 0v1462h842v-254h-532v-321h495v-254h-495v-377h532v-256h-842zM207 1579v27q27 29 57 67l64 78l63 82q25 33 52 74h356q27 -41 51 -74q12 -14 21.5 -28.5t17.5 -24.5l23 -29l65 -78l58 -67v-27h-203q-39 25 -107 78q-51 41 -106 98q-59 -59 -107 -98 q-66 -53 -102 -78h-203z" />
<glyph unicode="&#xcb;" horiz-adv-x="1146" d="M184 0v1462h842v-254h-532v-321h495v-254h-495v-377h532v-256h-842zM273 1743q0 41 10 61q12 27 31 41q18 15 43 25q23 8 55.5 8t54.5 -8q25 -9 43 -25q18 -14 31 -41q12 -25 12 -61q0 -35 -12 -59q-12 -27 -31 -41q-18 -15 -43 -25q-23 -8 -55.5 -8t-54.5 8 q-25 9 -43 25q-18 14 -31 41q-10 20 -10 59zM676 1743q0 41 11 61q12 27 30 41q16 14 45 25q23 8 56 8q31 0 53 -8q29 -10 45 -25q18 -14 31 -41q12 -25 12 -61q0 -35 -12 -59q-12 -27 -31 -41q-16 -14 -45 -25q-23 -8 -53 -8q-61 0 -101 33q-41 34 -41 100z" />
<glyph unicode="&#xcc;" horiz-adv-x="796" d="M66 0v176l178 82v946l-178 82v176h665v-176l-178 -82v-946l178 -82v-176h-665zM41 1886v21h342q15 -34 37 -74l45 -82q20 -37 47 -78q6 -8 15 -22.5t16.5 -25.5t13.5 -19v-27h-203l-82 70l-94 86q-47 43 -84 84q-39 42 -53 67z" />
<glyph unicode="&#xcd;" horiz-adv-x="796" d="M66 0v176l178 82v946l-178 82v176h665v-176l-178 -82v-946l178 -82v-176h-665zM238 1579v27l45 67q33 53 47 78q8 12 45 82q22 40 37 74h342v-21q-16 -23 -33 -43q-43 -49 -47 -53q-27 -29 -57 -57l-64 -58l-59 -53q-16 -14 -31.5 -25.5t-21.5 -17.5h-203z" />
<glyph unicode="&#xce;" horiz-adv-x="796" d="M66 0v176l178 82v946l-178 82v176h665v-176l-178 -82v-946l178 -82v-176h-665zM-17 1579v27q27 29 57 67l64 78l63 82q25 33 52 74h356q27 -41 51 -74q12 -14 21.5 -28.5t17.5 -24.5l23 -29l65 -78l58 -67v-27h-203q-39 25 -107 78q-51 41 -106 98q-59 -59 -107 -98 q-66 -53 -102 -78h-203z" />
<glyph unicode="&#xcf;" horiz-adv-x="796" d="M66 0v176l178 82v946l-178 82v176h665v-176l-178 -82v-946l178 -82v-176h-665zM53 1743q0 41 10 61q12 27 31 41q18 15 43 25q23 8 55.5 8t54.5 -8q25 -9 43 -25q18 -14 31 -41q12 -25 12 -61q0 -35 -12 -59q-12 -27 -31 -41q-18 -15 -43 -25q-23 -8 -55.5 -8t-54.5 8 q-25 9 -43 25q-18 14 -31 41q-10 20 -10 59zM456 1743q0 41 11 61q12 27 30 41q16 14 45 25q23 8 56 8q31 0 53 -8q29 -10 45 -25q18 -14 31 -41q12 -25 12 -61q0 -35 -12 -59q-12 -27 -31 -41q-16 -14 -45 -25q-23 -8 -53 -8q-61 0 -101 33q-41 34 -41 100z" />
<glyph unicode="&#xd0;" horiz-adv-x="1433" d="M47 596v254h137v612h428q160 0 291 -47q129 -46 221 -135q92 -88 142 -225q49 -135 49 -310q0 -182 -51 -325q-49 -139 -146 -232q-100 -96 -233 -141q-141 -47 -316 -47h-385v596h-137zM494 256h114q197 0 295 121q98 119 98 360q0 123 -24 211q-23 84 -72 146 q-45 57 -114.5 85.5t-153.5 28.5h-143v-358h237v-254h-237v-340z" />
<glyph unicode="&#xd1;" horiz-adv-x="1603" d="M184 0v1462h391l574 -1095h6l-6 149q0 10 -2 31.5t-2 34t-1 35t-1 32.5q0 12 -1 34t-1 32v55v692h278v-1462h-393l-575 1106h-9q8 -102 11 -154l6 -135q2 -47 2 -129v-688h-277zM394 1577q6 82 26 137q23 63 53 97q37 41 76 57q43 18 97 18q37 0 79 -16l78 -35 q10 -4 36 -17.5t40 -19.5q39 -16 74 -16q29 0 49 26q18 25 31 80h149q-6 -82 -27 -137q-23 -59 -53 -96q-33 -39 -76 -57.5t-96 -18.5q-37 0 -80 16q-18 6 -78 37q-39 20 -75 35q-39 16 -74 17q-31 0 -49 -27q-20 -29 -31 -80h-149z" />
<glyph unicode="&#xd2;" horiz-adv-x="1546" d="M119 735q0 174 39 309.5t121 235.5q80 98 204.5 151.5t292.5 53.5q166 0 291 -53q121 -51 203 -151.5t121 -238.5q39 -135 39 -309q0 -172 -39 -307q-41 -141 -121 -240q-76 -94 -205 -151q-123 -55 -291 -55t-291 55q-129 57 -204 151q-80 98 -121 240q-39 135 -39 309z M438 733q0 -119 21 -207q23 -98 61 -155q43 -63 105 -97q66 -35 149 -34q86 0 151.5 34.5t104.5 96.5q41 68 60 155q20 102 20 207t-20 207q-18 88 -60 156q-41 66 -102 98q-63 33 -151.5 33t-151.5 -33q-59 -31 -105 -98q-39 -57 -61 -156q-21 -88 -21 -207zM416 1886v21 h342q15 -34 37 -74l45 -82q20 -37 47 -78q6 -8 15 -22.5t16.5 -25.5t13.5 -19v-27h-203l-82 70l-94 86q-47 43 -84 84q-39 42 -53 67z" />
<glyph unicode="&#xd3;" horiz-adv-x="1546" d="M119 735q0 174 39 309.5t121 235.5q80 98 204.5 151.5t292.5 53.5q166 0 291 -53q121 -51 203 -151.5t121 -238.5q39 -135 39 -309q0 -172 -39 -307q-41 -141 -121 -240q-76 -94 -205 -151q-123 -55 -291 -55t-291 55q-129 57 -204 151q-80 98 -121 240q-39 135 -39 309z M438 733q0 -119 21 -207q23 -98 61 -155q43 -63 105 -97q66 -35 149 -34q86 0 151.5 34.5t104.5 96.5q41 68 60 155q20 102 20 207t-20 207q-18 88 -60 156q-41 66 -102 98q-63 33 -151.5 33t-151.5 -33q-59 -31 -105 -98q-39 -57 -61 -156q-21 -88 -21 -207zM590 1579v27 l45 67q33 53 47 78q8 12 45 82q22 40 37 74h342v-21q-16 -23 -33 -43q-43 -49 -47 -53q-27 -29 -57 -57l-64 -58l-59 -53q-16 -14 -31.5 -25.5t-21.5 -17.5h-203z" />
<glyph unicode="&#xd4;" horiz-adv-x="1546" d="M119 735q0 174 39 309.5t121 235.5q80 98 204.5 151.5t292.5 53.5q166 0 291 -53q121 -51 203 -151.5t121 -238.5q39 -135 39 -309q0 -172 -39 -307q-41 -141 -121 -240q-76 -94 -205 -151q-123 -55 -291 -55t-291 55q-129 57 -204 151q-80 98 -121 240q-39 135 -39 309z M438 733q0 -119 21 -207q23 -98 61 -155q43 -63 105 -97q66 -35 149 -34q86 0 151.5 34.5t104.5 96.5q41 68 60 155q20 102 20 207t-20 207q-18 88 -60 156q-41 66 -102 98q-63 33 -151.5 33t-151.5 -33q-59 -31 -105 -98q-39 -57 -61 -156q-21 -88 -21 -207zM350 1579v27 q27 29 57 67l64 78l63 82q25 33 52 74h356q27 -41 51 -74q12 -14 21.5 -28.5t17.5 -24.5l23 -29l65 -78l58 -67v-27h-203q-39 25 -107 78q-51 41 -106 98q-59 -59 -107 -98q-66 -53 -102 -78h-203z" />
<glyph unicode="&#xd5;" horiz-adv-x="1546" d="M119 735q0 174 39 309.5t121 235.5q80 98 204.5 151.5t292.5 53.5q166 0 291 -53q121 -51 203 -151.5t121 -238.5q39 -135 39 -309q0 -172 -39 -307q-41 -141 -121 -240q-76 -94 -205 -151q-123 -55 -291 -55t-291 55q-129 57 -204 151q-80 98 -121 240q-39 135 -39 309z M438 733q0 -119 21 -207q23 -98 61 -155q43 -63 105 -97q66 -35 149 -34q86 0 151.5 34.5t104.5 96.5q41 68 60 155q20 102 20 207t-20 207q-18 88 -60 156q-41 66 -102 98q-63 33 -151.5 33t-151.5 -33q-59 -31 -105 -98q-39 -57 -61 -156q-21 -88 -21 -207zM383 1577 q6 82 26 137q23 63 53 97q37 41 76 57q43 18 97 18q37 0 79 -16l78 -35q10 -4 36 -17.5t40 -19.5q39 -16 74 -16q29 0 49 26q18 25 31 80h149q-6 -82 -27 -137q-23 -59 -53 -96q-33 -39 -76 -57.5t-96 -18.5q-37 0 -80 16q-18 6 -78 37q-39 20 -75 35q-39 16 -74 17 q-31 0 -49 -27q-20 -29 -31 -80h-149z" />
<glyph unicode="&#xd6;" horiz-adv-x="1546" d="M119 735q0 174 39 309.5t121 235.5q80 98 204.5 151.5t292.5 53.5q166 0 291 -53q121 -51 203 -151.5t121 -238.5q39 -135 39 -309q0 -172 -39 -307q-41 -141 -121 -240q-76 -94 -205 -151q-123 -55 -291 -55t-291 55q-129 57 -204 151q-80 98 -121 240q-39 135 -39 309z M438 733q0 -119 21 -207q23 -98 61 -155q43 -63 105 -97q66 -35 149 -34q86 0 151.5 34.5t104.5 96.5q41 68 60 155q20 102 20 207t-20 207q-18 88 -60 156q-41 66 -102 98q-63 33 -151.5 33t-151.5 -33q-59 -31 -105 -98q-39 -57 -61 -156q-21 -88 -21 -207zM428 1743 q0 41 10 61q12 27 31 41q18 15 43 25q23 8 55.5 8t54.5 -8q25 -9 43 -25q18 -14 31 -41q12 -25 12 -61q0 -35 -12 -59q-12 -27 -31 -41q-18 -15 -43 -25q-23 -8 -55.5 -8t-54.5 8q-25 9 -43 25q-18 14 -31 41q-10 20 -10 59zM831 1743q0 41 11 61q12 27 30 41q16 14 45 25 q23 8 56 8q31 0 53 -8q29 -10 45 -25q18 -14 31 -41q12 -25 12 -61q0 -35 -12 -59q-12 -27 -31 -41q-16 -14 -45 -25q-23 -8 -53 -8q-61 0 -101 33q-41 34 -41 100z" />
<glyph unicode="&#xd7;" d="M109 1024l151 154l301 -299l305 299l154 -150l-305 -305l301 -303l-150 -152l-305 301l-301 -299l-149 152l297 301z" />
<glyph unicode="&#xd8;" horiz-adv-x="1546" d="M119 735q0 174 39 309.5t121 235.5q80 98 204.5 151.5t292.5 53.5q86 0 168 -17q76 -14 143 -47l70 111l166 -96l-80 -129q94 -98 141 -244q45 -141 46 -330q0 -172 -39 -307q-41 -141 -121 -240q-76 -94 -205 -151q-123 -55 -291 -55q-178 0 -307 61l-72 -117l-168 94 l82 134q-96 100 -143 247q-47 152 -47 336zM438 733q0 -178 47 -295l457 746q-68 43 -166 43q-88 0 -151 -33q-59 -31 -105 -98q-39 -57 -61 -156q-21 -88 -21 -207zM612 279q37 -20 74 -29q45 -10 88 -10q86 0 151.5 34.5t104.5 96.5q41 68 60 155q20 102 20 207 q0 170 -43 287z" />
<glyph unicode="&#xd9;" horiz-adv-x="1464" d="M174 520v942h309v-919q0 -76 17 -137q14 -55 47 -95q31 -37 78 -55q41 -16 110 -16q131 0 189 75q59 78 59 230v917h309v-946q0 -113 -34.5 -213t-104.5 -170q-76 -76 -176 -113q-111 -41 -250 -40q-135 0 -238 38q-106 41 -174 109q-63 63 -104 172q-37 98 -37 221z M393 1886v21h342q15 -34 37 -74l45 -82q20 -37 47 -78q6 -8 15 -22.5t16.5 -25.5t13.5 -19v-27h-203l-82 70l-94 86q-47 43 -84 84q-39 42 -53 67z" />
<glyph unicode="&#xda;" horiz-adv-x="1464" d="M174 520v942h309v-919q0 -76 17 -137q14 -55 47 -95q31 -37 78 -55q41 -16 110 -16q131 0 189 75q59 78 59 230v917h309v-946q0 -113 -34.5 -213t-104.5 -170q-76 -76 -176 -113q-111 -41 -250 -40q-135 0 -238 38q-106 41 -174 109q-63 63 -104 172q-37 98 -37 221z M570 1579v27l45 67q33 53 47 78q8 12 45 82q22 40 37 74h342v-21q-16 -23 -33 -43q-43 -49 -47 -53q-27 -29 -57 -57l-64 -58l-59 -53q-16 -14 -31.5 -25.5t-21.5 -17.5h-203z" />
<glyph unicode="&#xdb;" horiz-adv-x="1464" d="M174 520v942h309v-919q0 -76 17 -137q14 -55 47 -95q31 -37 78 -55q41 -16 110 -16q131 0 189 75q59 78 59 230v917h309v-946q0 -113 -34.5 -213t-104.5 -170q-76 -76 -176 -113q-111 -41 -250 -40q-135 0 -238 38q-106 41 -174 109q-63 63 -104 172q-37 98 -37 221z M317 1579v27q27 29 57 67l64 78l63 82q25 33 52 74h356q27 -41 51 -74q12 -14 21.5 -28.5t17.5 -24.5l23 -29l65 -78l58 -67v-27h-203q-39 25 -107 78q-51 41 -106 98q-59 -59 -107 -98q-66 -53 -102 -78h-203z" />
<glyph unicode="&#xdc;" horiz-adv-x="1464" d="M174 520v942h309v-919q0 -76 17 -137q14 -55 47 -95q31 -37 78 -55q41 -16 110 -16q131 0 189 75q59 78 59 230v917h309v-946q0 -113 -34.5 -213t-104.5 -170q-76 -76 -176 -113q-111 -41 -250 -40q-135 0 -238 38q-106 41 -174 109q-63 63 -104 172q-37 98 -37 221z M393 1743q0 41 10 61q12 27 31 41q18 15 43 25q23 8 55.5 8t54.5 -8q25 -9 43 -25q18 -14 31 -41q12 -25 12 -61q0 -35 -12 -59q-12 -27 -31 -41q-18 -15 -43 -25q-23 -8 -55.5 -8t-54.5 8q-25 9 -43 25q-18 14 -31 41q-10 20 -10 59zM796 1743q0 41 11 61q12 27 30 41 q16 14 45 25q23 8 56 8q31 0 53 -8q29 -10 45 -25q18 -14 31 -41q12 -25 12 -61q0 -35 -12 -59q-12 -27 -31 -41q-16 -14 -45 -25q-23 -8 -53 -8q-61 0 -101 33q-41 34 -41 100z" />
<glyph unicode="&#xdd;" horiz-adv-x="1193" d="M0 1462h336l262 -602l264 602h334l-444 -893v-569h-308v559zM422 1579v27l45 67q33 53 47 78q8 12 45 82q22 40 37 74h342v-21q-16 -23 -33 -43q-43 -49 -47 -53q-27 -29 -57 -57l-64 -58l-59 -53q-16 -14 -31.5 -25.5t-21.5 -17.5h-203z" />
<glyph unicode="&#xde;" horiz-adv-x="1224" d="M184 0v1462h310v-229h161q127 0 213 -33q94 -35 150 -94q59 -63 86 -145q29 -90 29 -191q0 -94 -25 -180t-84 -152q-61 -68 -153.5 -106.5t-237.5 -38.5h-139v-293h-310zM494 543h84q119 0 182 53q59 51 59 174q0 106 -53 160q-51 51 -168 51h-104v-438z" />
<glyph unicode="&#xdf;" horiz-adv-x="1394" d="M160 0v1139q0 111 36.5 190.5t106.5 133t164 77.5q102 27 213 27q119 0 209 -21q92 -20 160 -63q66 -43 102 -103q37 -61 37 -139q0 -66 -20.5 -113t-53.5 -86q-35 -41 -70 -67l-69 -53q-41 -33 -53 -45q-20 -20 -21 -43q0 -18 12 -37q8 -14 39 -37q20 -16 68 -45 q41 -25 98 -64q53 -33 86 -63q43 -39 66 -72q27 -39 39 -84q14 -53 14 -106q0 -172 -117 -258q-119 -88 -344 -88q-100 0 -169.5 14t-133.5 49v242q23 -14 59 -31q39 -18 72 -29q37 -12 78 -18q53 -8 74 -8q82 0 125 30.5t43 92.5q0 28 -6 49q-4 16 -29 41q-20 20 -57 45 q-55 37 -97 59q-59 35 -106 68q-29 20 -68 63q-25 29 -39 66q-10 29 -10 75q0 53 20 93q20 41 52 69q37 37 67 58q41 27 68 51q31 27 51 57q20 29 21 72q0 61 -50 102q-47 39 -147 39q-111 0 -162 -49q-53 -49 -53 -152v-1128h-305z" />
<glyph unicode="&#xe0;" horiz-adv-x="1175" d="M86 334q0 176 115 262q113 84 340 94l178 6v84q0 70 -39 102.5t-113 32.5q-78 0 -141 -20q-61 -20 -137 -57l-99 202q82 45 187 74q98 27 213 27q211 0 321.5 -98.5t110.5 -297.5v-745h-213l-59 152h-9q-33 -45 -65 -78q-29 -29 -74 -54q-41 -23 -86 -30 q-55 -10 -113 -10q-66 0 -127 22q-59 23 -100 64q-39 39 -65 110q-25 68 -25 158zM399 332q0 -68 33 -99q35 -31 90 -30q43 0 78 14q31 12 62 43q29 29 43 70t14 96v92l-101 -4q-68 -4 -104 -16q-45 -16 -65 -37q-29 -29 -39 -55q-11 -29 -11 -74zM240 1548v21h342 q15 -34 37 -74l45 -82q20 -37 47 -78q6 -8 15 -22.5t16.5 -25.5t13.5 -19v-27h-203l-82 70l-94 86q-47 43 -84 84q-39 42 -53 67z" />
<glyph unicode="&#xe1;" horiz-adv-x="1175" d="M86 334q0 176 115 262q113 84 340 94l178 6v84q0 70 -39 102.5t-113 32.5q-78 0 -141 -20q-61 -20 -137 -57l-99 202q82 45 187 74q98 27 213 27q211 0 321.5 -98.5t110.5 -297.5v-745h-213l-59 152h-9q-33 -45 -65 -78q-29 -29 -74 -54q-41 -23 -86 -30 q-55 -10 -113 -10q-66 0 -127 22q-59 23 -100 64q-39 39 -65 110q-25 68 -25 158zM399 332q0 -68 33 -99q35 -31 90 -30q43 0 78 14q31 12 62 43q29 29 43 70t14 96v92l-101 -4q-68 -4 -104 -16q-45 -16 -65 -37q-29 -29 -39 -55q-11 -29 -11 -74zM441 1241v27l45 67 q33 53 47 78q8 12 45 82q22 40 37 74h342v-21q-16 -23 -33 -43q-43 -49 -47 -53q-27 -29 -57 -57l-64 -58l-59 -53q-16 -14 -31.5 -25.5t-21.5 -17.5h-203z" />
<glyph unicode="&#xe2;" horiz-adv-x="1175" d="M86 334q0 176 115 262q113 84 340 94l178 6v84q0 70 -39 102.5t-113 32.5q-78 0 -141 -20q-61 -20 -137 -57l-99 202q82 45 187 74q98 27 213 27q211 0 321.5 -98.5t110.5 -297.5v-745h-213l-59 152h-9q-33 -45 -65 -78q-29 -29 -74 -54q-41 -23 -86 -30 q-55 -10 -113 -10q-66 0 -127 22q-59 23 -100 64q-39 39 -65 110q-25 68 -25 158zM399 332q0 -68 33 -99q35 -31 90 -30q43 0 78 14q31 12 62 43q29 29 43 70t14 96v92l-101 -4q-68 -4 -104 -16q-45 -16 -65 -37q-29 -29 -39 -55q-11 -29 -11 -74zM176 1241v27q27 29 57 67 l64 78l63 82q25 33 52 74h356q27 -41 51 -74q12 -14 21.5 -28.5t17.5 -24.5l23 -29l65 -78l58 -67v-27h-203q-39 25 -107 78q-51 41 -106 98q-59 -59 -107 -98q-66 -53 -102 -78h-203z" />
<glyph unicode="&#xe3;" horiz-adv-x="1175" d="M86 334q0 176 115 262q113 84 340 94l178 6v84q0 70 -39 102.5t-113 32.5q-78 0 -141 -20q-61 -20 -137 -57l-99 202q82 45 187 74q98 27 213 27q211 0 321.5 -98.5t110.5 -297.5v-745h-213l-59 152h-9q-33 -45 -65 -78q-29 -29 -74 -54q-41 -23 -86 -30 q-55 -10 -113 -10q-66 0 -127 22q-59 23 -100 64q-39 39 -65 110q-25 68 -25 158zM399 332q0 -68 33 -99q35 -31 90 -30q43 0 78 14q31 12 62 43q29 29 43 70t14 96v92l-101 -4q-68 -4 -104 -16q-45 -16 -65 -37q-29 -29 -39 -55q-11 -29 -11 -74zM197 1239q6 82 26 137 q23 63 53 97q37 41 76 57q43 18 97 18q37 0 79 -16l78 -35q10 -4 36 -17.5t40 -19.5q39 -16 74 -16q29 0 49 26q18 25 31 80h149q-6 -82 -27 -137q-23 -59 -53 -96q-33 -39 -76 -57.5t-96 -18.5q-37 0 -80 16q-18 6 -78 37q-39 20 -75 35q-39 16 -74 17q-31 0 -49 -27 q-20 -29 -31 -80h-149z" />
<glyph unicode="&#xe4;" horiz-adv-x="1175" d="M86 334q0 176 115 262q113 84 340 94l178 6v84q0 70 -39 102.5t-113 32.5q-78 0 -141 -20q-61 -20 -137 -57l-99 202q82 45 187 74q98 27 213 27q211 0 321.5 -98.5t110.5 -297.5v-745h-213l-59 152h-9q-33 -45 -65 -78q-29 -29 -74 -54q-41 -23 -86 -30 q-55 -10 -113 -10q-66 0 -127 22q-59 23 -100 64q-39 39 -65 110q-25 68 -25 158zM399 332q0 -68 33 -99q35 -31 90 -30q43 0 78 14q31 12 62 43q29 29 43 70t14 96v92l-101 -4q-68 -4 -104 -16q-45 -16 -65 -37q-29 -29 -39 -55q-11 -29 -11 -74zM254 1405q0 41 10 61 q12 27 31 41q18 15 43 25q23 8 55.5 8t54.5 -8q25 -9 43 -25q18 -14 31 -41q12 -25 12 -61q0 -35 -12 -59q-12 -27 -31 -41q-18 -15 -43 -25q-23 -8 -55.5 -8t-54.5 8q-25 9 -43 25q-18 14 -31 41q-10 20 -10 59zM657 1405q0 41 11 61q12 27 30 41q16 14 45 25q23 8 56 8 q31 0 53 -8q29 -10 45 -25q18 -14 31 -41q12 -25 12 -61q0 -35 -12 -59q-12 -27 -31 -41q-16 -14 -45 -25q-23 -8 -53 -8q-61 0 -101 33q-41 34 -41 100z" />
<glyph unicode="&#xe5;" horiz-adv-x="1175" d="M86 334q0 176 115 262q113 84 340 94l178 6v84q0 70 -39 102.5t-113 32.5q-78 0 -141 -20q-61 -20 -137 -57l-99 202q82 45 187 74q98 27 213 27q211 0 321.5 -98.5t110.5 -297.5v-745h-213l-59 152h-9q-33 -45 -65 -78q-29 -29 -74 -54q-41 -23 -86 -30 q-55 -10 -113 -10q-66 0 -127 22q-59 23 -100 64q-39 39 -65 110q-25 68 -25 158zM399 332q0 -68 33 -99q35 -31 90 -30q43 0 78 14q31 12 62 43q29 29 43 70t14 96v92l-101 -4q-68 -4 -104 -16q-45 -16 -65 -37q-29 -29 -39 -55q-11 -29 -11 -74zM340 1477q0 57 18 100 q20 47 50 74q35 33 79 47q49 16 101 16q49 0 98 -16q47 -16 82 -47q31 -27 53 -74q20 -41 20.5 -98.5t-18.5 -100.5q-18 -41 -55 -75q-35 -33 -80 -48q-49 -16 -100 -16t-101 16q-45 14 -79 48q-27 25 -50 75q-18 44 -18 99zM492 1477q0 -45 24 -70q27 -27 72 -27 q39 0 69 27q27 25 27 70q0 47 -26.5 71.5t-69.5 24.5t-69.5 -24.5t-26.5 -71.5z" />
<glyph unicode="&#xe6;" horiz-adv-x="1804" d="M86 334q0 176 115 262q113 84 340 94l178 6v84q0 70 -39 102.5t-113 32.5q-78 0 -141 -20q-61 -20 -137 -57l-99 202q82 45 187 74q98 27 213 27q217 0 323 -131q126 129 314 129q115 0 200 -33q90 -35 152 -98q63 -66 96 -160q33 -92 33 -217v-148h-682q4 -68 20.5 -117 t51.5 -85q33 -35 82 -56q45 -18 108 -18q92 0 182 22q92 23 175 66v-236q-40 -22 -80 -36q-29 -10 -86 -23q-76 -14 -97 -16q-70 -4 -114 -4q-125 0 -238 51q-106 49 -176 155q-35 -45 -86 -92q-47 -45 -90 -65q-49 -25 -110.5 -37t-143.5 -12q-66 0 -129 22q-66 23 -109 64 q-46 43 -73 110q-27 66 -27 158zM399 332q0 -68 33 -99q35 -31 90 -30q43 0 78 14q31 12 62 43q29 29 43 70t14 96v92l-101 -4q-68 -4 -104 -16q-45 -16 -65 -37q-29 -29 -39 -55q-11 -29 -11 -74zM1032 686h389q0 51 -12 94t-37 74q-27 33 -59 49q-37 18 -84 19 q-84 0 -135 -58q-54 -59 -62 -178z" />
<glyph unicode="&#xe7;" horiz-adv-x="1021" d="M102 553q0 164 37 278q37 113 107 183q70 68 164 96q98 29 215 29q90 0 172 -20.5t159 -59.5l-88 -232q-70 31 -127 47q-61 18 -116 19q-113 0 -160 -84q-51 -90 -51 -254t51 -248q49 -80 156 -80q84 0 157 23q59 18 146 57v-254q-4 -2 -72 -33q-25 -12 -70 -22 q-49 -12 -75 -14q-53 -4 -82 -4q-125 0 -217 32q-100 35 -164 103q-68 71 -105 178q-37 108 -37 260zM323 -303q4 0 15.5 -3t17.5 -5q6 0 19.5 -2t19.5 -4t18.5 -2t18.5 -3q12 -2 34 -2q28 0 50 13q23 12 22.5 49t-37.5 65t-129 43l78 154h193l-27 -61q35 -10 59 -27 q37 -25 52 -41q25 -27 36 -53q14 -29 15 -68q0 -59 -14.5 -102t-53.5 -76t-94 -47q-61 -16 -147 -17q-43 0 -80 7q-45 8 -66 14v168z" />
<glyph unicode="&#xe8;" horiz-adv-x="1189" d="M102 551q0 147 37 258t102.5 182.5t161.5 110.5q92 37 207 37t201 -33q90 -35 152 -98q63 -66 96 -160q33 -92 33 -217v-148h-682q4 -68 20 -116q16 -45 53 -86q34 -37 80 -56q47 -18 109 -18q49 0 96 6q57 8 88 16q57 16 86 26.5t86 39.5v-236q-40 -22 -80 -36 q-29 -10 -86 -23q-76 -14 -96 -16q-70 -4 -115 -4q-117 0 -221 34q-96 33 -174 107q-72 70 -113 178q-41 111 -41 252zM416 686h389q0 51 -12.5 94t-36.5 74q-27 33 -60 49q-37 18 -84 19q-84 0 -135 -58q-53 -59 -61 -178zM264 1548v21h342q15 -34 37 -74l45 -82 q20 -37 47 -78q6 -8 15 -22.5t16.5 -25.5t13.5 -19v-27h-203l-82 70l-94 86q-47 43 -84 84q-39 42 -53 67z" />
<glyph unicode="&#xe9;" horiz-adv-x="1189" d="M102 551q0 147 37 258t102.5 182.5t161.5 110.5q92 37 207 37t201 -33q90 -35 152 -98q63 -66 96 -160q33 -92 33 -217v-148h-682q4 -68 20 -116q16 -45 53 -86q34 -37 80 -56q47 -18 109 -18q49 0 96 6q57 8 88 16q57 16 86 26.5t86 39.5v-236q-40 -22 -80 -36 q-29 -10 -86 -23q-76 -14 -96 -16q-70 -4 -115 -4q-117 0 -221 34q-96 33 -174 107q-72 70 -113 178q-41 111 -41 252zM416 686h389q0 51 -12.5 94t-36.5 74q-27 33 -60 49q-37 18 -84 19q-84 0 -135 -58q-53 -59 -61 -178zM447 1241v27l45 67q33 53 47 78q8 12 45 82 q22 40 37 74h342v-21q-16 -23 -33 -43q-43 -49 -47 -53q-27 -29 -57 -57l-64 -58l-59 -53q-16 -14 -31.5 -25.5t-21.5 -17.5h-203z" />
<glyph unicode="&#xea;" horiz-adv-x="1189" d="M102 551q0 147 37 258t102.5 182.5t161.5 110.5q92 37 207 37t201 -33q90 -35 152 -98q63 -66 96 -160q33 -92 33 -217v-148h-682q4 -68 20 -116q16 -45 53 -86q34 -37 80 -56q47 -18 109 -18q49 0 96 6q57 8 88 16q57 16 86 26.5t86 39.5v-236q-40 -22 -80 -36 q-29 -10 -86 -23q-76 -14 -96 -16q-70 -4 -115 -4q-117 0 -221 34q-96 33 -174 107q-72 70 -113 178q-41 111 -41 252zM416 686h389q0 51 -12.5 94t-36.5 74q-27 33 -60 49q-37 18 -84 19q-84 0 -135 -58q-53 -59 -61 -178zM194 1241v27q27 29 57 67l64 78l63 82 q25 33 52 74h356q27 -41 51 -74q12 -14 21.5 -28.5t17.5 -24.5l23 -29l65 -78l58 -67v-27h-203q-39 25 -107 78q-51 41 -106 98q-59 -59 -107 -98q-66 -53 -102 -78h-203z" />
<glyph unicode="&#xeb;" horiz-adv-x="1189" d="M102 551q0 147 37 258t102.5 182.5t161.5 110.5q92 37 207 37t201 -33q90 -35 152 -98q63 -66 96 -160q33 -92 33 -217v-148h-682q4 -68 20 -116q16 -45 53 -86q34 -37 80 -56q47 -18 109 -18q49 0 96 6q57 8 88 16q57 16 86 26.5t86 39.5v-236q-40 -22 -80 -36 q-29 -10 -86 -23q-76 -14 -96 -16q-70 -4 -115 -4q-117 0 -221 34q-96 33 -174 107q-72 70 -113 178q-41 111 -41 252zM416 686h389q0 51 -12.5 94t-36.5 74q-27 33 -60 49q-37 18 -84 19q-84 0 -135 -58q-53 -59 -61 -178zM266 1405q0 41 10 61q12 27 31 41q18 15 43 25 q23 8 55.5 8t54.5 -8q25 -9 43 -25q18 -14 31 -41q12 -25 12 -61q0 -35 -12 -59q-12 -27 -31 -41q-18 -15 -43 -25q-23 -8 -55.5 -8t-54.5 8q-25 9 -43 25q-18 14 -31 41q-10 20 -10 59zM669 1405q0 41 11 61q12 27 30 41q16 14 45 25q23 8 56 8q31 0 53 -8q29 -10 45 -25 q18 -14 31 -41q12 -25 12 -61q0 -35 -12 -59q-12 -27 -31 -41q-16 -14 -45 -25q-23 -8 -53 -8q-61 0 -101 33q-41 34 -41 100z" />
<glyph unicode="&#xec;" horiz-adv-x="624" d="M160 0v1118h305v-1118h-305zM-45 1548v21h342q15 -34 37 -74l45 -82q20 -37 47 -78q6 -8 15 -22.5t16.5 -25.5t13.5 -19v-27h-203l-82 70l-94 86q-47 43 -84 84q-39 42 -53 67z" />
<glyph unicode="&#xed;" horiz-adv-x="624" d="M160 0v1118h305v-1118h-305zM146 1241v27l45 67q33 53 47 78q8 12 45 82q22 40 37 74h342v-21q-16 -23 -33 -43q-43 -49 -47 -53q-27 -29 -57 -57l-64 -58l-59 -53q-16 -14 -31.5 -25.5t-21.5 -17.5h-203z" />
<glyph unicode="&#xee;" horiz-adv-x="624" d="M160 0v1118h305v-1118h-305zM-105 1241v27q27 29 57 67l64 78l63 82q25 33 52 74h356q27 -41 51 -74q12 -14 21.5 -28.5t17.5 -24.5l23 -29l65 -78l58 -67v-27h-203q-39 25 -107 78q-51 41 -106 98q-59 -59 -107 -98q-66 -53 -102 -78h-203z" />
<glyph unicode="&#xef;" horiz-adv-x="624" d="M160 0v1118h305v-1118h-305zM-33 1405q0 41 10 61q12 27 31 41q18 15 43 25q23 8 55.5 8t54.5 -8q25 -9 43 -25q18 -14 31 -41q12 -25 12 -61q0 -35 -12 -59q-12 -27 -31 -41q-18 -15 -43 -25q-23 -8 -55.5 -8t-54.5 8q-25 9 -43 25q-18 14 -31 41q-10 20 -10 59z M370 1405q0 41 11 61q12 27 30 41q16 14 45 25q23 8 56 8q31 0 53 -8q29 -10 45 -25q18 -14 31 -41q12 -25 12 -61q0 -35 -12 -59q-12 -27 -31 -41q-16 -14 -45 -25q-23 -8 -53 -8q-61 0 -101 33q-41 34 -41 100z" />
<glyph unicode="&#xf0;" horiz-adv-x="1181" d="M74 489q0 123 32 216q35 98 90.5 159.5t141.5 96t178 34.5t164 -32q70 -33 100 -80l21 2q-27 86 -78 166q-47 74 -117 133l-231 -144l-101 156l183 113q-4 2 -72 45q-53 33 -82 47l96 170l138 -68q25 -12 120 -73l226 139l100 -154l-174 -106q68 -63 127 -148 q47 -66 88 -168q35 -84 53 -194q18 -104 19 -226q0 -147 -35 -251q-37 -109 -105 -187q-66 -74 -161 -115q-98 -41 -213 -40q-109 0 -203 34q-96 35 -162 99q-68 65 -104 159q-39 100 -39 217zM385 487q0 -61 12 -114q14 -59 35 -90q23 -33 64 -58q35 -20 90 -20 q106 0 151 82q47 84 47 245q0 47 -12 91q-12 45 -34.5 75.5t-63.5 51t-88 20.5q-109 0 -154 -70q-47 -72 -47 -213z" />
<glyph unicode="&#xf1;" horiz-adv-x="1282" d="M160 0v1118h233l41 -143h17q23 41 59 74q29 25 76 51q40 22 86 30q41 8 94 9q88 0 149 -23q63 -23 115 -74q49 -49 74 -127q27 -84 26 -186v-729h-305v653q0 119 -36.5 180.5t-116.5 61.5q-61 0 -100.5 -24.5t-63.5 -69.5q-23 -43 -33 -117q-10 -76 -10 -158v-526h-305z M248 1239q6 82 26 137q23 63 53 97q37 41 76 57q43 18 97 18q37 0 79 -16l78 -35q10 -4 36 -17.5t40 -19.5q39 -16 74 -16q29 0 49 26q18 25 31 80h149q-6 -82 -27 -137q-23 -59 -53 -96q-33 -39 -76 -57.5t-96 -18.5q-37 0 -80 16q-18 6 -78 37q-39 20 -75 35 q-39 16 -74 17q-31 0 -49 -27q-20 -29 -31 -80h-149z" />
<glyph unicode="&#xf2;" horiz-adv-x="1226" d="M102 561q0 145 35 248q37 109 103 180q72 78 161 113q95 37 215 37q111 0 203 -37t162 -113q68 -74 104 -180q39 -113 39 -248q0 -139 -37 -248q-39 -117 -100 -182q-68 -74 -162 -113q-92 -39 -215 -38q-115 0 -204 38q-94 41 -160 113q-70 76 -107 182q-37 109 -37 248 zM414 561q0 -164 47 -252q45 -84 153 -84q106 0 152 84q47 88 47 252q0 166 -47 250q-45 82 -154 82q-106 0 -151 -82q-47 -84 -47 -250zM273 1548v21h342q15 -34 37 -74l45 -82q20 -37 47 -78q6 -8 15 -22.5t16.5 -25.5t13.5 -19v-27h-203l-82 70l-94 86q-47 43 -84 84 q-39 42 -53 67z" />
<glyph unicode="&#xf3;" horiz-adv-x="1226" d="M102 561q0 145 35 248q37 109 103 180q72 78 161 113q95 37 215 37q111 0 203 -37t162 -113q68 -74 104 -180q39 -113 39 -248q0 -139 -37 -248q-39 -117 -100 -182q-68 -74 -162 -113q-92 -39 -215 -38q-115 0 -204 38q-94 41 -160 113q-70 76 -107 182q-37 109 -37 248 zM414 561q0 -164 47 -252q45 -84 153 -84q106 0 152 84q47 88 47 252q0 166 -47 250q-45 82 -154 82q-106 0 -151 -82q-47 -84 -47 -250zM434 1241v27l45 67q33 53 47 78q8 12 45 82q22 40 37 74h342v-21q-16 -23 -33 -43q-43 -49 -47 -53q-27 -29 -57 -57l-64 -58l-59 -53 q-16 -14 -31.5 -25.5t-21.5 -17.5h-203z" />
<glyph unicode="&#xf4;" horiz-adv-x="1226" d="M102 561q0 145 35 248q37 109 103 180q72 78 161 113q95 37 215 37q111 0 203 -37t162 -113q68 -74 104 -180q39 -113 39 -248q0 -139 -37 -248q-39 -117 -100 -182q-68 -74 -162 -113q-92 -39 -215 -38q-115 0 -204 38q-94 41 -160 113q-70 76 -107 182q-37 109 -37 248 zM414 561q0 -164 47 -252q45 -84 153 -84q106 0 152 84q47 88 47 252q0 166 -47 250q-45 82 -154 82q-106 0 -151 -82q-47 -84 -47 -250zM196 1241v27q27 29 57 67l64 78l63 82q25 33 52 74h356q27 -41 51 -74q12 -14 21.5 -28.5t17.5 -24.5l23 -29l65 -78l58 -67v-27h-203 q-39 25 -107 78q-51 41 -106 98q-59 -59 -107 -98q-66 -53 -102 -78h-203z" />
<glyph unicode="&#xf5;" horiz-adv-x="1226" d="M102 561q0 145 35 248q37 109 103 180q72 78 161 113q95 37 215 37q111 0 203 -37t162 -113q68 -74 104 -180q39 -113 39 -248q0 -139 -37 -248q-39 -117 -100 -182q-68 -74 -162 -113q-92 -39 -215 -38q-115 0 -204 38q-94 41 -160 113q-70 76 -107 182q-37 109 -37 248 zM414 561q0 -164 47 -252q45 -84 153 -84q106 0 152 84q47 88 47 252q0 166 -47 250q-45 82 -154 82q-106 0 -151 -82q-47 -84 -47 -250zM215 1239q6 82 26 137q23 63 53 97q37 41 76 57q43 18 97 18q37 0 79 -16l78 -35q10 -4 36 -17.5t40 -19.5q39 -16 74 -16q29 0 49 26 q18 25 31 80h149q-6 -82 -27 -137q-23 -59 -53 -96q-33 -39 -76 -57.5t-96 -18.5q-37 0 -80 16q-18 6 -78 37q-39 20 -75 35q-39 16 -74 17q-31 0 -49 -27q-20 -29 -31 -80h-149z" />
<glyph unicode="&#xf6;" horiz-adv-x="1226" d="M102 561q0 145 35 248q37 109 103 180q72 78 161 113q95 37 215 37q111 0 203 -37t162 -113q68 -74 104 -180q39 -113 39 -248q0 -139 -37 -248q-39 -117 -100 -182q-68 -74 -162 -113q-92 -39 -215 -38q-115 0 -204 38q-94 41 -160 113q-70 76 -107 182q-37 109 -37 248 zM414 561q0 -164 47 -252q45 -84 153 -84q106 0 152 84q47 88 47 252q0 166 -47 250q-45 82 -154 82q-106 0 -151 -82q-47 -84 -47 -250zM266 1405q0 41 10 61q12 27 31 41q18 15 43 25q23 8 55.5 8t54.5 -8q25 -9 43 -25q18 -14 31 -41q12 -25 12 -61q0 -35 -12 -59 q-12 -27 -31 -41q-18 -15 -43 -25q-23 -8 -55.5 -8t-54.5 8q-25 9 -43 25q-18 14 -31 41q-10 20 -10 59zM669 1405q0 41 11 61q12 27 30 41q16 14 45 25q23 8 56 8q31 0 53 -8q29 -10 45 -25q18 -14 31 -41q12 -25 12 -61q0 -35 -12 -59q-12 -27 -31 -41q-16 -14 -45 -25 q-23 -8 -53 -8q-61 0 -101 33q-41 34 -41 100z" />
<glyph unicode="&#xf7;" d="M88 612v219h952v-219h-952zM424 373q0 49 10 71q12 29 31 48q12 12 45 24q23 8 53.5 8t52.5 -8q29 -10 43 -24q18 -18 31 -48q12 -27 12 -71q0 -41 -12 -70t-31 -47q-16 -16 -43 -27q-23 -8 -53.5 -8t-52.5 8q-29 10 -45 27q-18 18 -31 47q-10 23 -10 70zM424 1071 q0 49 10 72q12 29 31 47q12 12 45 24q23 8 53.5 8.5t52.5 -8.5q29 -10 43 -24q18 -18 30.5 -47t12.5 -72q0 -40 -12 -67q-12 -29 -31 -48q-20 -20 -42.5 -28t-53.5 -8t-53 8q-27 10 -45.5 28.5t-30.5 47.5q-10 22 -10 67z" />
<glyph unicode="&#xf8;" horiz-adv-x="1226" d="M102 561q0 145 35 248q37 109 103 180q72 78 161 113q95 37 215 37q59 0 119 -13q39 -8 109 -36l49 79l160 -96l-62 -98q63 -70 99 -176q35 -109 34 -238q0 -139 -37 -248q-39 -117 -100 -182q-68 -74 -162 -113q-92 -39 -215 -38q-51 0 -108 10q-45 8 -101 28l-57 -94 l-162 90l68 111q-70 76 -109 184.5t-39 251.5zM414 561q0 -86 12 -151l283 458q-41 25 -97 25q-106 0 -151 -82q-47 -84 -47 -250zM539 240q12 -6 36.5 -10.5t38.5 -4.5q106 0 152 84q47 88 47 252q0 63 -6 113z" />
<glyph unicode="&#xf9;" horiz-adv-x="1282" d="M154 389v729h305v-653q0 -121 37 -182q35 -59 116 -60q59 0 101 25q39 25 63 69q23 43 33 117q10 76 10 158v526h305v-1118h-233l-41 143h-16q-23 -41 -60 -73q-29 -25 -76 -52q-35 -18 -86 -28t-94 -10q-82 0 -149 24q-63 23 -115 74q-49 49 -74 127q-26 84 -26 184z M271 1548v21h342q15 -34 37 -74l45 -82q20 -37 47 -78q6 -8 15 -22.5t16.5 -25.5t13.5 -19v-27h-203l-82 70l-94 86q-47 43 -84 84q-39 42 -53 67z" />
<glyph unicode="&#xfa;" horiz-adv-x="1282" d="M154 389v729h305v-653q0 -121 37 -182q35 -59 116 -60q59 0 101 25q39 25 63 69q23 43 33 117q10 76 10 158v526h305v-1118h-233l-41 143h-16q-23 -41 -60 -73q-29 -25 -76 -52q-35 -18 -86 -28t-94 -10q-82 0 -149 24q-63 23 -115 74q-49 49 -74 127q-26 84 -26 184z M461 1241v27l45 67q33 53 47 78q8 12 45 82q22 40 37 74h342v-21q-16 -23 -33 -43q-43 -49 -47 -53q-27 -29 -57 -57l-64 -58l-59 -53q-16 -14 -31.5 -25.5t-21.5 -17.5h-203z" />
<glyph unicode="&#xfb;" horiz-adv-x="1282" d="M154 389v729h305v-653q0 -121 37 -182q35 -59 116 -60q59 0 101 25q39 25 63 69q23 43 33 117q10 76 10 158v526h305v-1118h-233l-41 143h-16q-23 -41 -60 -73q-29 -25 -76 -52q-35 -18 -86 -28t-94 -10q-82 0 -149 24q-63 23 -115 74q-49 49 -74 127q-26 84 -26 184z M217 1241v27q27 29 57 67l64 78l63 82q25 33 52 74h356q27 -41 51 -74q12 -14 21.5 -28.5t17.5 -24.5l23 -29l65 -78l58 -67v-27h-203q-39 25 -107 78q-51 41 -106 98q-59 -59 -107 -98q-66 -53 -102 -78h-203z" />
<glyph unicode="&#xfc;" horiz-adv-x="1282" d="M154 389v729h305v-653q0 -121 37 -182q35 -59 116 -60q59 0 101 25q39 25 63 69q23 43 33 117q10 76 10 158v526h305v-1118h-233l-41 143h-16q-23 -41 -60 -73q-29 -25 -76 -52q-35 -18 -86 -28t-94 -10q-82 0 -149 24q-63 23 -115 74q-49 49 -74 127q-26 84 -26 184z M295 1405q0 41 10 61q12 27 31 41q18 15 43 25q23 8 55.5 8t54.5 -8q25 -9 43 -25q18 -14 31 -41q12 -25 12 -61q0 -35 -12 -59q-12 -27 -31 -41q-18 -15 -43 -25q-23 -8 -55.5 -8t-54.5 8q-25 9 -43 25q-18 14 -31 41q-10 20 -10 59zM698 1405q0 41 11 61q12 27 30 41 q16 14 45 25q23 8 56 8q31 0 53 -8q29 -10 45 -25q18 -14 31 -41q12 -25 12 -61q0 -35 -12 -59q-12 -27 -31 -41q-16 -14 -45 -25q-23 -8 -53 -8q-61 0 -101 33q-41 34 -41 100z" />
<glyph unicode="&#xfd;" horiz-adv-x="1103" d="M0 1118h334l180 -629q16 -57 23 -110q8 -82 10 -107h6q2 14 6 52q4 41 8 57q2 8 5 28.5t6 28.5q0 4 14 51l176 629h336l-442 -1261q-61 -176 -168 -263q-109 -86 -269 -86q-66 0 -90 5q-41 6 -65 12v242q16 -4 53 -9q41 -4 67 -4q47 0 82 13q33 12 58 36q27 27 43 58 q18 34 30 73l19 56zM393 1241v27l45 67q33 53 47 78q8 12 45 82q22 40 37 74h342v-21q-16 -23 -33 -43q-43 -49 -47 -53q-27 -29 -57 -57l-64 -58l-59 -53q-16 -14 -31.5 -25.5t-21.5 -17.5h-203z" />
<glyph unicode="&#xfe;" horiz-adv-x="1243" d="M160 -492v2048h305v-391q0 -35 -2 -57q0 -10 -1 -31.5t-3 -32.5q0 -10 -3 -34.5t-5 -36.5h14q29 45 47 65q27 31 63 52q45 27 82 36q43 12 99 13q88 0 157 -37q68 -35 121 -111q53 -74 80 -180q29 -111 29 -250q0 -141 -29 -252q-29 -115 -78 -182q-52 -74 -123 -111 q-70 -37 -157 -36q-49 0 -101 10q-31 6 -80 30q-35 16 -63 43q-18 16 -47 54h-14q0 -10 4 -30.5t4 -31.5q0 -8 2 -26.5t2 -26.5q2 -16 2 -41v-453h-305zM465 563q0 -72 10 -143q8 -63 31 -107q20 -41 59 -63.5t90 -22.5q90 0 133 86t43 252q0 164 -43 248q-43 82 -135 82 q-49 0 -86 -18q-35 -18 -57 -56q-25 -41 -33 -94q-8 -55 -12 -131v-33z" />
<glyph unicode="&#xff;" horiz-adv-x="1103" d="M0 1118h334l180 -629q16 -57 23 -110q8 -82 10 -107h6q2 14 6 52q4 41 8 57q2 8 5 28.5t6 28.5q0 4 14 51l176 629h336l-442 -1261q-61 -176 -168 -263q-109 -86 -269 -86q-66 0 -90 5q-41 6 -65 12v242q16 -4 53 -9q41 -4 67 -4q47 0 82 13q33 12 58 36q27 27 43 58 q18 34 30 73l19 56zM209 1405q0 41 10 61q12 27 31 41q18 15 43 25q23 8 55.5 8t54.5 -8q25 -9 43 -25q18 -14 31 -41q12 -25 12 -61q0 -35 -12 -59q-12 -27 -31 -41q-18 -15 -43 -25q-23 -8 -55.5 -8t-54.5 8q-25 9 -43 25q-18 14 -31 41q-10 20 -10 59zM612 1405 q0 41 11 61q12 27 30 41q16 14 45 25q23 8 56 8q31 0 53 -8q29 -10 45 -25q18 -14 31 -41q12 -25 12 -61q0 -35 -12 -59q-12 -27 -31 -41q-16 -14 -45 -25q-23 -8 -53 -8q-61 0 -101 33q-41 34 -41 100z" />
<glyph unicode="&#x100;" horiz-adv-x="1329" d="M0 0l475 1468h379l477 -1468h-313l-100 348h-504l-101 -348h-313zM489 608h357l-94 320l-19 59q-6 20 -11 43t-13 47q-4 16 -13.5 50t-13.5 50.5t-16 84.5l-11 -52q-8 -41 -14 -63l-9 -31.5t-9.5 -36t-16.5 -63.5l-14 -53q-2 -12 -6 -20.5t-4 -14.5zM358 1579v211h617 v-211h-617z" />
<glyph unicode="&#x101;" horiz-adv-x="1175" d="M86 334q0 176 115 262q113 84 340 94l178 6v84q0 70 -39 102.5t-113 32.5q-78 0 -141 -20q-61 -20 -137 -57l-99 202q82 45 187 74q98 27 213 27q211 0 321.5 -98.5t110.5 -297.5v-745h-213l-59 152h-9q-33 -45 -65 -78q-29 -29 -74 -54q-41 -23 -86 -30 q-55 -10 -113 -10q-66 0 -127 22q-59 23 -100 64q-39 39 -65 110q-25 68 -25 158zM399 332q0 -68 33 -99q35 -31 90 -30q43 0 78 14q31 12 62 43q29 29 43 70t14 96v92l-101 -4q-68 -4 -104 -16q-45 -16 -65 -37q-29 -29 -39 -55q-11 -29 -11 -74zM278 1241v211h617v-211 h-617z" />
<glyph unicode="&#x102;" horiz-adv-x="1329" d="M0 0l475 1468h379l477 -1468h-313l-100 348h-504l-101 -348h-313zM489 608h357l-94 320l-19 59q-6 20 -11 43t-13 47q-4 16 -13.5 50t-13.5 50.5t-16 84.5l-11 -52q-8 -41 -14 -63l-9 -31.5t-9.5 -36t-16.5 -63.5l-14 -53q-2 -12 -6 -20.5t-4 -14.5zM303 1917h170 q3 -43 19 -68q18 -31 37 -38q23 -10 57 -15q45 -4 78 -4q25 0 69 4q25 2 58 19q23 10 43 39q16 23 20 63h174q-6 -76 -30 -137q-25 -63 -72 -107q-49 -45 -113 -69q-66 -25 -151 -25q-89 0 -154 25q-70 27 -110.5 67.5t-67.5 106.5q-23 59 -27 139z" />
<glyph unicode="&#x103;" horiz-adv-x="1175" d="M86 334q0 176 115 262q113 84 340 94l178 6v84q0 70 -39 102.5t-113 32.5q-78 0 -141 -20q-61 -20 -137 -57l-99 202q82 45 187 74q98 27 213 27q211 0 321.5 -98.5t110.5 -297.5v-745h-213l-59 152h-9q-33 -45 -65 -78q-29 -29 -74 -54q-41 -23 -86 -30 q-55 -10 -113 -10q-66 0 -127 22q-59 23 -100 64q-39 39 -65 110q-25 68 -25 158zM399 332q0 -68 33 -99q35 -31 90 -30q43 0 78 14q31 12 62 43q29 29 43 70t14 96v92l-101 -4q-68 -4 -104 -16q-45 -16 -65 -37q-29 -29 -39 -55q-11 -29 -11 -74zM239 1579h170 q3 -43 19 -68q18 -31 37 -38q23 -10 57 -15q45 -4 78 -4q25 0 69 4q25 2 58 19q23 10 43 39q16 23 20 63h174q-6 -76 -30 -137q-25 -63 -72 -107q-49 -45 -113 -69q-66 -25 -151 -25q-89 0 -154 25q-70 27 -110.5 67.5t-67.5 106.5q-23 59 -27 139z" />
<glyph unicode="&#x104;" horiz-adv-x="1329" d="M0 0l475 1468h379l477 -1468h-313l-100 348h-504l-101 -348h-313zM489 608h357l-94 320l-19 59q-6 20 -11 43t-13 47q-4 16 -13.5 50t-13.5 50.5t-16 84.5l-11 -52q-8 -41 -14 -63l-9 -31.5t-9.5 -36t-16.5 -63.5l-14 -53q-2 -12 -6 -20.5t-4 -14.5zM839 -262q0 45 15 80 q16 39 38 67q29 37 58 60q45 37 69 55h179q-63 -57 -109 -121q-39 -53 -39 -106q0 -39 23 -62q20 -20 57 -20q33 0 64 6q27 6 51 12v-178q-35 -10 -70 -16q-37 -6 -86 -7q-63 0 -104 17q-47 18 -78 47q-33 29 -51 74q-17 39 -17 92z" />
<glyph unicode="&#x105;" horiz-adv-x="1175" d="M86 334q0 176 115 262q113 84 340 94l178 6v84q0 70 -39 102.5t-113 32.5q-78 0 -141 -20q-61 -20 -137 -57l-99 202q82 45 187 74q98 27 213 27q211 0 321.5 -98.5t110.5 -297.5v-745h-213l-59 152h-9q-33 -45 -65 -78q-29 -29 -74 -54q-41 -23 -86 -30 q-55 -10 -113 -10q-66 0 -127 22q-59 23 -100 64q-39 39 -65 110q-25 68 -25 158zM399 332q0 -68 33 -99q35 -31 90 -30q43 0 78 14q31 12 62 43q29 29 43 70t14 96v92l-101 -4q-68 -4 -104 -16q-45 -16 -65 -37q-29 -29 -39 -55q-11 -29 -11 -74zM631 -262q0 45 15 80 q16 39 38 67q29 37 58 60q45 37 69 55h179q-63 -57 -109 -121q-39 -53 -39 -106q0 -39 23 -62q20 -20 57 -20q33 0 64 6q27 6 51 12v-178q-35 -10 -70 -16q-37 -6 -86 -7q-63 0 -104 17q-47 18 -78 47q-33 29 -51 74q-17 39 -17 92z" />
<glyph unicode="&#x106;" horiz-adv-x="1304" d="M119 729q0 170 45 305q45 133 133 238q84 100 215 155q129 55 293 56q113 0 219 -27q109 -27 209 -76l-100 -252q-88 43 -164 68q-86 29 -164 29q-88 0 -157.5 -35t-115.5 -98q-43 -61 -69 -158q-25 -92 -25 -207q0 -121 21 -209q20 -86 67 -153q43 -61 113 -95 q68 -33 166 -32q94 0 178 20q102 25 195 57v-260q-33 -14 -95 -35q-31 -10 -96 -22t-100 -14q-70 -4 -111 -4q-170 0 -293 55q-129 57 -204 151q-82 100 -121 235.5t-39 307.5zM639 1579v27l45 67q33 53 47 78q8 12 45 82q22 40 37 74h342v-21q-16 -23 -33 -43 q-43 -49 -47 -53q-27 -29 -57 -57l-64 -58l-59 -53q-16 -14 -31.5 -25.5t-21.5 -17.5h-203z" />
<glyph unicode="&#x107;" horiz-adv-x="1021" d="M102 553q0 164 37 278q37 113 107 183q70 68 164 96q98 29 215 29q90 0 172 -20.5t159 -59.5l-88 -232q-70 31 -127 47q-61 18 -116 19q-113 0 -160 -84q-51 -90 -51 -254t51 -248q49 -80 156 -80q84 0 157 23q59 18 146 57v-254q-4 -2 -72 -33q-25 -12 -70 -22 q-49 -12 -75 -14q-53 -4 -82 -4q-125 0 -217 32q-100 35 -164 103q-68 71 -105 178q-37 108 -37 260zM463 1241v27l45 67q33 53 47 78q8 12 45 82q22 40 37 74h342v-21q-16 -23 -33 -43q-43 -49 -47 -53q-27 -29 -57 -57l-64 -58l-59 -53q-16 -14 -31.5 -25.5t-21.5 -17.5 h-203z" />
<glyph unicode="&#x108;" horiz-adv-x="1304" d="M119 729q0 170 45 305q45 133 133 238q84 100 215 155q129 55 293 56q113 0 219 -27q109 -27 209 -76l-100 -252q-88 43 -164 68q-86 29 -164 29q-88 0 -157.5 -35t-115.5 -98q-43 -61 -69 -158q-25 -92 -25 -207q0 -121 21 -209q20 -86 67 -153q43 -61 113 -95 q68 -33 166 -32q94 0 178 20q102 25 195 57v-260q-33 -14 -95 -35q-31 -10 -96 -22t-100 -14q-70 -4 -111 -4q-170 0 -293 55q-129 57 -204 151q-82 100 -121 235.5t-39 307.5zM356 1579v27q27 29 57 67l64 78l63 82q25 33 52 74h356q27 -41 51 -74q12 -14 21.5 -28.5 t17.5 -24.5l23 -29l65 -78l58 -67v-27h-203q-39 25 -107 78q-51 41 -106 98q-59 -59 -107 -98q-66 -53 -102 -78h-203z" />
<glyph unicode="&#x109;" horiz-adv-x="1021" d="M102 553q0 164 37 278q37 113 107 183q70 68 164 96q98 29 215 29q90 0 172 -20.5t159 -59.5l-88 -232q-70 31 -127 47q-61 18 -116 19q-113 0 -160 -84q-51 -90 -51 -254t51 -248q49 -80 156 -80q84 0 157 23q59 18 146 57v-254q-4 -2 -72 -33q-25 -12 -70 -22 q-49 -12 -75 -14q-53 -4 -82 -4q-125 0 -217 32q-100 35 -164 103q-68 71 -105 178q-37 108 -37 260zM170 1241v27q27 29 57 67l64 78l63 82q25 33 52 74h356q27 -41 51 -74q12 -14 21.5 -28.5t17.5 -24.5l23 -29l65 -78l58 -67v-27h-203q-39 25 -107 78q-51 41 -106 98 q-59 -59 -107 -98q-66 -53 -102 -78h-203z" />
<glyph unicode="&#x10a;" horiz-adv-x="1304" d="M119 729q0 170 45 305q45 133 133 238q84 100 215 155q129 55 293 56q113 0 219 -27q109 -27 209 -76l-100 -252q-88 43 -164 68q-86 29 -164 29q-88 0 -157.5 -35t-115.5 -98q-43 -61 -69 -158q-25 -92 -25 -207q0 -121 21 -209q20 -86 67 -153q43 -61 113 -95 q68 -33 166 -32q94 0 178 20q102 25 195 57v-260q-33 -14 -95 -35q-31 -10 -96 -22t-100 -14q-70 -4 -111 -4q-170 0 -293 55q-129 57 -204 151q-82 100 -121 235.5t-39 307.5zM624 1745q0 43 13 72q10 25 35 45q20 18 53 24q41 8 65 8q23 0 64 -8q33 -6 53 -24 q25 -20 35 -45q14 -33 14 -72t-14 -72q-10 -25 -34.5 -45t-53.5 -26q-31 -6 -64 -7q-35 0 -65 7q-29 6 -53.5 26.5t-34.5 44.5q-13 29 -13 72z" />
<glyph unicode="&#x10b;" horiz-adv-x="1021" d="M102 553q0 164 37 278q37 113 107 183q70 68 164 96q98 29 215 29q90 0 172 -20.5t159 -59.5l-88 -232q-70 31 -127 47q-61 18 -116 19q-113 0 -160 -84q-51 -90 -51 -254t51 -248q49 -80 156 -80q84 0 157 23q59 18 146 57v-254q-4 -2 -72 -33q-25 -12 -70 -22 q-49 -12 -75 -14q-53 -4 -82 -4q-125 0 -217 32q-100 35 -164 103q-68 71 -105 178q-37 108 -37 260zM444 1407q0 43 13 72q10 25 35 45q20 18 53 24q41 8 65 8q23 0 64 -8q33 -6 53 -24q25 -20 35 -45q14 -33 14 -72t-14 -72q-10 -25 -34.5 -45t-53.5 -26q-31 -6 -64 -7 q-35 0 -65 7q-29 6 -53.5 26.5t-34.5 44.5q-13 29 -13 72z" />
<glyph unicode="&#x10c;" horiz-adv-x="1304" d="M119 729q0 170 45 305q45 133 133 238q84 100 215 155q129 55 293 56q113 0 219 -27q109 -27 209 -76l-100 -252q-88 43 -164 68q-86 29 -164 29q-88 0 -157.5 -35t-115.5 -98q-43 -61 -69 -158q-25 -92 -25 -207q0 -121 21 -209q20 -86 67 -153q43 -61 113 -95 q68 -33 166 -32q94 0 178 20q102 25 195 57v-260q-33 -14 -95 -35q-31 -10 -96 -22t-100 -14q-70 -4 -111 -4q-170 0 -293 55q-129 57 -204 151q-82 100 -121 235.5t-39 307.5zM362 1880v27h203q37 -25 102 -78q47 -39 107 -98q55 57 106 98q68 53 107 78h203v-27l-58 -67 l-65 -78l-62 -80l-51 -76h-356q-35 53 -52 76q-6 8 -63 80l-64 78q-30 38 -57 67z" />
<glyph unicode="&#x10d;" horiz-adv-x="1021" d="M102 553q0 164 37 278q37 113 107 183q70 68 164 96q98 29 215 29q90 0 172 -20.5t159 -59.5l-88 -232q-70 31 -127 47q-61 18 -116 19q-113 0 -160 -84q-51 -90 -51 -254t51 -248q49 -80 156 -80q84 0 157 23q59 18 146 57v-254q-4 -2 -72 -33q-25 -12 -70 -22 q-49 -12 -75 -14q-53 -4 -82 -4q-125 0 -217 32q-100 35 -164 103q-68 71 -105 178q-37 108 -37 260zM184 1542v27h203q37 -25 102 -78q47 -39 107 -98q55 57 106 98q68 53 107 78h203v-27l-58 -67l-65 -78l-62 -80l-51 -76h-356q-35 53 -52 76q-6 8 -63 80l-64 78 q-30 38 -57 67z" />
<glyph unicode="&#x10e;" horiz-adv-x="1433" d="M184 0v1462h428q160 0 291 -47q129 -46 221 -135q92 -88 142 -225q49 -135 49 -310q0 -182 -51 -325q-49 -139 -146 -232q-100 -96 -233 -141q-141 -47 -316 -47h-385zM494 256h114q197 0 295 121q98 119 98 360q0 123 -24 211q-23 84 -72 146q-45 57 -114.5 85.5 t-153.5 28.5h-143v-952zM260 1880v27h203q37 -25 102 -78q47 -39 107 -98q55 57 106 98q68 53 107 78h203v-27l-58 -67l-65 -78l-62 -80l-51 -76h-356q-35 53 -52 76q-6 8 -63 80l-64 78q-30 38 -57 67z" />
<glyph unicode="&#x10f;" horiz-adv-x="1243" d="M102 557q0 141 29 252q29 109 80 182.5t127 110.5q74 37 160 37q55 0 100 -13q37 -10 80 -34q41 -25 65 -52q25 -29 50 -65h10q-2 12 -5 38.5t-5 41.5q-4 25 -9 71q-4 53 -4 72v358h305v-1556h-233l-59 145h-13q-25 -37 -49 -65q-29 -33 -61 -51q-41 -23 -80 -35 q-49 -14 -101 -14q-88 0 -157 36q-68 35 -121 111q-53 74 -80 180q-29 111 -29 250zM412 553q0 -166 45 -248t143 -82q55 0 92 18.5t62 55.5q20 31 34 94q12 55 13 131v33q0 72 -10 143q-8 57 -33 107q-20 41 -61.5 63.5t-98.5 22.5q-95 0 -141 -86q-45 -84 -45 -252z M1177 1229v26q12 41 19 68q4 12 8 39t8 41q12 53 16 80q8 55 11 73h282v-20q-20 -45 -71 -147q-33 -66 -95 -160h-178z" />
<glyph unicode="&#x110;" horiz-adv-x="1433" d="M47 596v254h137v612h428q160 0 291 -47q129 -46 221 -135q92 -88 142 -225q49 -135 49 -310q0 -182 -51 -325q-49 -139 -146 -232q-100 -96 -233 -141q-141 -47 -316 -47h-385v596h-137zM494 256h114q197 0 295 121q98 119 98 360q0 123 -24 211q-23 84 -72 146 q-45 57 -114.5 85.5t-153.5 28.5h-143v-358h237v-254h-237v-340z" />
<glyph unicode="&#x111;" horiz-adv-x="1243" d="M102 526q0 131 29 240q27 100 80 172q51 70 127 104.5t160 34.5q55 0 100 -12q37 -10 80 -35q41 -25 65 -51q25 -29 50 -66h10q-2 12 -5 39t-5 41q-4 23 -8.5 76t-4.5 76v51h-315v199h315v161h305v-161h156v-199h-156v-1196h-233l-59 145h-13q-25 -37 -49 -65 q-29 -33 -61 -51q-41 -23 -80 -35q-49 -14 -101 -14q-84 0 -157 34q-63 31 -121 105q-51 66 -80 172q-29 104 -29 235zM434 522q0 -150 43 -223q45 -76 135 -76q55 0 88 17q37 18 58 51q22 34 30 86q12 70 13 119v28q0 66 -10 131q-8 53 -31 95q-20 37 -58 59q-35 20 -92 20 q-90 0 -133 -80t-43 -227z" />
<glyph unicode="&#x112;" horiz-adv-x="1146" d="M184 0v1462h842v-254h-532v-321h495v-254h-495v-377h532v-256h-842zM297 1579v211h617v-211h-617z" />
<glyph unicode="&#x113;" horiz-adv-x="1189" d="M102 551q0 147 37 258t102.5 182.5t161.5 110.5q92 37 207 37t201 -33q90 -35 152 -98q63 -66 96 -160q33 -92 33 -217v-148h-682q4 -68 20 -116q16 -45 53 -86q34 -37 80 -56q47 -18 109 -18q49 0 96 6q57 8 88 16q57 16 86 26.5t86 39.5v-236q-40 -22 -80 -36 q-29 -10 -86 -23q-76 -14 -96 -16q-70 -4 -115 -4q-117 0 -221 34q-96 33 -174 107q-72 70 -113 178q-41 111 -41 252zM416 686h389q0 51 -12.5 94t-36.5 74q-27 33 -60 49q-37 18 -84 19q-84 0 -135 -58q-53 -59 -61 -178zM301 1241v211h617v-211h-617z" />
<glyph unicode="&#x114;" horiz-adv-x="1146" d="M184 0v1462h842v-254h-532v-321h495v-254h-495v-377h532v-256h-842zM245 1917h170q3 -43 19 -68q18 -31 37 -38q23 -10 57 -15q45 -4 78 -4q25 0 69 4q25 2 58 19q23 10 43 39q16 23 20 63h174q-6 -76 -30 -137q-25 -63 -72 -107q-49 -45 -113 -69q-66 -25 -151 -25 q-89 0 -154 25q-70 27 -110.5 67.5t-67.5 106.5q-23 59 -27 139z" />
<glyph unicode="&#x115;" horiz-adv-x="1189" d="M102 551q0 147 37 258t102.5 182.5t161.5 110.5q92 37 207 37t201 -33q90 -35 152 -98q63 -66 96 -160q33 -92 33 -217v-148h-682q4 -68 20 -116q16 -45 53 -86q34 -37 80 -56q47 -18 109 -18q49 0 96 6q57 8 88 16q57 16 86 26.5t86 39.5v-236q-40 -22 -80 -36 q-29 -10 -86 -23q-76 -14 -96 -16q-70 -4 -115 -4q-117 0 -221 34q-96 33 -174 107q-72 70 -113 178q-41 111 -41 252zM416 686h389q0 51 -12.5 94t-36.5 74q-27 33 -60 49q-37 18 -84 19q-84 0 -135 -58q-53 -59 -61 -178zM235 1579h170q3 -43 19 -68q18 -31 37 -38 q23 -10 57 -15q45 -4 78 -4q25 0 69 4q25 2 58 19q23 10 43 39q16 23 20 63h174q-6 -76 -30 -137q-25 -63 -72 -107q-49 -45 -113 -69q-66 -25 -151 -25q-89 0 -154 25q-70 27 -110.5 67.5t-67.5 106.5q-23 59 -27 139z" />
<glyph unicode="&#x116;" horiz-adv-x="1146" d="M184 0v1462h842v-254h-532v-321h495v-254h-495v-377h532v-256h-842zM436 1716q0 43 13 72q10 25 35 45q20 18 53 24q41 8 65 8q23 0 64 -8q33 -6 53 -24q25 -20 35 -45q14 -33 14 -72t-14 -72q-10 -25 -34.5 -45t-53.5 -26q-31 -6 -64 -7q-35 0 -65 7q-29 6 -53.5 26.5 t-34.5 44.5q-13 29 -13 72z" />
<glyph unicode="&#x117;" horiz-adv-x="1189" d="M102 551q0 147 37 258t102.5 182.5t161.5 110.5q92 37 207 37t201 -33q90 -35 152 -98q63 -66 96 -160q33 -92 33 -217v-148h-682q4 -68 20 -116q16 -45 53 -86q34 -37 80 -56q47 -18 109 -18q49 0 96 6q57 8 88 16q57 16 86 26.5t86 39.5v-236q-40 -22 -80 -36 q-29 -10 -86 -23q-76 -14 -96 -16q-70 -4 -115 -4q-117 0 -221 34q-96 33 -174 107q-72 70 -113 178q-41 111 -41 252zM416 686h389q0 51 -12.5 94t-36.5 74q-27 33 -60 49q-37 18 -84 19q-84 0 -135 -58q-53 -59 -61 -178zM436 1407q0 43 13 72q10 25 35 45q20 18 53 24 q41 8 65 8q23 0 64 -8q33 -6 53 -24q25 -20 35 -45q14 -33 14 -72t-14 -72q-10 -25 -34.5 -45t-53.5 -26q-31 -6 -64 -7q-35 0 -65 7q-29 6 -53.5 26.5t-34.5 44.5q-13 29 -13 72z" />
<glyph unicode="&#x118;" horiz-adv-x="1146" d="M184 0v1462h842v-254h-532v-321h495v-254h-495v-377h532v-256h-842zM555 -262q0 45 15 80q16 39 38 67q29 37 58 60q45 37 69 55h179q-63 -57 -109 -121q-39 -53 -39 -106q0 -39 23 -62q20 -20 57 -20q33 0 64 6q27 6 51 12v-178q-35 -10 -70 -16q-37 -6 -86 -7 q-63 0 -104 17q-47 18 -78 47q-33 29 -51 74q-17 39 -17 92z" />
<glyph unicode="&#x119;" horiz-adv-x="1189" d="M102 551q0 147 37 258t102.5 182.5t161.5 110.5q92 37 207 37t201 -33q90 -35 152 -98q63 -66 96 -160q33 -92 33 -217v-148h-682q4 -68 20 -116q16 -45 53 -86q34 -37 80 -56q47 -18 109 -18q49 0 96 6q57 8 88 16q57 16 86 26.5t86 39.5v-236q-40 -22 -80 -36 q-29 -10 -86 -23q-76 -14 -96 -16q-70 -4 -115 -4q-117 0 -221 34q-96 33 -174 107q-72 70 -113 178q-41 111 -41 252zM416 686h389q0 51 -12.5 94t-36.5 74q-27 33 -60 49q-37 18 -84 19q-84 0 -135 -58q-53 -59 -61 -178zM579 -242q0 45 15 80q16 39 38 67q29 37 58 60 q45 37 69 55h179q-63 -57 -109 -121q-39 -53 -39 -106q0 -39 23 -62q20 -20 57 -20q33 0 64 6q27 6 51 12v-178q-35 -10 -70 -16q-37 -6 -86 -7q-63 0 -104 17q-47 18 -78 47q-33 29 -51 74q-17 39 -17 92z" />
<glyph unicode="&#x11a;" horiz-adv-x="1146" d="M184 0v1462h842v-254h-532v-321h495v-254h-495v-377h532v-256h-842zM182 1880v27h203q37 -25 102 -78q47 -39 107 -98q55 57 106 98q68 53 107 78h203v-27l-58 -67l-65 -78l-62 -80l-51 -76h-356q-35 53 -52 76q-6 8 -63 80l-64 78q-30 38 -57 67z" />
<glyph unicode="&#x11b;" horiz-adv-x="1189" d="M102 551q0 147 37 258t102.5 182.5t161.5 110.5q92 37 207 37t201 -33q90 -35 152 -98q63 -66 96 -160q33 -92 33 -217v-148h-682q4 -68 20 -116q16 -45 53 -86q34 -37 80 -56q47 -18 109 -18q49 0 96 6q57 8 88 16q57 16 86 26.5t86 39.5v-236q-40 -22 -80 -36 q-29 -10 -86 -23q-76 -14 -96 -16q-70 -4 -115 -4q-117 0 -221 34q-96 33 -174 107q-72 70 -113 178q-41 111 -41 252zM416 686h389q0 51 -12.5 94t-36.5 74q-27 33 -60 49q-37 18 -84 19q-84 0 -135 -58q-53 -59 -61 -178zM201 1542v27h203q37 -25 102 -78q47 -39 107 -98 q55 57 106 98q68 53 107 78h203v-27l-58 -67l-65 -78l-62 -80l-51 -76h-356q-35 53 -52 76q-6 8 -63 80l-64 78q-30 38 -57 67z" />
<glyph unicode="&#x11c;" horiz-adv-x="1482" d="M119 733q0 168 51 311q49 137 147 236q96 96 239.5 149.5t326.5 53.5q119 0 229.5 -24.5t204.5 -65.5l-103 -248q-76 39 -153 57q-90 23 -180 23q-104 0 -183 -35q-84 -37 -141 -100q-55 -61 -88 -158q-31 -92 -31 -205t21 -197q23 -92 67.5 -155.5t118.5 -100t174 -36.5 q65 0 111 6q57 8 86 14v305h-277v258h580v-758q-78 -25 -117 -34q-76 -20 -123 -27q-86 -12 -133 -16q-71 -6 -147 -6q-164 0 -291 49q-129 51 -213 143q-84 94 -131 236q-45 137 -45 325zM391 1579v27q27 29 57 67l64 78l63 82q25 33 52 74h356q27 -41 51 -74 q12 -14 21.5 -28.5t17.5 -24.5l23 -29l65 -78l58 -67v-27h-203q-39 25 -107 78q-51 41 -106 98q-59 -59 -107 -98q-66 -53 -102 -78h-203z" />
<glyph unicode="&#x11d;" horiz-adv-x="1128" d="M20 -182q0 63 21 106q20 45 55 76q33 29 80 53q27 12 92 31q-16 6 -41 25q-22 15 -37 36q-23 33 -28 48q-10 27 -10 53q0 31 10 57q12 33 26 49q20 25 45 43q12 10 62 41q-86 35 -139 121q-51 82 -52 199q0 94 27 162q29 74 82 120q55 49 135 74q86 27 184 27q29 0 46 -2 l49 -7q8 -2 23.5 -5t21.5 -3q18 -2 33 -6h380v-166l-163 -51q18 -29 28 -70q8 -33 8 -79q0 -88 -26 -156q-29 -72 -80 -121q-49 -47 -133 -76q-82 -29 -187 -28q-33 0 -51 2q-27 2 -39 6q-23 -18 -32 -35q-10 -14 -11 -45q0 -20 13 -33q14 -14 34 -20q27 -8 50 -11 q18 -2 57 -2h174q80 0 145 -18q61 -18 109 -57q43 -37 67.5 -96.5t24.5 -139.5q0 -90 -39 -172q-37 -78 -112 -129q-82 -55 -189 -82q-115 -29 -258 -29q-117 0 -199 21q-80 20 -143 63q-57 39 -84 97q-29 61 -29 129zM285 -158q0 -23 10 -49q8 -20 34.5 -40.5t63.5 -28.5 q45 -10 96 -11q156 0 236 43q78 41 78 119q0 63 -49 84q-47 20 -152 21h-141q-27 0 -57.5 -6.5t-57.5 -22.5q-25 -15 -43 -43q-18 -27 -18 -66zM395 752q0 -94 33 -142q35 -49 104 -49q74 0 105 49t31 141.5t-31 143.5q-31 53 -105 53q-137 1 -137 -196zM119 1241v27 q27 29 57 67l64 78l63 82q25 33 52 74h356q27 -41 51 -74q12 -14 21.5 -28.5t17.5 -24.5l23 -29l65 -78l58 -67v-27h-203q-39 25 -107 78q-51 41 -106 98q-59 -59 -107 -98q-66 -53 -102 -78h-203z" />
<glyph unicode="&#x11e;" horiz-adv-x="1482" d="M119 733q0 168 51 311q49 137 147 236q96 96 239.5 149.5t326.5 53.5q119 0 229.5 -24.5t204.5 -65.5l-103 -248q-76 39 -153 57q-90 23 -180 23q-104 0 -183 -35q-84 -37 -141 -100q-55 -61 -88 -158q-31 -92 -31 -205t21 -197q23 -92 67.5 -155.5t118.5 -100t174 -36.5 q65 0 111 6q57 8 86 14v305h-277v258h580v-758q-78 -25 -117 -34q-76 -20 -123 -27q-86 -12 -133 -16q-71 -6 -147 -6q-164 0 -291 49q-129 51 -213 143q-84 94 -131 236q-45 137 -45 325zM428 1917h170q3 -43 19 -68q18 -31 37 -38q23 -10 57 -15q45 -4 78 -4q25 0 69 4 q25 2 58 19q23 10 43 39q16 23 20 63h174q-6 -76 -30 -137q-25 -63 -72 -107q-49 -45 -113 -69q-66 -25 -151 -25q-89 0 -154 25q-70 27 -110.5 67.5t-67.5 106.5q-23 59 -27 139z" />
<glyph unicode="&#x11f;" horiz-adv-x="1128" d="M20 -182q0 63 21 106q20 45 55 76q33 29 80 53q27 12 92 31q-16 6 -41 25q-22 15 -37 36q-23 33 -28 48q-10 27 -10 53q0 31 10 57q12 33 26 49q20 25 45 43q12 10 62 41q-86 35 -139 121q-51 82 -52 199q0 94 27 162q29 74 82 120q55 49 135 74q86 27 184 27q29 0 46 -2 l49 -7q8 -2 23.5 -5t21.5 -3q18 -2 33 -6h380v-166l-163 -51q18 -29 28 -70q8 -33 8 -79q0 -88 -26 -156q-29 -72 -80 -121q-49 -47 -133 -76q-82 -29 -187 -28q-33 0 -51 2q-27 2 -39 6q-23 -18 -32 -35q-10 -14 -11 -45q0 -20 13 -33q14 -14 34 -20q27 -8 50 -11 q18 -2 57 -2h174q80 0 145 -18q61 -18 109 -57q43 -37 67.5 -96.5t24.5 -139.5q0 -90 -39 -172q-37 -78 -112 -129q-82 -55 -189 -82q-115 -29 -258 -29q-117 0 -199 21q-80 20 -143 63q-57 39 -84 97q-29 61 -29 129zM285 -158q0 -23 10 -49q8 -20 34.5 -40.5t63.5 -28.5 q45 -10 96 -11q156 0 236 43q78 41 78 119q0 63 -49 84q-47 20 -152 21h-141q-27 0 -57.5 -6.5t-57.5 -22.5q-25 -15 -43 -43q-18 -27 -18 -66zM395 752q0 -94 33 -142q35 -49 104 -49q74 0 105 49t31 141.5t-31 143.5q-31 53 -105 53q-137 1 -137 -196zM147 1579h170 q3 -43 19 -68q18 -31 37 -38q23 -10 57 -15q45 -4 78 -4q25 0 69 4q25 2 58 19q23 10 43 39q16 23 20 63h174q-6 -76 -30 -137q-25 -63 -72 -107q-49 -45 -113 -69q-66 -25 -151 -25q-89 0 -154 25q-70 27 -110.5 67.5t-67.5 106.5q-23 59 -27 139z" />
<glyph unicode="&#x120;" horiz-adv-x="1482" d="M119 733q0 168 51 311q49 137 147 236q96 96 239.5 149.5t326.5 53.5q119 0 229.5 -24.5t204.5 -65.5l-103 -248q-76 39 -153 57q-90 23 -180 23q-104 0 -183 -35q-84 -37 -141 -100q-55 -61 -88 -158q-31 -92 -31 -205t21 -197q23 -92 67.5 -155.5t118.5 -100t174 -36.5 q65 0 111 6q57 8 86 14v305h-277v258h580v-758q-78 -25 -117 -34q-76 -20 -123 -27q-86 -12 -133 -16q-71 -6 -147 -6q-164 0 -291 49q-129 51 -213 143q-84 94 -131 236q-45 137 -45 325zM643 1745q0 43 13 72q10 25 35 45q20 18 53 24q41 8 65 8q23 0 64 -8q33 -6 53 -24 q25 -20 35 -45q14 -33 14 -72t-14 -72q-10 -25 -34.5 -45t-53.5 -26q-31 -6 -64 -7q-35 0 -65 7q-29 6 -53.5 26.5t-34.5 44.5q-13 29 -13 72z" />
<glyph unicode="&#x121;" horiz-adv-x="1128" d="M20 -182q0 63 21 106q20 45 55 76q33 29 80 53q27 12 92 31q-16 6 -41 25q-22 15 -37 36q-23 33 -28 48q-10 27 -10 53q0 31 10 57q12 33 26 49q20 25 45 43q12 10 62 41q-86 35 -139 121q-51 82 -52 199q0 94 27 162q29 74 82 120q55 49 135 74q86 27 184 27q29 0 46 -2 l49 -7q8 -2 23.5 -5t21.5 -3q18 -2 33 -6h380v-166l-163 -51q18 -29 28 -70q8 -33 8 -79q0 -88 -26 -156q-29 -72 -80 -121q-49 -47 -133 -76q-82 -29 -187 -28q-33 0 -51 2q-27 2 -39 6q-23 -18 -32 -35q-10 -14 -11 -45q0 -20 13 -33q14 -14 34 -20q27 -8 50 -11 q18 -2 57 -2h174q80 0 145 -18q61 -18 109 -57q43 -37 67.5 -96.5t24.5 -139.5q0 -90 -39 -172q-37 -78 -112 -129q-82 -55 -189 -82q-115 -29 -258 -29q-117 0 -199 21q-80 20 -143 63q-57 39 -84 97q-29 61 -29 129zM285 -158q0 -23 10 -49q8 -20 34.5 -40.5t63.5 -28.5 q45 -10 96 -11q156 0 236 43q78 41 78 119q0 63 -49 84q-47 20 -152 21h-141q-27 0 -57.5 -6.5t-57.5 -22.5q-25 -15 -43 -43q-18 -27 -18 -66zM395 752q0 -94 33 -142q35 -49 104 -49q74 0 105 49t31 141.5t-31 143.5q-31 53 -105 53q-137 1 -137 -196zM370 1407 q0 43 13 72q10 25 35 45q20 18 53 24q41 8 65 8q23 0 64 -8q33 -6 53 -24q25 -20 35 -45q14 -33 14 -72t-14 -72q-10 -25 -34.5 -45t-53.5 -26q-31 -6 -64 -7q-35 0 -65 7q-29 6 -53.5 26.5t-34.5 44.5q-13 29 -13 72z" />
<glyph unicode="&#x122;" horiz-adv-x="1482" d="M119 733q0 168 51 311q49 137 147 236q96 96 239.5 149.5t326.5 53.5q119 0 229.5 -24.5t204.5 -65.5l-103 -248q-76 39 -153 57q-90 23 -180 23q-104 0 -183 -35q-84 -37 -141 -100q-55 -61 -88 -158q-31 -92 -31 -205t21 -197q23 -92 67.5 -155.5t118.5 -100t174 -36.5 q65 0 111 6q57 8 86 14v305h-277v258h580v-758q-78 -25 -117 -34q-76 -20 -123 -27q-86 -12 -133 -16q-71 -6 -147 -6q-164 0 -291 49q-129 51 -213 143q-84 94 -131 236q-45 137 -45 325zM629 -426q12 41 19 68q4 14 8 40.5t8 38.5q12 53 16 80q8 55 11 74h282v-20 q-20 -45 -71 -148q-25 -49 -95 -160h-178v27z" />
<glyph unicode="&#x123;" horiz-adv-x="1128" d="M20 -182q0 63 21 106q20 45 55 76q33 29 80 53q27 12 92 31q-16 6 -41 25q-22 15 -37 36q-23 33 -28 48q-10 27 -10 53q0 31 10 57q12 33 26 49q20 25 45 43q12 10 62 41q-86 35 -139 121q-51 82 -52 199q0 94 27 162q29 74 82 120q55 49 135 74q86 27 184 27q29 0 46 -2 l49 -7q8 -2 23.5 -5t21.5 -3q18 -2 33 -6h380v-166l-163 -51q18 -29 28 -70q8 -33 8 -79q0 -88 -26 -156q-29 -72 -80 -121q-49 -47 -133 -76q-82 -29 -187 -28q-33 0 -51 2q-27 2 -39 6q-23 -18 -32 -35q-10 -14 -11 -45q0 -20 13 -33q14 -14 34 -20q27 -8 50 -11 q18 -2 57 -2h174q80 0 145 -18q61 -18 109 -57q43 -37 67.5 -96.5t24.5 -139.5q0 -90 -39 -172q-37 -78 -112 -129q-82 -55 -189 -82q-115 -29 -258 -29q-117 0 -199 21q-80 20 -143 63q-57 39 -84 97q-29 61 -29 129zM285 -158q0 -23 10 -49q8 -20 34.5 -40.5t63.5 -28.5 q45 -10 96 -11q156 0 236 43q78 41 78 119q0 63 -49 84q-47 20 -152 21h-141q-27 0 -57.5 -6.5t-57.5 -22.5q-25 -15 -43 -43q-18 -27 -18 -66zM395 752q0 -94 33 -142q35 -49 104 -49q74 0 105 49t31 141.5t-31 143.5q-31 53 -105 53q-137 1 -137 -196zM389 1241v21 q20 45 72 147q25 49 94 160h178v-27l-19 -69q-4 -14 -8 -39t-8 -39q-12 -53 -16 -80q-8 -55 -11 -74h-282z" />
<glyph unicode="&#x124;" horiz-adv-x="1484" d="M184 0v1462h310v-573h497v573h309v-1462h-309v631h-497v-631h-310zM321 1579v27q27 29 57 67l64 78l63 82q25 33 52 74h356q27 -41 51 -74q12 -14 21.5 -28.5t17.5 -24.5l23 -29l65 -78l58 -67v-27h-203q-39 25 -107 78q-51 41 -106 98q-59 -59 -107 -98 q-66 -53 -102 -78h-203z" />
<glyph unicode="&#x125;" horiz-adv-x="1282" d="M160 0v1556h305v-317q0 -57 -2 -88q0 -14 -1 -43t-3 -43q-2 -16 -5 -46t-3 -44h16q49 86 125 125t172 39q90 0 151 -23q63 -23 115 -74q49 -49 74 -127q27 -84 26 -186v-729h-305v653q0 119 -36.5 180.5t-116.5 61.5q-58 0 -99 -25q-39 -25 -63 -69q-25 -47 -35 -117 q-10 -76 -10 -158v-526h-305zM250 1634v27q27 29 57 67l64 78l63 82q25 33 52 74h356q27 -41 51 -74q12 -14 21.5 -28.5t17.5 -24.5l23 -29l65 -78l58 -67v-27h-203q-39 25 -107 78q-51 41 -106 98q-59 -59 -107 -98q-66 -53 -102 -78h-203z" />
<glyph unicode="&#x126;" horiz-adv-x="1484" d="M0 1069v199h184v194h310v-194h497v194h309v-194h185v-199h-185v-1069h-309v631h-497v-631h-310v1069h-184zM494 889h497v180h-497v-180z" />
<glyph unicode="&#x127;" horiz-adv-x="1282" d="M4 1196v199h156v161h305v-161h315v-199h-315v-18q0 -57 -2 -88q0 -14 -1 -43t-3 -43l-8 -91h16q49 86 125 125t172 39q84 0 151.5 -24.5t114.5 -71.5t74 -129q27 -84 26 -184v-668h-305v592q0 121 -37 182q-35 59 -116 60q-58 0 -99 -25q-37 -23 -63.5 -72t-34.5 -114 q-10 -76 -10 -158v-465h-305v1196h-156z" />
<glyph unicode="&#x128;" horiz-adv-x="796" d="M66 0v176l178 82v946l-178 82v176h665v-176l-178 -82v-946l178 -82v-176h-665zM4 1577q6 82 26 137q23 63 53 97q37 41 76 57q43 18 97 18q37 0 79 -16l78 -35q10 -4 36 -17.5t40 -19.5q39 -16 74 -16q29 0 49 26q18 25 31 80h149q-6 -82 -27 -137q-23 -59 -53 -96 q-33 -39 -76 -57.5t-96 -18.5q-37 0 -80 16q-18 6 -78 37q-39 20 -75 35q-39 16 -74 17q-31 0 -49 -27q-20 -29 -31 -80h-149z" />
<glyph unicode="&#x129;" horiz-adv-x="624" d="M160 0v1118h305v-1118h-305zM-84 1239q6 82 26 137q23 63 53 97q37 41 76 57q43 18 97 18q37 0 79 -16l78 -35q10 -4 36 -17.5t40 -19.5q39 -16 74 -16q29 0 49 26q18 25 31 80h149q-6 -82 -27 -137q-23 -59 -53 -96q-33 -39 -76 -57.5t-96 -18.5q-37 0 -80 16 q-18 6 -78 37q-39 20 -75 35q-39 16 -74 17q-31 0 -49 -27q-20 -29 -31 -80h-149z" />
<glyph unicode="&#x12a;" horiz-adv-x="796" d="M66 0v176l178 82v946l-178 82v176h665v-176l-178 -82v-946l178 -82v-176h-665zM92 1579v211h617v-211h-617z" />
<glyph unicode="&#x12b;" horiz-adv-x="624" d="M160 0v1118h305v-1118h-305zM6 1241v211h617v-211h-617z" />
<glyph unicode="&#x12c;" horiz-adv-x="796" d="M66 0v176l178 82v946l-178 82v176h665v-176l-178 -82v-946l178 -82v-176h-665zM32 1917h170q3 -43 19 -68q18 -31 37 -38q23 -10 57 -15q45 -4 78 -4q25 0 69 4q25 2 58 19q23 10 43 39q16 23 20 63h174q-6 -76 -30 -137q-25 -63 -72 -107q-49 -45 -113 -69 q-66 -25 -151 -25q-89 0 -154 25q-70 27 -110.5 67.5t-67.5 106.5q-23 59 -27 139z" />
<glyph unicode="&#x12d;" horiz-adv-x="624" d="M160 0v1118h305v-1118h-305zM-52 1579h170q3 -43 19 -68q18 -31 37 -38q23 -10 57 -15q45 -4 78 -4q25 0 69 4q25 2 58 19q23 10 43 39q16 23 20 63h174q-6 -76 -30 -137q-25 -63 -72 -107q-49 -45 -113 -69q-66 -25 -151 -25q-89 0 -154 25q-70 27 -110.5 67.5 t-67.5 106.5q-23 59 -27 139z" />
<glyph unicode="&#x12e;" horiz-adv-x="796" d="M66 0v176l178 82v946l-178 82v176h665v-176l-178 -82v-946l178 -82v-176h-665zM190 -262q0 45 15 80q16 39 38 67q29 37 58 60q45 37 69 55h179q-63 -57 -109 -121q-39 -53 -39 -106q0 -39 23 -62q20 -20 57 -20q33 0 64 6q27 6 51 12v-178q-35 -10 -70 -16 q-37 -6 -86 -7q-63 0 -104 17q-47 18 -78 47q-33 29 -51 74q-17 39 -17 92z" />
<glyph unicode="&#x12f;" horiz-adv-x="624" d="M147 1407q0 43 13 72q10 25 35 45q20 18 53 24q41 8 65 8q23 0 64 -8q33 -6 53 -24q25 -20 35 -45q14 -33 14 -72t-14 -72q-10 -25 -34.5 -45t-53.5 -26q-31 -6 -64 -7q-35 0 -65 7q-29 6 -53.5 26.5t-34.5 44.5q-13 29 -13 72zM160 0v1118h305v-1118h-305zM106 -262 q0 45 15 80q16 39 38 67q29 37 58 60q45 37 69 55h179q-63 -57 -109 -121q-39 -53 -39 -106q0 -39 23 -62q20 -20 57 -20q33 0 64 6q27 6 51 12v-178q-35 -10 -70 -16q-37 -6 -86 -7q-63 0 -104 17q-47 18 -78 47q-33 29 -51 74q-17 39 -17 92z" />
<glyph unicode="&#x130;" horiz-adv-x="796" d="M66 0v176l178 82v946l-178 82v176h665v-176l-178 -82v-946l178 -82v-176h-665zM227 1745q0 43 13 72q10 25 35 45q20 18 53 24q41 8 65 8q23 0 64 -8q33 -6 53 -24q25 -20 35 -45q14 -33 14 -72t-14 -72q-10 -25 -34.5 -45t-53.5 -26q-31 -6 -64 -7q-35 0 -65 7 q-29 6 -53.5 26.5t-34.5 44.5q-13 29 -13 72z" />
<glyph unicode="&#x131;" horiz-adv-x="624" d="M160 0v1118h305v-1118h-305z" />
<glyph unicode="&#x132;" horiz-adv-x="1474" d="M66 0v176l178 82v946l-178 82v176h665v-176l-178 -82v-946l178 -82v-176h-665zM598 -150q25 -6 78 -14q39 -6 88 -6q41 0 86 10q35 8 68 35q31 25 47 66q16 43 16 102v1419h310v-1409q0 -125 -37 -217q-39 -94 -101 -151q-63 -57 -157 -86q-96 -29 -201 -29q-66 0 -115 6 q-41 4 -82 16v258z" />
<glyph unicode="&#x133;" horiz-adv-x="1208" d="M147 1407q0 43 13 72q10 25 35 45q20 18 53 24q41 8 65 8q23 0 64 -8q33 -6 53 -24q25 -20 35 -45q14 -33 14 -72t-14 -72q-10 -25 -34.5 -45t-53.5 -26q-31 -6 -64 -7q-35 0 -65 7q-29 6 -53.5 26.5t-34.5 44.5q-13 29 -13 72zM160 0v1118h305v-1118h-305zM504 -227 q43 -12 57 -15q37 -4 62 -4q18 0 47 8q23 6 39 27q18 23 27 51q10 37 10 84v1194h305v-1239q0 -78 -19 -145q-18 -63 -63 -116.5t-113 -80.5q-70 -29 -168 -29q-49 0 -100 7q-49 6 -84 18v240zM733 1407q0 43 13 72q10 25 35 45q20 18 53 24q41 8 65 8q23 0 64 -8 q33 -6 53 -24q25 -20 35 -45q14 -33 14 -72t-14 -72q-10 -25 -34.5 -45t-53.5 -26q-31 -6 -64 -7q-35 0 -65 7q-29 6 -53.5 26.5t-34.5 44.5q-13 29 -13 72z" />
<glyph unicode="&#x134;" horiz-adv-x="677" d="M-199 -150q25 -6 78 -14q39 -6 88 -6q41 0 86 10q35 8 68 35q31 25 47 66q16 43 16 102v1419h310v-1409q0 -125 -37 -217q-39 -94 -101 -151q-63 -57 -157 -86q-96 -29 -201 -29q-66 0 -115 6q-41 4 -82 16v258zM-80 1579v27q27 29 57 67l64 78l63 82q25 33 52 74h356 q27 -41 51 -74q12 -14 21.5 -28.5t17.5 -24.5l23 -29l65 -78l58 -67v-27h-203q-39 25 -107 78q-51 41 -106 98q-59 -59 -107 -98q-66 -53 -102 -78h-203z" />
<glyph unicode="&#x135;" horiz-adv-x="624" d="M-82 -227q43 -12 57 -15q37 -4 62 -4q18 0 47 8q23 6 39 27q18 23 27 51q10 37 10 84v1194h305v-1239q0 -78 -19 -145q-18 -63 -63 -116.5t-113 -80.5q-70 -29 -168 -29q-49 0 -100 7q-49 6 -84 18v240zM-105 1241v27q27 29 57 67l64 78l63 82q25 33 52 74h356 q27 -41 51 -74q12 -14 21.5 -28.5t17.5 -24.5l23 -29l65 -78l58 -67v-27h-203q-39 25 -107 78q-51 41 -106 98q-59 -59 -107 -98q-66 -53 -102 -78h-203z" />
<glyph unicode="&#x136;" horiz-adv-x="1296" d="M184 0v1462h310v-704l122 207l334 497h344l-467 -659l471 -803h-352l-336 608l-116 -86v-522h-310zM442 -426q12 41 19 68q4 14 8 40.5t8 38.5q12 53 16 80q8 55 11 74h282v-20q-20 -45 -71 -148q-25 -49 -95 -160h-178v27z" />
<glyph unicode="&#x137;" horiz-adv-x="1206" d="M160 0v1556h305v-694l-16 -254h4l112 170l273 340h344l-404 -485l430 -633h-352l-272 430l-119 -82v-348h-305zM446 -426q12 41 19 68q4 14 8 40.5t8 38.5q12 53 16 80q8 55 11 74h282v-20q-20 -45 -71 -148q-25 -49 -95 -160h-178v27z" />
<glyph unicode="&#x138;" horiz-adv-x="1206" d="M160 0v1118h305v-293q0 -55 -2 -85.5t-6 -84.5l-8 -90h4l127 195l276 358h326l-404 -497l430 -621h-344l-280 418l-119 -82v-336h-305z" />
<glyph unicode="&#x139;" horiz-adv-x="1095" d="M184 0v1462h310v-1206h532v-256h-842zM266 1579v27l45 67q33 53 47 78q8 12 45 82q22 40 37 74h342v-21q-16 -23 -33 -43q-43 -49 -47 -53q-27 -29 -57 -57l-64 -58l-59 -53q-16 -14 -31.5 -25.5t-21.5 -17.5h-203z" />
<glyph unicode="&#x13a;" horiz-adv-x="624" d="M160 0v1556h305v-1556h-305zM178 1636v27l45 67q33 53 47 78q8 12 45 82q22 40 37 74h342v-21q-16 -23 -33 -43q-43 -49 -47 -53q-27 -29 -57 -57l-64 -58l-59 -53q-16 -14 -31.5 -25.5t-21.5 -17.5h-203z" />
<glyph unicode="&#x13b;" horiz-adv-x="1095" d="M184 0v1462h310v-1206h532v-256h-842zM395 -426q12 41 19 68q4 14 8 40.5t8 38.5q12 53 16 80q8 55 11 74h282v-20q-20 -45 -71 -148q-25 -49 -95 -160h-178v27z" />
<glyph unicode="&#x13c;" horiz-adv-x="624" d="M160 0v1556h305v-1556h-305zM121 -426q12 41 19 68q4 14 8 40.5t8 38.5q12 53 16 80q8 55 11 74h282v-20q-20 -45 -71 -148q-25 -49 -95 -160h-178v27z" />
<glyph unicode="&#x13d;" horiz-adv-x="1095" d="M184 0v1462h310v-1206h532v-256h-842zM653 1137v26q12 41 19 68q4 12 8 39t8 41q12 53 16 80q8 55 11 73h282v-20q-20 -45 -71 -147q-33 -66 -95 -160h-178z" />
<glyph unicode="&#x13e;" horiz-adv-x="624" d="M160 0v1556h305v-1556h-305zM557 1229v26q12 41 19 68q4 12 8 39t8 41q12 53 16 80q8 55 11 73h282v-20q-20 -45 -71 -147q-33 -66 -95 -160h-178z" />
<glyph unicode="&#x13f;" horiz-adv-x="1095" d="M184 0v1462h310v-1206h532v-256h-842zM665 752q0 43 13 72q10 25 35 45q20 18 53 24q41 8 65 8q23 0 64 -8q33 -6 53 -24q25 -20 35 -45q14 -33 14 -72t-14 -72q-10 -25 -34.5 -45t-53.5 -26q-31 -6 -64 -7q-35 0 -65 7q-29 6 -53.5 26.5t-34.5 44.5q-13 29 -13 72z" />
<glyph unicode="&#x140;" horiz-adv-x="888" d="M160 0v1556h305v-1556h-305zM581 694q0 43 13 72q10 25 35 45q20 18 53 24q41 8 65 8q23 0 64 -8q33 -6 53 -24q25 -20 35 -45q14 -33 14 -72t-14 -72q-10 -25 -34.5 -45t-53.5 -26q-31 -6 -64 -7q-35 0 -65 7q-29 6 -53.5 26.5t-34.5 44.5q-13 29 -13 72z" />
<glyph unicode="&#x141;" horiz-adv-x="1095" d="M2 647l182 111v704h310v-516l143 88l117 -196l-260 -158v-424h532v-256h-842v492l-69 -41z" />
<glyph unicode="&#x142;" horiz-adv-x="675" d="M0 631l184 112v813h305v-626l70 43l117 -197l-187 -112v-664h-305v477l-71 -43z" />
<glyph unicode="&#x143;" horiz-adv-x="1603" d="M184 0v1462h391l574 -1095h6l-6 149q0 10 -2 31.5t-2 34t-1 35t-1 32.5q0 12 -1 34t-1 32v55v692h278v-1462h-393l-575 1106h-9q8 -102 11 -154l6 -135q2 -47 2 -129v-688h-277zM615 1579v27l45 67q33 53 47 78q8 12 45 82q22 40 37 74h342v-21q-16 -23 -33 -43 q-43 -49 -47 -53q-27 -29 -57 -57l-64 -58l-59 -53q-16 -14 -31.5 -25.5t-21.5 -17.5h-203z" />
<glyph unicode="&#x144;" horiz-adv-x="1282" d="M160 0v1118h233l41 -143h17q23 41 59 74q29 25 76 51q40 22 86 30q41 8 94 9q88 0 149 -23q63 -23 115 -74q49 -49 74 -127q27 -84 26 -186v-729h-305v653q0 119 -36.5 180.5t-116.5 61.5q-61 0 -100.5 -24.5t-63.5 -69.5q-23 -43 -33 -117q-10 -76 -10 -158v-526h-305z M471 1241v27l45 67q33 53 47 78q8 12 45 82q22 40 37 74h342v-21q-16 -23 -33 -43q-43 -49 -47 -53q-27 -29 -57 -57l-64 -58l-59 -53q-16 -14 -31.5 -25.5t-21.5 -17.5h-203z" />
<glyph unicode="&#x145;" horiz-adv-x="1603" d="M184 0v1462h391l574 -1095h6l-6 149q0 10 -2 31.5t-2 34t-1 35t-1 32.5q0 12 -1 34t-1 32v55v692h278v-1462h-393l-575 1106h-9q8 -102 11 -154l6 -135q2 -47 2 -129v-688h-277zM567 -426q12 41 19 68q4 14 8 40.5t8 38.5q12 53 16 80q8 55 11 74h282v-20 q-20 -45 -71 -148q-25 -49 -95 -160h-178v27z" />
<glyph unicode="&#x146;" horiz-adv-x="1282" d="M160 0v1118h233l41 -143h17q23 41 59 74q29 25 76 51q40 22 86 30q41 8 94 9q88 0 149 -23q63 -23 115 -74q49 -49 74 -127q27 -84 26 -186v-729h-305v653q0 119 -36.5 180.5t-116.5 61.5q-61 0 -100.5 -24.5t-63.5 -69.5q-23 -43 -33 -117q-10 -76 -10 -158v-526h-305z M467 -426q12 41 19 68q4 14 8 40.5t8 38.5q12 53 16 80q8 55 11 74h282v-20q-20 -45 -71 -148q-25 -49 -95 -160h-178v27z" />
<glyph unicode="&#x147;" horiz-adv-x="1603" d="M184 0v1462h391l574 -1095h6l-6 149q0 10 -2 31.5t-2 34t-1 35t-1 32.5q0 12 -1 34t-1 32v55v692h278v-1462h-393l-575 1106h-9q8 -102 11 -154l6 -135q2 -47 2 -129v-688h-277zM373 1880v27h203q37 -25 102 -78q47 -39 107 -98q55 57 106 98q68 53 107 78h203v-27 l-58 -67l-65 -78l-62 -80l-51 -76h-356q-35 53 -52 76q-6 8 -63 80l-64 78q-30 38 -57 67z" />
<glyph unicode="&#x148;" horiz-adv-x="1282" d="M160 0v1118h233l41 -143h17q23 41 59 74q29 25 76 51q40 22 86 30q41 8 94 9q88 0 149 -23q63 -23 115 -74q49 -49 74 -127q27 -84 26 -186v-729h-305v653q0 119 -36.5 180.5t-116.5 61.5q-61 0 -100.5 -24.5t-63.5 -69.5q-23 -43 -33 -117q-10 -76 -10 -158v-526h-305z M227 1542v27h203q37 -25 102 -78q47 -39 107 -98q55 57 106 98q68 53 107 78h203v-27l-58 -67l-65 -78l-62 -80l-51 -76h-356q-35 53 -52 76q-6 8 -63 80l-64 78q-30 38 -57 67z" />
<glyph unicode="&#x149;" horiz-adv-x="1533" d="M410 0v1118h233l41 -143h17q23 41 59 74q29 25 76 51q40 22 86 30q41 8 94 9q88 0 149 -23q63 -23 115 -74q49 -49 74 -127q27 -84 26 -186v-729h-305v653q0 119 -36.5 180.5t-116.5 61.5q-61 0 -100.5 -24.5t-63.5 -69.5q-23 -43 -33 -117q-10 -76 -10 -158v-526h-305z M23 961q10 39 28 126l29 132l24 129l10.5 62.5l8.5 51.5h280l15 -22l-33 -115q-18 -61 -43 -123l-49 -125q-6 -16 -51 -116h-219z" />
<glyph unicode="&#x14a;" horiz-adv-x="1566" d="M166 0v1462h391l573 -891h7l-7 152q0 10 -1 31.5t-1 33.5l-4 66q0 12 -1 33.5t-1 32.5v55v487h279v-1462q0 -106 -35 -193q-33 -82 -94 -133q-68 -57 -146 -80q-86 -25 -190 -24q-66 0 -115 6q-41 4 -82 16v258q25 -6 78 -14q39 -6 88 -6q47 0 82 8q45 10 72 29 q35 25 53 53q23 37 29 84l-709 1102h-8q4 -51 8 -154q0 -20 3 -65t5 -70q2 -47 2 -129v-688h-276z" />
<glyph unicode="&#x14b;" horiz-adv-x="1282" d="M160 0v1118h233l41 -143h17q23 41 59 74q29 25 76 51q40 22 86 30q41 8 94 9q88 0 149 -23q63 -23 115 -74q49 -49 74 -127q27 -84 26 -186v-850q0 -70 -20 -145q-18 -63 -63 -117q-47 -53 -111 -80q-70 -29 -168 -29q-47 0 -98 7q-52 6 -86 18v240q43 -12 57 -15 q37 -4 61 -4q18 0 48 8q16 4 38 27q18 18 27 51q10 37 10 84v752q0 111 -39 164q-41 55 -114 55q-61 0 -100.5 -24.5t-63.5 -69.5q-23 -43 -33 -117q-10 -76 -10 -158v-526h-305z" />
<glyph unicode="&#x14c;" horiz-adv-x="1546" d="M119 735q0 174 39 309.5t121 235.5q80 98 204.5 151.5t292.5 53.5q166 0 291 -53q121 -51 203 -151.5t121 -238.5q39 -135 39 -309q0 -172 -39 -307q-41 -141 -121 -240q-76 -94 -205 -151q-123 -55 -291 -55t-291 55q-129 57 -204 151q-80 98 -121 240q-39 135 -39 309z M438 733q0 -119 21 -207q23 -98 61 -155q43 -63 105 -97q66 -35 149 -34q86 0 151.5 34.5t104.5 96.5q41 68 60 155q20 102 20 207t-20 207q-18 88 -60 156q-41 66 -102 98q-63 33 -151.5 33t-151.5 -33q-59 -31 -105 -98q-39 -57 -61 -156q-21 -88 -21 -207zM465 1579v211 h617v-211h-617z" />
<glyph unicode="&#x14d;" horiz-adv-x="1226" d="M102 561q0 145 35 248q37 109 103 180q72 78 161 113q95 37 215 37q111 0 203 -37t162 -113q68 -74 104 -180q39 -113 39 -248q0 -139 -37 -248q-39 -117 -100 -182q-68 -74 -162 -113q-92 -39 -215 -38q-115 0 -204 38q-94 41 -160 113q-70 76 -107 182q-37 109 -37 248 zM414 561q0 -164 47 -252q45 -84 153 -84q106 0 152 84q47 88 47 252q0 166 -47 250q-45 82 -154 82q-106 0 -151 -82q-47 -84 -47 -250zM303 1241v211h617v-211h-617z" />
<glyph unicode="&#x14e;" horiz-adv-x="1546" d="M119 735q0 174 39 309.5t121 235.5q80 98 204.5 151.5t292.5 53.5q166 0 291 -53q121 -51 203 -151.5t121 -238.5q39 -135 39 -309q0 -172 -39 -307q-41 -141 -121 -240q-76 -94 -205 -151q-123 -55 -291 -55t-291 55q-129 57 -204 151q-80 98 -121 240q-39 135 -39 309z M438 733q0 -119 21 -207q23 -98 61 -155q43 -63 105 -97q66 -35 149 -34q86 0 151.5 34.5t104.5 96.5q41 68 60 155q20 102 20 207t-20 207q-18 88 -60 156q-41 66 -102 98q-63 33 -151.5 33t-151.5 -33q-59 -31 -105 -98q-39 -57 -61 -156q-21 -88 -21 -207zM409 1917h170 q3 -43 19 -68q18 -31 37 -38q23 -10 57 -15q45 -4 78 -4q25 0 69 4q25 2 58 19q23 10 43 39q16 23 20 63h174q-6 -76 -30 -137q-25 -63 -72 -107q-49 -45 -113 -69q-66 -25 -151 -25q-89 0 -154 25q-70 27 -110.5 67.5t-67.5 106.5q-23 59 -27 139z" />
<glyph unicode="&#x14f;" horiz-adv-x="1226" d="M102 561q0 145 35 248q37 109 103 180q72 78 161 113q95 37 215 37q111 0 203 -37t162 -113q68 -74 104 -180q39 -113 39 -248q0 -139 -37 -248q-39 -117 -100 -182q-68 -74 -162 -113q-92 -39 -215 -38q-115 0 -204 38q-94 41 -160 113q-70 76 -107 182q-37 109 -37 248 zM414 561q0 -164 47 -252q45 -84 153 -84q106 0 152 84q47 88 47 252q0 166 -47 250q-45 82 -154 82q-106 0 -151 -82q-47 -84 -47 -250zM247 1579h170q3 -43 19 -68q18 -31 37 -38q23 -10 57 -15q45 -4 78 -4q25 0 69 4q25 2 58 19q23 10 43 39q16 23 20 63h174 q-6 -76 -30 -137q-25 -63 -72 -107q-49 -45 -113 -69q-66 -25 -151 -25q-89 0 -154 25q-70 27 -110.5 67.5t-67.5 106.5q-23 59 -27 139z" />
<glyph unicode="&#x150;" horiz-adv-x="1546" d="M119 735q0 174 39 309.5t121 235.5q80 98 204.5 151.5t292.5 53.5q166 0 291 -53q121 -51 203 -151.5t121 -238.5q39 -135 39 -309q0 -172 -39 -307q-41 -141 -121 -240q-76 -94 -205 -151q-123 -55 -291 -55t-291 55q-129 57 -204 151q-80 98 -121 240q-39 135 -39 309z M438 733q0 -119 21 -207q23 -98 61 -155q43 -63 105 -97q66 -35 149 -34q86 0 151.5 34.5t104.5 96.5q41 68 60 155q20 102 20 207t-20 207q-18 88 -60 156q-41 66 -102 98q-63 33 -151.5 33t-151.5 -33q-59 -31 -105 -98q-39 -57 -61 -156q-21 -88 -21 -207zM457 1579v27 l45 67q33 53 47 78q8 12 45 82q22 40 37 74h301v-21q-16 -23 -33 -43q-43 -49 -47 -53l-59 -57l-62 -58q-8 -6 -61 -53l-52 -43h-161zM854 1579v27l45 67q33 53 47 78q8 12 45 82q22 40 37 74h301v-21q-16 -23 -33 -43q-43 -49 -47 -53q-27 -29 -57 -57l-64 -58l-59 -53 q-16 -14 -31.5 -25.5t-21.5 -17.5h-162z" />
<glyph unicode="&#x151;" horiz-adv-x="1226" d="M102 561q0 145 35 248q37 109 103 180q72 78 161 113q95 37 215 37q111 0 203 -37t162 -113q68 -74 104 -180q39 -113 39 -248q0 -139 -37 -248q-39 -117 -100 -182q-68 -74 -162 -113q-92 -39 -215 -38q-115 0 -204 38q-94 41 -160 113q-70 76 -107 182q-37 109 -37 248 zM414 561q0 -164 47 -252q45 -84 153 -84q106 0 152 84q47 88 47 252q0 166 -47 250q-45 82 -154 82q-106 0 -151 -82q-47 -84 -47 -250zM269 1241v27l45 67q33 53 47 78q8 12 45 82q22 40 37 74h301v-21q-16 -23 -33 -43q-43 -49 -47 -53l-59 -57l-62 -58q-8 -6 -61 -53 l-52 -43h-161zM666 1241v27l45 67q33 53 47 78q8 12 45 82q22 40 37 74h301v-21q-16 -23 -33 -43q-43 -49 -47 -53q-27 -29 -57 -57l-64 -58l-59 -53q-16 -14 -31.5 -25.5t-21.5 -17.5h-162z" />
<glyph unicode="&#x152;" horiz-adv-x="1929" d="M119 735q0 174 39 309.5t121 235.5q80 98 204.5 151.5t292.5 53.5q53 0 103 -6q61 -8 94 -17h837v-254h-532v-321h496v-254h-496v-377h532v-256h-841q-35 -6 -95 -14q-49 -6 -100 -6q-168 0 -291 55q-129 57 -204 151q-80 98 -121 240q-39 135 -39 309zM438 733 q0 -119 21 -207q23 -98 61 -155q43 -63 105 -97q66 -35 149 -34q53 0 109 10q45 8 86 29v907q-37 23 -84 31q-55 10 -109 10q-88 0 -151 -33q-59 -31 -105 -98q-39 -57 -61 -156q-21 -88 -21 -207z" />
<glyph unicode="&#x153;" horiz-adv-x="1900" d="M102 561q0 145 35 248q37 109 103 180q72 78 161 113q95 37 215 37q109 0 195 -39q89 -40 154 -117q61 74 157 117q86 39 199 39q115 0 201 -33q90 -35 151 -98q63 -66 96 -160q33 -92 33 -217v-148h-682v-8q6 -129 74 -198.5t188 -69.5q51 0 97 6q57 8 88 16 q57 16 85.5 26.5t86.5 39.5v-236q-40 -22 -80 -36q-29 -10 -86 -23q-76 -14 -96 -16q-70 -4 -115 -4q-113 0 -219 38q-101 37 -172 117q-63 -76 -158 -117q-90 -39 -203 -38q-115 0 -204 38q-94 41 -160 113q-70 76 -107 182q-37 109 -37 248zM414 561q0 -164 47 -252 q45 -84 153 -84q106 0 152 84q47 88 47 252q0 166 -47 250q-45 82 -154 82q-106 0 -151 -82q-47 -84 -47 -250zM1126 686h390q0 51 -12.5 94t-37.5 74q-27 33 -59 49q-37 18 -84 19q-45 0 -76 -15q-35 -16 -59.5 -42.5t-40.5 -73.5q-19 -50 -21 -105z" />
<glyph unicode="&#x154;" horiz-adv-x="1288" d="M184 0v1462h400q279 0 415 -108q133 -106 134 -330q0 -76 -21 -135q-25 -70 -53 -109q-37 -51 -76 -84q-37 -33 -92 -59l199 -318l73 -116l64 -103l47 -71l16 -29h-344l-317 561h-135v-561h-310zM494 813h84q133 0 186 51q55 53 55 152q0 106 -59 147q-63 45 -187 45h-79 v-395zM457 1579v27l45 67q33 53 47 78q8 12 45 82q22 40 37 74h342v-21q-16 -23 -33 -43q-43 -49 -47 -53q-27 -29 -57 -57l-64 -58l-59 -53q-16 -14 -31.5 -25.5t-21.5 -17.5h-203z" />
<glyph unicode="&#x155;" horiz-adv-x="888" d="M160 0v1118h231l45 -168h15q25 43 53 78q31 37 61 59q37 27 78 39q43 12 100 13h27q6 0 14.5 -1t12.5 -1t13 -2t13 -2q12 0 17 -3v-286q-4 2 -12 2q-7 2 -11 2q-20 4 -29 4q-6 0 -16 1t-14 1h-25q-63 0 -108 -14q-49 -15 -86 -49q-35 -31 -54 -89q-20 -61 -20 -133v-569 h-305zM338 1241v27l45 67q33 53 47 78q8 12 45 82q22 40 37 74h342v-21q-16 -23 -33 -43q-43 -49 -47 -53q-27 -29 -57 -57l-64 -58l-59 -53q-16 -14 -31.5 -25.5t-21.5 -17.5h-203z" />
<glyph unicode="&#x156;" horiz-adv-x="1288" d="M184 0v1462h400q279 0 415 -108q133 -106 134 -330q0 -76 -21 -135q-25 -70 -53 -109q-37 -51 -76 -84q-37 -33 -92 -59l199 -318l73 -116l64 -103l47 -71l16 -29h-344l-317 561h-135v-561h-310zM494 813h84q133 0 186 51q55 53 55 152q0 106 -59 147q-63 45 -187 45h-79 v-395zM489 -426q12 41 19 68q4 14 8 40.5t8 38.5q12 53 16 80q8 55 11 74h282v-20q-20 -45 -71 -148q-25 -49 -95 -160h-178v27z" />
<glyph unicode="&#x157;" horiz-adv-x="888" d="M160 0v1118h231l45 -168h15q25 43 53 78q31 37 61 59q37 27 78 39q43 12 100 13h27q6 0 14.5 -1t12.5 -1t13 -2t13 -2q12 0 17 -3v-286q-4 2 -12 2q-7 2 -11 2q-20 4 -29 4q-6 0 -16 1t-14 1h-25q-63 0 -108 -14q-49 -15 -86 -49q-35 -31 -54 -89q-20 -61 -20 -133v-569 h-305zM112 -426q12 41 19 68q4 14 8 40.5t8 38.5q12 53 16 80q8 55 11 74h282v-20q-20 -45 -71 -148q-25 -49 -95 -160h-178v27z" />
<glyph unicode="&#x158;" horiz-adv-x="1288" d="M184 0v1462h400q279 0 415 -108q133 -106 134 -330q0 -76 -21 -135q-25 -70 -53 -109q-37 -51 -76 -84q-37 -33 -92 -59l199 -318l73 -116l64 -103l47 -71l16 -29h-344l-317 561h-135v-561h-310zM494 813h84q133 0 186 51q55 53 55 152q0 106 -59 147q-63 45 -187 45h-79 v-395zM209 1880v27h203q37 -25 102 -78q47 -39 107 -98q55 57 106 98q68 53 107 78h203v-27l-58 -67l-65 -78l-62 -80l-51 -76h-356q-35 53 -52 76q-6 8 -63 80l-64 78q-30 38 -57 67z" />
<glyph unicode="&#x159;" horiz-adv-x="888" d="M160 0v1118h231l45 -168h15q25 43 53 78q31 37 61 59q37 27 78 39q43 12 100 13h27q6 0 14.5 -1t12.5 -1t13 -2t13 -2q12 0 17 -3v-286q-4 2 -12 2q-7 2 -11 2q-20 4 -29 4q-6 0 -16 1t-14 1h-25q-63 0 -108 -14q-49 -15 -86 -49q-35 -31 -54 -89q-20 -61 -20 -133v-569 h-305zM84 1542v27h203q37 -25 102 -78q47 -39 107 -98q55 57 106 98q68 53 107 78h203v-27l-58 -67l-65 -78l-62 -80l-51 -76h-356q-35 53 -52 76q-6 8 -63 80l-64 78q-30 38 -57 67z" />
<glyph unicode="&#x15a;" horiz-adv-x="1071" d="M94 68v288q80 -39 96 -45l101 -39q41 -16 100 -26q55 -10 101 -10q51 0 88 12q43 14 59 31q25 25 33 49q10 31 10 63q0 41 -18 72q-23 37 -48 59q-27 25 -77 53l-99 56l-102 57q-53 31 -109 86q-49 49 -84 121q-35 74 -34 172q0 102 32 176q37 84 93 131q63 53 145 80 q90 29 192 29q53 0 103 -6q37 -4 100 -21q39 -10 101 -33q53 -20 102 -43l-100 -241q-55 27 -84 37q-27 10 -76 26q-27 8 -72 17q-37 6 -72 6q-80 0 -120.5 -41t-40.5 -111q0 -37 12 -65.5t41 -53.5q37 -33 70 -51l106 -59q76 -41 137 -82q59 -39 109 -92 q47 -51 71.5 -114.5t24.5 -149.5q0 -98 -33 -177q-33 -76 -98 -133q-63 -55 -158 -86q-92 -31 -215 -30q-102 0 -205 22q-96 21 -182 66zM410 1579v27l45 67q33 53 47 78q8 12 45 82q22 40 37 74h342v-21q-16 -23 -33 -43q-43 -49 -47 -53q-27 -29 -57 -57l-64 -58l-59 -53 q-16 -14 -31.5 -25.5t-21.5 -17.5h-203z" />
<glyph unicode="&#x15b;" horiz-adv-x="983" d="M98 827q0 80 29 136q31 58 86 98q57 41 133 59q77 18 172 19q96 0 191 -23q80 -20 184 -69l-92 -216q-82 39 -146 60q-72 23 -137 22q-61 0 -90 -22q-27 -20 -27 -60q0 -22 7 -36q6 -14 28 -31q33 -25 60 -37q57 -29 98 -47q71 -31 129 -62q55 -29 96 -69q45 -45 64 -90 q23 -55 22 -127q0 -84 -33 -154q-33 -68 -90 -110q-59 -43 -143 -66q-86 -23 -188 -22q-41 0 -103 4q-45 2 -88 12q-72 16 -82 18q-35 10 -78 31v252q37 -18 88 -39q31 -12 93 -29q45 -12 90 -18q57 -8 80 -8q33 0 69 8q29 6 49 20q16 10 27 33q8 16 8 39q0 22 -6 37 q-6 12 -31 35q-14 12 -67 43q-27 14 -119 57q-88 41 -127 66q-61 39 -88 71q-33 37 -51 93q-17 46 -17 122zM342 1241v27l45 67q33 53 47 78q8 12 45 82q22 40 37 74h342v-21q-16 -23 -33 -43q-43 -49 -47 -53q-27 -29 -57 -57l-64 -58l-59 -53q-16 -14 -31.5 -25.5 t-21.5 -17.5h-203z" />
<glyph unicode="&#x15c;" horiz-adv-x="1071" d="M94 68v288q80 -39 96 -45l101 -39q41 -16 100 -26q55 -10 101 -10q51 0 88 12q43 14 59 31q25 25 33 49q10 31 10 63q0 41 -18 72q-23 37 -48 59q-27 25 -77 53l-99 56l-102 57q-53 31 -109 86q-49 49 -84 121q-35 74 -34 172q0 102 32 176q37 84 93 131q63 53 145 80 q90 29 192 29q53 0 103 -6q37 -4 100 -21q39 -10 101 -33q53 -20 102 -43l-100 -241q-55 27 -84 37q-27 10 -76 26q-27 8 -72 17q-37 6 -72 6q-80 0 -120.5 -41t-40.5 -111q0 -37 12 -65.5t41 -53.5q37 -33 70 -51l106 -59q76 -41 137 -82q59 -39 109 -92 q47 -51 71.5 -114.5t24.5 -149.5q0 -98 -33 -177q-33 -76 -98 -133q-63 -55 -158 -86q-92 -31 -215 -30q-102 0 -205 22q-96 21 -182 66zM158 1579v27q27 29 57 67l64 78l63 82q25 33 52 74h356q27 -41 51 -74q12 -14 21.5 -28.5t17.5 -24.5l23 -29l65 -78l58 -67v-27h-203 q-39 25 -107 78q-51 41 -106 98q-59 -59 -107 -98q-66 -53 -102 -78h-203z" />
<glyph unicode="&#x15d;" horiz-adv-x="983" d="M98 827q0 80 29 136q31 58 86 98q57 41 133 59q77 18 172 19q96 0 191 -23q80 -20 184 -69l-92 -216q-82 39 -146 60q-72 23 -137 22q-61 0 -90 -22q-27 -20 -27 -60q0 -22 7 -36q6 -14 28 -31q33 -25 60 -37q57 -29 98 -47q71 -31 129 -62q55 -29 96 -69q45 -45 64 -90 q23 -55 22 -127q0 -84 -33 -154q-33 -68 -90 -110q-59 -43 -143 -66q-86 -23 -188 -22q-41 0 -103 4q-45 2 -88 12q-72 16 -82 18q-35 10 -78 31v252q37 -18 88 -39q31 -12 93 -29q45 -12 90 -18q57 -8 80 -8q33 0 69 8q29 6 49 20q16 10 27 33q8 16 8 39q0 22 -6 37 q-6 12 -31 35q-14 12 -67 43q-27 14 -119 57q-88 41 -127 66q-61 39 -88 71q-33 37 -51 93q-17 46 -17 122zM104 1241v27q27 29 57 67l64 78l63 82q25 33 52 74h356q27 -41 51 -74q12 -14 21.5 -28.5t17.5 -24.5l23 -29l65 -78l58 -67v-27h-203q-39 25 -107 78 q-51 41 -106 98q-59 -59 -107 -98q-66 -53 -102 -78h-203z" />
<glyph unicode="&#x15e;" horiz-adv-x="1071" d="M94 68v288q80 -39 96 -45l101 -39q41 -16 100 -26q55 -10 101 -10q51 0 88 12q43 14 59 31q25 25 33 49q10 31 10 63q0 41 -18 72q-23 37 -48 59q-27 25 -77 53l-99 56l-102 57q-53 31 -109 86q-49 49 -84 121q-35 74 -34 172q0 102 32 176q37 84 93 131q63 53 145 80 q90 29 192 29q53 0 103 -6q37 -4 100 -21q39 -10 101 -33q53 -20 102 -43l-100 -241q-55 27 -84 37q-27 10 -76 26q-27 8 -72 17q-37 6 -72 6q-80 0 -120.5 -41t-40.5 -111q0 -37 12 -65.5t41 -53.5q37 -33 70 -51l106 -59q76 -41 137 -82q59 -39 109 -92 q47 -51 71.5 -114.5t24.5 -149.5q0 -98 -33 -177q-33 -76 -98 -133q-63 -55 -158 -86q-92 -31 -215 -30q-102 0 -205 22q-96 21 -182 66zM297 -303q4 0 15.5 -3t17.5 -5q6 0 19.5 -2t19.5 -4t18.5 -2t18.5 -3q12 -2 34 -2q28 0 50 13q23 12 22.5 49t-37.5 65t-129 43l78 154 h193l-27 -61q35 -10 59 -27q37 -25 52 -41q25 -27 36 -53q14 -29 15 -68q0 -59 -14.5 -102t-53.5 -76t-94 -47q-61 -16 -147 -17q-43 0 -80 7q-45 8 -66 14v168z" />
<glyph unicode="&#x15f;" horiz-adv-x="983" d="M98 827q0 80 29 136q31 58 86 98q57 41 133 59q77 18 172 19q96 0 191 -23q80 -20 184 -69l-92 -216q-82 39 -146 60q-72 23 -137 22q-61 0 -90 -22q-27 -20 -27 -60q0 -22 7 -36q6 -14 28 -31q33 -25 60 -37q57 -29 98 -47q71 -31 129 -62q55 -29 96 -69q45 -45 64 -90 q23 -55 22 -127q0 -84 -33 -154q-33 -68 -90 -110q-59 -43 -143 -66q-86 -23 -188 -22q-41 0 -103 4q-45 2 -88 12q-72 16 -82 18q-35 10 -78 31v252q37 -18 88 -39q31 -12 93 -29q45 -12 90 -18q57 -8 80 -8q33 0 69 8q29 6 49 20q16 10 27 33q8 16 8 39q0 22 -6 37 q-6 12 -31 35q-14 12 -67 43q-27 14 -119 57q-88 41 -127 66q-61 39 -88 71q-33 37 -51 93q-17 46 -17 122zM242 -303q4 0 15.5 -3t17.5 -5q6 0 19.5 -2t19.5 -4t18.5 -2t18.5 -3q12 -2 34 -2q28 0 50 13q23 12 22.5 49t-37.5 65t-129 43l78 154h193l-27 -61q35 -10 59 -27 q37 -25 52 -41q25 -27 36 -53q14 -29 15 -68q0 -59 -14.5 -102t-53.5 -76t-94 -47q-61 -16 -147 -17q-43 0 -80 7q-45 8 -66 14v168z" />
<glyph unicode="&#x160;" horiz-adv-x="1071" d="M94 68v288q80 -39 96 -45l101 -39q41 -16 100 -26q55 -10 101 -10q51 0 88 12q43 14 59 31q25 25 33 49q10 31 10 63q0 41 -18 72q-23 37 -48 59q-27 25 -77 53l-99 56l-102 57q-53 31 -109 86q-49 49 -84 121q-35 74 -34 172q0 102 32 176q37 84 93 131q63 53 145 80 q90 29 192 29q53 0 103 -6q37 -4 100 -21q39 -10 101 -33q53 -20 102 -43l-100 -241q-55 27 -84 37q-27 10 -76 26q-27 8 -72 17q-37 6 -72 6q-80 0 -120.5 -41t-40.5 -111q0 -37 12 -65.5t41 -53.5q37 -33 70 -51l106 -59q76 -41 137 -82q59 -39 109 -92 q47 -51 71.5 -114.5t24.5 -149.5q0 -98 -33 -177q-33 -76 -98 -133q-63 -55 -158 -86q-92 -31 -215 -30q-102 0 -205 22q-96 21 -182 66zM137 1880v27h203q37 -25 102 -78q47 -39 107 -98q55 57 106 98q68 53 107 78h203v-27l-58 -67l-65 -78l-62 -80l-51 -76h-356 q-35 53 -52 76q-6 8 -63 80l-64 78q-30 38 -57 67z" />
<glyph unicode="&#x161;" horiz-adv-x="983" d="M98 827q0 80 29 136q31 58 86 98q57 41 133 59q77 18 172 19q96 0 191 -23q80 -20 184 -69l-92 -216q-82 39 -146 60q-72 23 -137 22q-61 0 -90 -22q-27 -20 -27 -60q0 -22 7 -36q6 -14 28 -31q33 -25 60 -37q57 -29 98 -47q71 -31 129 -62q55 -29 96 -69q45 -45 64 -90 q23 -55 22 -127q0 -84 -33 -154q-33 -68 -90 -110q-59 -43 -143 -66q-86 -23 -188 -22q-41 0 -103 4q-45 2 -88 12q-72 16 -82 18q-35 10 -78 31v252q37 -18 88 -39q31 -12 93 -29q45 -12 90 -18q57 -8 80 -8q33 0 69 8q29 6 49 20q16 10 27 33q8 16 8 39q0 22 -6 37 q-6 12 -31 35q-14 12 -67 43q-27 14 -119 57q-88 41 -127 66q-61 39 -88 71q-33 37 -51 93q-17 46 -17 122zM92 1542v27h203q37 -25 102 -78q47 -39 107 -98q55 57 106 98q68 53 107 78h203v-27l-58 -67l-65 -78l-62 -80l-51 -76h-356q-35 53 -52 76q-6 8 -63 80l-64 78 q-30 38 -57 67z" />
<glyph unicode="&#x162;" horiz-adv-x="1122" d="M41 1204v258h1042v-258h-366v-1204h-309v1204h-367zM368 -426q12 41 19 68q4 14 8 40.5t8 38.5q12 53 16 80q8 55 11 74h282v-20q-20 -45 -71 -148q-25 -49 -95 -160h-178v27z" />
<glyph unicode="&#x163;" horiz-adv-x="847" d="M47 889v129l168 102l88 236h195v-238h272v-229h-272v-539q0 -63 32 -96q31 -31 84 -31q41 0 86 10q37 8 82 25v-227q-43 -23 -106 -37q-59 -14 -139 -14q-70 0 -135.5 18t-108.5 59q-47 43 -74 113q-27 68 -26 180v539h-146zM258 -426q12 41 19 68q4 14 8 40.5t8 38.5 q12 53 16 80q8 55 11 74h282v-20q-20 -45 -71 -148q-25 -49 -95 -160h-178v27z" />
<glyph unicode="&#x164;" horiz-adv-x="1122" d="M41 1204v258h1042v-258h-366v-1204h-309v1204h-367zM149 1880v27h203q37 -25 102 -78q47 -39 107 -98q55 57 106 98q68 53 107 78h203v-27l-58 -67l-65 -78l-62 -80l-51 -76h-356q-35 53 -52 76q-6 8 -63 80l-64 78q-30 38 -57 67z" />
<glyph unicode="&#x165;" horiz-adv-x="847" d="M47 889v129l168 102l88 236h195v-238h272v-229h-272v-539q0 -63 32 -96q31 -31 84 -31q41 0 86 10q37 8 82 25v-227q-43 -23 -106 -37q-59 -14 -139 -14q-70 0 -135.5 18t-108.5 59q-47 43 -74 113q-27 68 -26 180v539h-146zM620 1249v26q12 41 19 68q4 12 8 39t8 41 q12 53 16 80q8 55 11 73h282v-20q-20 -45 -71 -147q-33 -66 -95 -160h-178z" />
<glyph unicode="&#x166;" horiz-adv-x="1122" d="M41 1204v258h1042v-258h-366v-354h237v-254h-237v-596h-309v596h-238v254h238v354h-367z" />
<glyph unicode="&#x167;" horiz-adv-x="847" d="M47 885v133l168 102l88 236h195v-238h272v-233h-272v-189h237v-198h-237v-148q0 -63 32 -96q31 -31 84 -31q41 0 86 10q37 8 82 25v-227q-43 -23 -106 -37q-59 -14 -139 -14q-70 0 -135.5 18t-108.5 59q-47 43 -74 113q-27 68 -26 180v148h-127v198h127v189h-146z" />
<glyph unicode="&#x168;" horiz-adv-x="1464" d="M174 520v942h309v-919q0 -76 17 -137q14 -55 47 -95q31 -37 78 -55q41 -16 110 -16q131 0 189 75q59 78 59 230v917h309v-946q0 -113 -34.5 -213t-104.5 -170q-76 -76 -176 -113q-111 -41 -250 -40q-135 0 -238 38q-106 41 -174 109q-63 63 -104 172q-37 98 -37 221z M334 1577q6 82 26 137q23 63 53 97q37 41 76 57q43 18 97 18q37 0 79 -16l78 -35q10 -4 36 -17.5t40 -19.5q39 -16 74 -16q29 0 49 26q18 25 31 80h149q-6 -82 -27 -137q-23 -59 -53 -96q-33 -39 -76 -57.5t-96 -18.5q-37 0 -80 16q-18 6 -78 37q-39 20 -75 35 q-39 16 -74 17q-31 0 -49 -27q-20 -29 -31 -80h-149z" />
<glyph unicode="&#x169;" horiz-adv-x="1282" d="M154 389v729h305v-653q0 -121 37 -182q35 -59 116 -60q59 0 101 25q39 25 63 69q23 43 33 117q10 76 10 158v526h305v-1118h-233l-41 143h-16q-23 -41 -60 -73q-29 -25 -76 -52q-35 -18 -86 -28t-94 -10q-82 0 -149 24q-63 23 -115 74q-49 49 -74 127q-26 84 -26 184z M246 1239q6 82 26 137q23 63 53 97q37 41 76 57q43 18 97 18q37 0 79 -16l78 -35q10 -4 36 -17.5t40 -19.5q39 -16 74 -16q29 0 49 26q18 25 31 80h149q-6 -82 -27 -137q-23 -59 -53 -96q-33 -39 -76 -57.5t-96 -18.5q-37 0 -80 16q-18 6 -78 37q-39 20 -75 35 q-39 16 -74 17q-31 0 -49 -27q-20 -29 -31 -80h-149z" />
<glyph unicode="&#x16a;" horiz-adv-x="1464" d="M174 520v942h309v-919q0 -76 17 -137q14 -55 47 -95q31 -37 78 -55q41 -16 110 -16q131 0 189 75q59 78 59 230v917h309v-946q0 -113 -34.5 -213t-104.5 -170q-76 -76 -176 -113q-111 -41 -250 -40q-135 0 -238 38q-106 41 -174 109q-63 63 -104 172q-37 98 -37 221z M422 1579v211h617v-211h-617z" />
<glyph unicode="&#x16b;" horiz-adv-x="1282" d="M154 389v729h305v-653q0 -121 37 -182q35 -59 116 -60q59 0 101 25q39 25 63 69q23 43 33 117q10 76 10 158v526h305v-1118h-233l-41 143h-16q-23 -41 -60 -73q-29 -25 -76 -52q-35 -18 -86 -28t-94 -10q-82 0 -149 24q-63 23 -115 74q-49 49 -74 127q-26 84 -26 184z M330 1241v211h617v-211h-617z" />
<glyph unicode="&#x16c;" horiz-adv-x="1464" d="M174 520v942h309v-919q0 -76 17 -137q14 -55 47 -95q31 -37 78 -55q41 -16 110 -16q131 0 189 75q59 78 59 230v917h309v-946q0 -113 -34.5 -213t-104.5 -170q-76 -76 -176 -113q-111 -41 -250 -40q-135 0 -238 38q-106 41 -174 109q-63 63 -104 172q-37 98 -37 221z M366 1917h170q3 -43 19 -68q18 -31 37 -38q23 -10 57 -15q45 -4 78 -4q25 0 69 4q25 2 58 19q23 10 43 39q16 23 20 63h174q-6 -76 -30 -137q-25 -63 -72 -107q-49 -45 -113 -69q-66 -25 -151 -25q-89 0 -154 25q-70 27 -110.5 67.5t-67.5 106.5q-23 59 -27 139z" />
<glyph unicode="&#x16d;" horiz-adv-x="1282" d="M154 389v729h305v-653q0 -121 37 -182q35 -59 116 -60q59 0 101 25q39 25 63 69q23 43 33 117q10 76 10 158v526h305v-1118h-233l-41 143h-16q-23 -41 -60 -73q-29 -25 -76 -52q-35 -18 -86 -28t-94 -10q-82 0 -149 24q-63 23 -115 74q-49 49 -74 127q-26 84 -26 184z M274 1579h170q3 -43 19 -68q18 -31 37 -38q23 -10 57 -15q45 -4 78 -4q25 0 69 4q25 2 58 19q23 10 43 39q16 23 20 63h174q-6 -76 -30 -137q-25 -63 -72 -107q-49 -45 -113 -69q-66 -25 -151 -25q-89 0 -154 25q-70 27 -110.5 67.5t-67.5 106.5q-23 59 -27 139z" />
<glyph unicode="&#x16e;" horiz-adv-x="1464" d="M174 520v942h309v-919q0 -76 17 -137q14 -55 47 -95q31 -37 78 -55q41 -16 110 -16q131 0 189 75q59 78 59 230v917h309v-946q0 -113 -34.5 -213t-104.5 -170q-76 -76 -176 -113q-111 -41 -250 -40q-135 0 -238 38q-106 41 -174 109q-63 63 -104 172q-37 98 -37 221z M487 1815q0 57 18 100q20 47 50 74q35 33 79 47q49 16 101 16q49 0 98 -16q47 -16 82 -47q31 -27 53 -74q20 -41 20.5 -98.5t-18.5 -100.5q-18 -41 -55 -75q-35 -33 -80 -48q-49 -16 -100 -16t-101 16q-45 14 -79 48q-27 25 -50 75q-18 44 -18 99zM639 1815q0 -45 24 -70 q27 -27 72 -27q39 0 69 27q27 25 27 70q0 47 -26.5 71.5t-69.5 24.5t-69.5 -24.5t-26.5 -71.5z" />
<glyph unicode="&#x16f;" horiz-adv-x="1282" d="M154 389v729h305v-653q0 -121 37 -182q35 -59 116 -60q59 0 101 25q39 25 63 69q23 43 33 117q10 76 10 158v526h305v-1118h-233l-41 143h-16q-23 -41 -60 -73q-29 -25 -76 -52q-35 -18 -86 -28t-94 -10q-82 0 -149 24q-63 23 -115 74q-49 49 -74 127q-26 84 -26 184z M389 1477q0 57 18 100q20 47 50 74q35 33 79 47q49 16 101 16q49 0 98 -16q47 -16 82 -47q31 -27 53 -74q20 -41 20.5 -98.5t-18.5 -100.5q-18 -41 -55 -75q-35 -33 -80 -48q-49 -16 -100 -16t-101 16q-45 14 -79 48q-27 25 -50 75q-18 44 -18 99zM541 1477q0 -45 24 -70 q27 -27 72 -27q39 0 69 27q27 25 27 70q0 47 -26.5 71.5t-69.5 24.5t-69.5 -24.5t-26.5 -71.5z" />
<glyph unicode="&#x170;" horiz-adv-x="1464" d="M174 520v942h309v-919q0 -76 17 -137q14 -55 47 -95q31 -37 78 -55q41 -16 110 -16q131 0 189 75q59 78 59 230v917h309v-946q0 -113 -34.5 -213t-104.5 -170q-76 -76 -176 -113q-111 -41 -250 -40q-135 0 -238 38q-106 41 -174 109q-63 63 -104 172q-37 98 -37 221z M400 1579v27l45 67q33 53 47 78q8 12 45 82q22 40 37 74h301v-21q-16 -23 -33 -43q-43 -49 -47 -53l-59 -57l-62 -58q-8 -6 -61 -53l-52 -43h-161zM797 1579v27l45 67q33 53 47 78q8 12 45 82q22 40 37 74h301v-21q-16 -23 -33 -43q-43 -49 -47 -53q-27 -29 -57 -57l-64 -58 l-59 -53q-16 -14 -31.5 -25.5t-21.5 -17.5h-162z" />
<glyph unicode="&#x171;" horiz-adv-x="1282" d="M154 389v729h305v-653q0 -121 37 -182q35 -59 116 -60q59 0 101 25q39 25 63 69q23 43 33 117q10 76 10 158v526h305v-1118h-233l-41 143h-16q-23 -41 -60 -73q-29 -25 -76 -52q-35 -18 -86 -28t-94 -10q-82 0 -149 24q-63 23 -115 74q-49 49 -74 127q-26 84 -26 184z M314 1241v27l45 67q33 53 47 78q8 12 45 82q22 40 37 74h301v-21q-16 -23 -33 -43q-43 -49 -47 -53l-59 -57l-62 -58q-8 -6 -61 -53l-52 -43h-161zM711 1241v27l45 67q33 53 47 78q8 12 45 82q22 40 37 74h301v-21q-16 -23 -33 -43q-43 -49 -47 -53q-27 -29 -57 -57l-64 -58 l-59 -53q-16 -14 -31.5 -25.5t-21.5 -17.5h-162z" />
<glyph unicode="&#x172;" horiz-adv-x="1464" d="M174 520v942h309v-919q0 -76 17 -137q14 -55 47 -95q31 -37 78 -55q41 -16 110 -16q131 0 189 75q59 78 59 230v917h309v-946q0 -113 -34.5 -213t-104.5 -170q-76 -76 -176 -113q-111 -41 -250 -40q-135 0 -238 38q-106 41 -174 109q-63 63 -104 172q-37 98 -37 221z M547 -262q0 45 15 80q16 39 38 67q29 37 58 60q45 37 69 55h179q-63 -57 -109 -121q-39 -53 -39 -106q0 -39 23 -62q20 -20 57 -20q33 0 64 6q27 6 51 12v-178q-35 -10 -70 -16q-37 -6 -86 -7q-63 0 -104 17q-47 18 -78 47q-33 29 -51 74q-17 39 -17 92z" />
<glyph unicode="&#x173;" horiz-adv-x="1282" d="M154 389v729h305v-653q0 -121 37 -182q35 -59 116 -60q59 0 101 25q39 25 63 69q23 43 33 117q10 76 10 158v526h305v-1118h-233l-41 143h-16q-23 -41 -60 -73q-29 -25 -76 -52q-35 -18 -86 -28t-94 -10q-82 0 -149 24q-63 23 -115 74q-49 49 -74 127q-26 84 -26 184z M710 -262q0 45 15 80q16 39 38 67q29 37 58 60q45 37 69 55h179q-63 -57 -109 -121q-39 -53 -39 -106q0 -39 23 -62q20 -20 57 -20q33 0 64 6q27 6 51 12v-178q-35 -10 -70 -16q-37 -6 -86 -7q-63 0 -104 17q-47 18 -78 47q-33 29 -51 74q-17 39 -17 92z" />
<glyph unicode="&#x174;" horiz-adv-x="1896" d="M0 1462h305l166 -798q2 -10 8 -46l13 -69q4 -27 14 -80q10 -51 14 -82q4 -23 8 -41t7 -33l8 -57q6 47 8 55q6 35 12 74l12 80l15 76l12 63q2 10 5 22.5t3 16.5l203 819h272l203 -819q2 -4 4 -16.5t4 -22.5l13 -63q2 -12 6 -33l8 -43l12 -80q6 -39 13 -74q2 -8 8 -55 q0 4 2 15.5t3 21.5t3 20q6 34 12 74q4 31 15 82q4 18 8 38.5l8 41.5q6 39 12 69l8 46l166 798h305l-352 -1462h-352l-180 721q-2 4 -5 18.5l-5 24.5q-8 33 -13 59l-12 72q-2 14 -7 37.5t-7 34.5q-8 45 -11 65q-2 25 -6 47q-4 -23 -6 -47q-2 -20 -10 -65q-2 -16 -6 -34 l-8 -36l-13 -72q-6 -34 -12 -61q-2 -8 -5 -23.5t-5 -21.5l-178 -719h-353zM532 1579v27q27 29 57 67l64 78l63 82q25 33 52 74h356q27 -41 51 -74q12 -14 21.5 -28.5t17.5 -24.5l23 -29l65 -78l58 -67v-27h-203q-39 25 -107 78q-51 41 -106 98q-59 -59 -107 -98 q-66 -53 -102 -78h-203z" />
<glyph unicode="&#x175;" horiz-adv-x="1650" d="M0 1118h303l113 -495q10 -47 18 -93l19 -110q4 -23 8 -50.5l8 -54.5q8 -66 10 -79h6q0 8 4 49q4 45 9 65q4 35 10 72q8 49 12 70q8 49 10 55q4 27 7 35l122 536h336l117 -536q2 -8 6 -31t6 -37l17 -98q6 -31 14 -103q8 -66 8 -77h6q0 6 4.5 30.5t6.5 42.5q8 49 16 107 q4 18 10 56t11 56q8 51 18 95l117 495h299l-305 -1118h-332l-86 391q-2 6 -5 23.5t-5 25.5l-15 70q-8 39 -16 84q-4 25 -9.5 46.5t-9.5 41.5l-18 100.5t-25 122.5h-6q-8 -47 -20.5 -106.5t-22.5 -116.5l-16 -88q-10 -59 -17 -86q-8 -39 -14 -72q-2 -8 -5 -25.5t-5 -23.5 l-90 -387h-328zM409 1241v27q27 29 57 67l64 78l63 82q25 33 52 74h356q27 -41 51 -74q12 -14 21.5 -28.5t17.5 -24.5l23 -29l65 -78l58 -67v-27h-203q-39 25 -107 78q-51 41 -106 98q-59 -59 -107 -98q-66 -53 -102 -78h-203z" />
<glyph unicode="&#x176;" horiz-adv-x="1193" d="M0 1462h336l262 -602l264 602h334l-444 -893v-569h-308v559zM182 1579v27q27 29 57 67l64 78l63 82q25 33 52 74h356q27 -41 51 -74q12 -14 21.5 -28.5t17.5 -24.5l23 -29l65 -78l58 -67v-27h-203q-39 25 -107 78q-51 41 -106 98q-59 -59 -107 -98q-66 -53 -102 -78h-203 z" />
<glyph unicode="&#x177;" horiz-adv-x="1103" d="M0 1118h334l180 -629q16 -57 23 -110q8 -82 10 -107h6q2 14 6 52q4 41 8 57q2 8 5 28.5t6 28.5q0 4 14 51l176 629h336l-442 -1261q-61 -176 -168 -263q-109 -86 -269 -86q-66 0 -90 5q-41 6 -65 12v242q16 -4 53 -9q41 -4 67 -4q47 0 82 13q33 12 58 36q27 27 43 58 q18 34 30 73l19 56zM139 1241v27q27 29 57 67l64 78l63 82q25 33 52 74h356q27 -41 51 -74q12 -14 21.5 -28.5t17.5 -24.5l23 -29l65 -78l58 -67v-27h-203q-39 25 -107 78q-51 41 -106 98q-59 -59 -107 -98q-66 -53 -102 -78h-203z" />
<glyph unicode="&#x178;" horiz-adv-x="1193" d="M0 1462h336l262 -602l264 602h334l-444 -893v-569h-308v559zM256 1743q0 41 10 61q12 27 31 41q18 15 43 25q23 8 55.5 8t54.5 -8q25 -9 43 -25q18 -14 31 -41q12 -25 12 -61q0 -35 -12 -59q-12 -27 -31 -41q-18 -15 -43 -25q-23 -8 -55.5 -8t-54.5 8q-25 9 -43 25 q-18 14 -31 41q-10 20 -10 59zM659 1743q0 41 11 61q12 27 30 41q16 14 45 25q23 8 56 8q31 0 53 -8q29 -10 45 -25q18 -14 31 -41q12 -25 12 -61q0 -35 -12 -59q-12 -27 -31 -41q-16 -14 -45 -25q-23 -8 -53 -8q-61 0 -101 33q-41 34 -41 100z" />
<glyph unicode="&#x179;" horiz-adv-x="1103" d="M49 0v201l619 1005h-600v256h968v-200l-618 -1006h637v-256h-1006zM389 1579v27l45 67q33 53 47 78q8 12 45 82q22 40 37 74h342v-21q-16 -23 -33 -43q-43 -49 -47 -53q-27 -29 -57 -57l-64 -58l-59 -53q-16 -14 -31.5 -25.5t-21.5 -17.5h-203z" />
<glyph unicode="&#x17a;" horiz-adv-x="935" d="M55 0v180l457 705h-426v233h772v-198l-442 -687h461v-233h-822zM314 1241v27l45 67q33 53 47 78q8 12 45 82q22 40 37 74h342v-21q-16 -23 -33 -43q-43 -49 -47 -53q-27 -29 -57 -57l-64 -58l-59 -53q-16 -14 -31.5 -25.5t-21.5 -17.5h-203z" />
<glyph unicode="&#x17b;" horiz-adv-x="1103" d="M49 0v201l619 1005h-600v256h968v-200l-618 -1006h637v-256h-1006zM405 1745q0 43 13 72q10 25 35 45q20 18 53 24q41 8 65 8q23 0 64 -8q33 -6 53 -24q25 -20 35 -45q14 -33 14 -72t-14 -72q-10 -25 -34.5 -45t-53.5 -26q-31 -6 -64 -7q-35 0 -65 7q-29 6 -53.5 26.5 t-34.5 44.5q-13 29 -13 72z" />
<glyph unicode="&#x17c;" horiz-adv-x="935" d="M55 0v180l457 705h-426v233h772v-198l-442 -687h461v-233h-822zM315 1407q0 43 13 72q10 25 35 45q20 18 53 24q41 8 65 8q23 0 64 -8q33 -6 53 -24q25 -20 35 -45q14 -33 14 -72t-14 -72q-10 -25 -34.5 -45t-53.5 -26q-31 -6 -64 -7q-35 0 -65 7q-29 6 -53.5 26.5 t-34.5 44.5q-13 29 -13 72z" />
<glyph unicode="&#x17d;" horiz-adv-x="1103" d="M49 0v201l619 1005h-600v256h968v-200l-618 -1006h637v-256h-1006zM123 1880v27h203q37 -25 102 -78q47 -39 107 -98q55 57 106 98q68 53 107 78h203v-27l-58 -67l-65 -78l-62 -80l-51 -76h-356q-35 53 -52 76q-6 8 -63 80l-64 78q-30 38 -57 67z" />
<glyph unicode="&#x17e;" horiz-adv-x="935" d="M55 0v180l457 705h-426v233h772v-198l-442 -687h461v-233h-822zM74 1542v27h203q37 -25 102 -78q47 -39 107 -98q55 57 106 98q68 53 107 78h203v-27l-58 -67l-65 -78l-62 -80l-51 -76h-356q-35 53 -52 76q-6 8 -63 80l-64 78q-30 38 -57 67z" />
<glyph unicode="&#x17f;" horiz-adv-x="741" d="M160 0v1200q0 102 26 178q25 70 74 113q45 41 117 59q59 16 151 17q96 0 156 -15q68 -16 107 -32l-72 -224q-20 8 -66 21q-31 8 -80 8q-59 0 -84 -39q-25 -41 -24 -98v-1188h-305z" />
<glyph unicode="&#x192;" d="M176 -227q43 -12 57 -15q37 -4 62 -4q18 0 47 8q20 6 41 27q18 18 27 51q10 37 10 84v881h-168v147l168 82v82q0 102 26 178q25 70 74 113q45 41 117 59q59 16 151 17q96 0 156 -15q68 -16 107 -32l-72 -224q-20 8 -66 21q-31 8 -79 8q-59 0 -84 -39t-25 -98v-70h227 v-229h-227l-2 -926q0 -78 -18 -145q-18 -63 -63.5 -116.5t-113.5 -80.5q-70 -29 -168 -29q-49 0 -100 7q-49 6 -84 18v240z" />
<glyph unicode="&#x1f0;" horiz-adv-x="624" d="M-82 -227q43 -12 57 -15q37 -4 62 -4q18 0 47 8q23 6 39 27q18 23 27 51q10 37 10 84v1194h305v-1239q0 -78 -19 -145q-18 -63 -63 -116.5t-113 -80.5q-70 -29 -168 -29q-49 0 -100 7q-49 6 -84 18v240zM-103 1542v27h203q37 -25 102 -78q47 -39 107 -98q55 57 106 98 q68 53 107 78h203v-27l-58 -67l-65 -78l-62 -80l-51 -76h-356q-35 53 -52 76q-6 8 -63 80l-64 78q-30 38 -57 67z" />
<glyph unicode="&#x1fa;" horiz-adv-x="1329" d="M0 0l459 1315q-43 57 -43 145q0 57 18 101q18 45 51 73q37 33 78 47q49 16 100.5 16.5t100.5 -16.5q45 -14 80 -47q31 -27 53 -73q20 -41 21 -99q0 -45 -12.5 -82t-35.5 -65l461 -1315h-313l-105 330h-497l-103 -330h-313zM489 590h357l-94 289q-4 10 -19 53 q-6 18 -12 38.5t-12 43.5q-4 14 -13.5 43.5t-13.5 44t-16 76.5q0 -4 -11 -48q-6 -29 -14 -55q-4 -12 -9 -28.5t-9 -32.5q-8 -31 -17 -58l-14 -47q-2 -10 -6 -17t-4 -13zM543 1753v16l45 43q8 8 23.5 25.5l23.5 26.5q10 12 22.5 25.5t22.5 25.5q18 20 37 47h342v-12 q-14 -16 -53 -43q-74 -49 -84 -56q-76 -45 -95 -55q-27 -16 -50 -27.5t-32 -15.5h-202zM567 1460q0 -47 20.5 -69.5t65.5 -26.5h19q41 4 63 27q25 25 25 69.5t-27 69.5q-31 27 -69.5 26.5t-69.5 -26.5q-27 -25 -27 -70z" />
<glyph unicode="&#x1fb;" horiz-adv-x="1175" d="M86 334q0 176 115 262q113 84 340 94l178 6v84q0 70 -39 102.5t-113 32.5q-78 0 -141 -20q-61 -20 -137 -57l-99 202q82 45 187 74q98 27 213 27q211 0 321.5 -98.5t110.5 -297.5v-745h-213l-59 152h-9q-33 -45 -65 -78q-29 -29 -74 -54q-41 -23 -86 -30 q-55 -10 -113 -10q-66 0 -127 22q-59 23 -100 64q-39 39 -65 110q-25 68 -25 158zM340 1436q0 57 18 100q20 47 50 74q35 33 79 47q49 16 101 16q49 0 98 -16q47 -16 82 -47q31 -27 53 -74q20 -41 20.5 -98.5t-18.5 -100.5q-18 -41 -55 -75q-35 -33 -80 -48 q-49 -16 -100 -16t-101 16q-45 14 -79 48q-27 25 -50 75q-18 44 -18 99zM399 332q0 -68 33 -99q35 -31 90 -30q43 0 78 14q31 12 62 43q29 29 43 70t14 96v92l-101 -4q-68 -4 -104 -16q-45 -16 -65 -37q-29 -29 -39 -55q-11 -29 -11 -74zM451 1753v16l45 43q8 8 23.5 25.5 l23.5 26.5q10 12 22.5 25.5t22.5 25.5q18 20 37 47h342v-12q-14 -16 -54 -43q-74 -49 -84 -56q-76 -45 -94 -55q-27 -16 -50 -27.5t-32 -15.5h-202zM492 1436q0 -45 24 -70q27 -27 72 -27q39 0 69 27q27 25 27 70q0 47 -26.5 71.5t-69.5 24.5t-69.5 -24.5t-26.5 -71.5z" />
<glyph unicode="&#x1fc;" horiz-adv-x="1886" d="M0 0l655 1462h1112v-254h-532v-321h496v-254h-496v-377h532v-256h-841v348h-461l-150 -348h-315zM578 608h348v590h-97zM983 1579v27l45 67q33 53 47 78q8 12 45 82q22 40 37 74h342v-21q-16 -23 -33 -43q-43 -49 -47 -53q-27 -29 -57 -57l-64 -58l-59 -53 q-16 -14 -31.5 -25.5t-21.5 -17.5h-203z" />
<glyph unicode="&#x1fd;" horiz-adv-x="1804" d="M86 334q0 176 115 262q113 84 340 94l178 6v84q0 70 -39 102.5t-113 32.5q-78 0 -141 -20q-61 -20 -137 -57l-99 202q82 45 187 74q98 27 213 27q217 0 323 -131q126 129 314 129q115 0 200 -33q90 -35 152 -98q63 -66 96 -160q33 -92 33 -217v-148h-682q4 -68 20.5 -117 t51.5 -85q33 -35 82 -56q45 -18 108 -18q92 0 182 22q92 23 175 66v-236q-40 -22 -80 -36q-29 -10 -86 -23q-76 -14 -97 -16q-70 -4 -114 -4q-125 0 -238 51q-106 49 -176 155q-35 -45 -86 -92q-47 -45 -90 -65q-49 -25 -110.5 -37t-143.5 -12q-66 0 -129 22q-66 23 -109 64 q-46 43 -73 110q-27 66 -27 158zM399 332q0 -68 33 -99q35 -31 90 -30q43 0 78 14q31 12 62 43q29 29 43 70t14 96v92l-101 -4q-68 -4 -104 -16q-45 -16 -65 -37q-29 -29 -39 -55q-11 -29 -11 -74zM1032 686h389q0 51 -12 94t-37 74q-27 33 -59 49q-37 18 -84 19 q-84 0 -135 -58q-54 -59 -62 -178zM756 1241v27l45 67q33 53 47 78q8 12 45 82q22 40 37 74h342v-21q-16 -23 -33 -43q-43 -49 -47 -53q-27 -29 -57 -57l-64 -58l-59 -53q-16 -14 -31.5 -25.5t-21.5 -17.5h-203z" />
<glyph unicode="&#x1fe;" horiz-adv-x="1546" d="M119 735q0 174 39 309.5t121 235.5q80 98 204.5 151.5t292.5 53.5q86 0 168 -17q76 -14 143 -47l70 111l166 -96l-80 -129q94 -98 141 -244q45 -141 46 -330q0 -172 -39 -307q-41 -141 -121 -240q-76 -94 -205 -151q-123 -55 -291 -55q-178 0 -307 61l-72 -117l-168 94 l82 134q-96 100 -143 247q-47 152 -47 336zM438 733q0 -178 47 -295l457 746q-68 43 -166 43q-88 0 -151 -33q-59 -31 -105 -98q-39 -57 -61 -156q-21 -88 -21 -207zM612 279q37 -20 74 -29q45 -10 88 -10q86 0 151.5 34.5t104.5 96.5q41 68 60 155q20 102 20 207 q0 170 -43 287zM590 1579v27l45 67q33 53 47 78q8 12 45 82q22 40 37 74h342v-21q-16 -23 -33 -43q-43 -49 -47 -53q-27 -29 -57 -57l-64 -58l-59 -53q-16 -14 -31.5 -25.5t-21.5 -17.5h-203z" />
<glyph unicode="&#x1ff;" horiz-adv-x="1226" d="M102 561q0 145 35 248q37 109 103 180q72 78 161 113q95 37 215 37q59 0 119 -13q39 -8 109 -36l49 79l160 -96l-62 -98q63 -70 99 -176q35 -109 34 -238q0 -139 -37 -248q-39 -117 -100 -182q-68 -74 -162 -113q-92 -39 -215 -38q-51 0 -108 10q-45 8 -101 28l-57 -94 l-162 90l68 111q-70 76 -109 184.5t-39 251.5zM414 561q0 -86 12 -151l283 458q-41 25 -97 25q-106 0 -151 -82q-47 -84 -47 -250zM539 240q12 -6 36.5 -10.5t38.5 -4.5q106 0 152 84q47 88 47 252q0 63 -6 113zM434 1241v27l45 67q33 53 47 78q8 12 45 82q22 40 37 74h342 v-21q-16 -23 -33 -43q-43 -49 -47 -53q-27 -29 -57 -57l-64 -58l-59 -53q-16 -14 -31.5 -25.5t-21.5 -17.5h-203z" />
<glyph unicode="&#x218;" horiz-adv-x="1071" d="M94 68v288q80 -39 96 -45l101 -39q41 -16 100 -26q55 -10 101 -10q51 0 88 12q43 14 59 31q25 25 33 49q10 31 10 63q0 41 -18 72q-23 37 -48 59q-27 25 -77 53l-99 56l-102 57q-53 31 -109 86q-49 49 -84 121q-35 74 -34 172q0 102 32 176q37 84 93 131q63 53 145 80 q90 29 192 29q53 0 103 -6q37 -4 100 -21q39 -10 101 -33q53 -20 102 -43l-100 -241q-55 27 -84 37q-27 10 -76 26q-27 8 -72 17q-37 6 -72 6q-80 0 -120.5 -41t-40.5 -111q0 -37 12 -65.5t41 -53.5q37 -33 70 -51l106 -59q76 -41 137 -82q59 -39 109 -92 q47 -51 71.5 -114.5t24.5 -149.5q0 -98 -33 -177q-33 -76 -98 -133q-63 -55 -158 -86q-92 -31 -215 -30q-102 0 -205 22q-96 21 -182 66zM350 -426q12 41 19 68q4 14 8 40.5t8 38.5q12 53 16 80q8 55 11 74h282v-20q-20 -45 -71 -148q-25 -49 -95 -160h-178v27z" />
<glyph unicode="&#x219;" horiz-adv-x="983" d="M98 827q0 80 29 136q31 58 86 98q57 41 133 59q77 18 172 19q96 0 191 -23q80 -20 184 -69l-92 -216q-82 39 -146 60q-72 23 -137 22q-61 0 -90 -22q-27 -20 -27 -60q0 -22 7 -36q6 -14 28 -31q33 -25 60 -37q57 -29 98 -47q71 -31 129 -62q55 -29 96 -69q45 -45 64 -90 q23 -55 22 -127q0 -84 -33 -154q-33 -68 -90 -110q-59 -43 -143 -66q-86 -23 -188 -22q-41 0 -103 4q-45 2 -88 12q-72 16 -82 18q-35 10 -78 31v252q37 -18 88 -39q31 -12 93 -29q45 -12 90 -18q57 -8 80 -8q33 0 69 8q29 6 49 20q16 10 27 33q8 16 8 39q0 22 -6 37 q-6 12 -31 35q-14 12 -67 43q-27 14 -119 57q-88 41 -127 66q-61 39 -88 71q-33 37 -51 93q-17 46 -17 122zM319 -426q12 41 19 68q4 14 8 40.5t8 38.5q12 53 16 80q8 55 11 74h282v-20q-20 -45 -71 -148q-25 -49 -95 -160h-178v27z" />
<glyph unicode="&#x2bc;" horiz-adv-x="438" d="M23 961q10 39 28 126l29 132l24 129l10.5 62.5l8.5 51.5h280l15 -22l-33 -115q-18 -61 -43 -123l-49 -125q-6 -16 -51 -116h-219z" />
<glyph unicode="&#x2c6;" horiz-adv-x="1181" d="M176 1241v27q27 29 57 67l64 78l63 82q25 33 52 74h356q27 -41 51 -74q12 -14 21.5 -28.5t17.5 -24.5l23 -29l65 -78l58 -67v-27h-203q-39 25 -107 78q-51 41 -106 98q-59 -59 -107 -98q-66 -53 -102 -78h-203z" />
<glyph unicode="&#x2c7;" horiz-adv-x="1181" d="M176 1542v27h203q37 -25 102 -78q47 -39 107 -98q55 57 106 98q68 53 107 78h203v-27l-58 -67l-65 -78l-62 -80l-51 -76h-356q-35 53 -52 76q-6 8 -63 80l-64 78q-30 38 -57 67z" />
<glyph unicode="&#x2c9;" horiz-adv-x="1140" d="M262 1241v211h617v-211h-617z" />
<glyph unicode="&#x2d8;" horiz-adv-x="1181" d="M227 1579h170q3 -43 19 -68q18 -31 37 -38q23 -10 57 -15q45 -4 78 -4q25 0 69 4q25 2 58 19q23 10 43 39q16 23 20 63h174q-6 -76 -30 -137q-25 -63 -72 -107q-49 -45 -113 -69q-66 -25 -151 -25q-89 0 -154 25q-70 27 -110.5 67.5t-67.5 106.5q-23 59 -27 139z" />
<glyph unicode="&#x2d9;" horiz-adv-x="624" d="M147 1407q0 43 13 72q10 25 35 45q20 18 53 24q41 8 65 8q23 0 64 -8q33 -6 53 -24q25 -20 35 -45q14 -33 14 -72t-14 -72q-10 -25 -34.5 -45t-53.5 -26q-31 -6 -64 -7q-35 0 -65 7q-29 6 -53.5 26.5t-34.5 44.5q-13 29 -13 72z" />
<glyph unicode="&#x2da;" horiz-adv-x="1181" d="M340 1477q0 57 18 100q20 47 50 74q35 33 79 47q49 16 101 16q49 0 98 -16q47 -16 82 -47q31 -27 53 -74q20 -41 20.5 -98.5t-18.5 -100.5q-18 -41 -55 -75q-35 -33 -80 -48q-49 -16 -100 -16t-101 16q-45 14 -79 48q-27 25 -50 75q-18 44 -18 99zM492 1477q0 -45 24 -70 q27 -27 72 -27q39 0 69 27q27 25 27 70q0 47 -26.5 71.5t-69.5 24.5t-69.5 -24.5t-26.5 -71.5z" />
<glyph unicode="&#x2db;" horiz-adv-x="421" d="M10 -262q0 45 15 80q16 39 38 67q29 37 58 60q45 37 69 55h179q-63 -57 -109 -121q-39 -53 -39 -106q0 -39 23 -62q20 -20 57 -20q33 0 64 6q27 6 51 12v-178q-35 -10 -70 -16q-37 -6 -86 -7q-63 0 -104 17q-47 18 -78 47q-33 29 -51 74q-17 39 -17 92z" />
<glyph unicode="&#x2dc;" horiz-adv-x="1181" d="M197 1239q6 82 26 137q23 63 53 97q37 41 76 57q43 18 97 18q37 0 79 -16l78 -35q10 -4 36 -17.5t40 -19.5q39 -16 74 -16q29 0 49 26q18 25 31 80h149q-6 -82 -27 -137q-23 -59 -53 -96q-33 -39 -76 -57.5t-96 -18.5q-37 0 -80 16q-18 6 -78 37q-39 20 -75 35 q-39 16 -74 17q-31 0 -49 -27q-20 -29 -31 -80h-149z" />
<glyph unicode="&#x2dd;" horiz-adv-x="1181" d="M156 1241v27l45 67q33 53 47 78q8 12 45 82q22 40 37 74h301v-21q-16 -23 -33 -43q-43 -49 -47 -53l-59 -57l-62 -58q-8 -6 -61 -53l-52 -43h-161zM553 1241v27l45 67q33 53 47 78q8 12 45 82q22 40 37 74h301v-21q-16 -23 -33 -43q-43 -49 -47 -53q-27 -29 -57 -57 l-64 -58l-59 -53q-16 -14 -31.5 -25.5t-21.5 -17.5h-162z" />
<glyph unicode="&#x2f3;" horiz-adv-x="681" d="M88 -362.5q0 57.5 18 100.5q20 47 50 74q35 33 80 47q49 16 100 16q49 0 98 -16q47 -16 82 -47q31 -27 53 -74q20 -41 20.5 -98.5t-18.5 -100.5q-18 -41 -55 -76q-35 -33 -80 -47q-49 -16 -100 -16t-100 16q-45 14 -80 47q-29 27 -50 74q-18 43 -18 100.5zM240 -362 q0 -45 24 -70q27 -27 72 -27q39 0 70 27q27 25 26 70q0 47 -26 71q-29 25 -70 25t-70 -25q-26 -24 -26 -71z" />
<glyph unicode="&#x384;" horiz-adv-x="1181" d="M471 1241v27q10 35 18 69q2 14 8.5 39t8.5 39q12 53 16 80q8 55 10 74h283v-21q-20 -45 -72 -147q-25 -49 -94 -160h-178z" />
<glyph unicode="&#x385;" horiz-adv-x="1181" d="M186 1405q0 74 35 102q39 33 94.5 33t94.5 -33q37 -31 36 -102q0 -66 -36 -100q-35 -33 -94.5 -33t-94.5 32.5t-35 100.5zM487 1389v26q12 41 19 68q2 12 8 38.5t8 41.5q12 53 17 79q8 55 10 74h262v-20q-31 -68 -80 -148q-55 -88 -106 -159h-138zM733 1405q0 74 35 102 q39 33 96 33q55 0 94 -33q37 -31 37 -102q0 -66 -37 -100q-35 -33 -94 -33q-61 0 -96 32.5t-35 100.5z" />
<glyph unicode="&#x386;" horiz-adv-x="1329" d="M0 0l475 1468h379l477 -1468h-313l-100 348h-504l-101 -348h-313zM489 608h357l-94 320l-19 59q-6 20 -11 43t-13 47q-4 16 -13.5 50t-13.5 50.5t-16 84.5l-11 -52q-8 -41 -14 -63l-9 -31.5t-9.5 -36t-16.5 -63.5l-14 -53q-2 -12 -6 -20.5t-4 -14.5zM-55 1137v27 q10 35 18 69q2 14 8.5 39t8.5 39q12 53 16 80q8 55 10 74h283v-21q-20 -45 -72 -147q-25 -49 -94 -160h-178z" />
<glyph unicode="&#x387;" horiz-adv-x="583" d="M117 721q0 41 14 80q10 29 37 51q20 18 55 28.5t70 10.5q33 0 67.5 -10t55.5 -29q23 -20 37 -50.5t14 -80t-14 -77.5q-18 -37 -37 -54q-25 -22 -56 -30q-27 -8 -67 -9q-43 0 -70 9q-31 9 -55 30q-25 20 -37 54q-14 36 -14 77z" />
<glyph unicode="&#x388;" horiz-adv-x="1288" d="M327 0v1462h842v-254h-532v-321h495v-254h-495v-377h532v-256h-842zM-57 1137v27q10 35 18 69q2 14 8.5 39t8.5 39q12 53 16 80q8 55 10 74h283v-21q-20 -45 -72 -147q-25 -49 -94 -160h-178z" />
<glyph unicode="&#x389;" horiz-adv-x="1607" d="M307 0v1462h310v-573h497v573h309v-1462h-309v631h-497v-631h-310zM-57 1137v27q10 35 18 69q2 14 8.5 39t8.5 39q12 53 16 80q8 55 10 74h283v-21q-20 -45 -72 -147q-25 -49 -94 -160h-178z" />
<glyph unicode="&#x38a;" horiz-adv-x="1048" d="M318 0v176l178 82v946l-178 82v176h665v-176l-178 -82v-946l178 -82v-176h-665zM-57 1137v27q10 35 18 69q2 14 8.5 39t8.5 39q12 53 16 80q8 55 10 74h283v-21q-20 -45 -72 -147q-25 -49 -94 -160h-178z" />
<glyph unicode="&#x38c;" horiz-adv-x="1628" d="M201 735q0 174 39 309.5t121 235.5q80 98 204.5 151.5t292.5 53.5q166 0 291 -53q121 -51 203 -151.5t121 -238.5q39 -135 39 -309q0 -172 -39 -307q-41 -141 -121 -240q-76 -94 -205 -151q-123 -55 -291 -55t-291 55q-129 57 -204 151q-80 98 -121 240q-39 135 -39 309z M520 733q0 -119 21 -207q23 -98 61 -155q43 -63 105 -97q66 -35 149 -34q86 0 151.5 34.5t104.5 96.5q41 68 60 155q20 102 20 207t-20 207q-18 88 -60 156q-41 66 -102 98q-63 33 -151.5 33t-151.5 -33q-59 -31 -105 -98q-39 -57 -61 -156q-21 -88 -21 -207zM-57 1137v27 q10 35 18 69q2 14 8.5 39t8.5 39q12 53 16 80q8 55 10 74h283v-21q-20 -45 -72 -147q-25 -49 -94 -160h-178z" />
<glyph unicode="&#x38e;" horiz-adv-x="1480" d="M285 1462h336l262 -602l264 602h334l-444 -893v-569h-308v559zM-57 1137v27q10 35 18 69q2 14 8.5 39t8.5 39q12 53 16 80q8 55 10 74h283v-21q-20 -45 -72 -147q-25 -49 -94 -160h-178z" />
<glyph unicode="&#x38f;" horiz-adv-x="1609" d="M145 0v260h371q-72 43 -131 106.5t-100 141.5q-43 84 -64 170q-23 96 -22 194q0 138 43 252q43 113 124 193q86 84 205 125q123 43 283 43t283 -43q119 -41 204 -125q82 -80 125 -192.5t43 -254.5q0 -98 -22 -194q-20 -90 -66 -170q-45 -82 -100 -139.5t-133 -106.5h375 v-260h-644v279q76 39 129 96q55 59 84 121q35 74 45 147q12 80 13 166q0 203 -80 311q-80 106 -256 106.5t-256 -106.5q-80 -108 -80 -313q0 -86 12 -166q10 -70 45 -145q31 -66 82 -121q55 -59 127 -96v-279h-639zM-57 1137v27q10 35 18 69q2 14 8.5 39t8.5 39q12 53 16 80 q8 55 10 74h283v-21q-20 -45 -72 -147q-25 -49 -94 -160h-178z" />
<glyph unicode="&#x390;" horiz-adv-x="792" d="M160 350v768h305v-768q0 -63 33 -96q31 -31 84 -31q41 0 86 10q37 8 82 25v-227q-43 -23 -107 -37q-59 -14 -139 -14q-70 0 -135 18q-68 18 -111 59t-72 113q-26 67 -26 180zM-58 1405q0 74 35 102q39 33 94.5 33t94.5 -33q37 -31 36 -102q0 -66 -36 -100 q-35 -33 -94.5 -33t-94.5 32.5t-35 100.5zM243 1389v26q12 41 19 68q2 12 8 38.5t8 41.5q12 53 17 79q8 55 10 74h262v-20q-31 -68 -80 -148q-55 -88 -106 -159h-138zM489 1405q0 74 35 102q39 33 96 33q55 0 94 -33q37 -31 37 -102q0 -66 -37 -100q-35 -33 -94 -33 q-61 0 -96 32.5t-35 100.5z" />
<glyph unicode="&#x391;" horiz-adv-x="1329" d="M0 0l475 1468h379l477 -1468h-313l-100 348h-504l-101 -348h-313zM489 608h357l-94 320l-19 59q-6 20 -11 43t-13 47q-4 16 -13.5 50t-13.5 50.5t-16 84.5l-11 -52q-8 -41 -14 -63l-9 -31.5t-9.5 -36t-16.5 -63.5l-14 -53q-2 -12 -6 -20.5t-4 -14.5z" />
<glyph unicode="&#x392;" horiz-adv-x="1314" d="M184 0v1462h428q125 0 242 -20q102 -18 174 -62q66 -39 105 -114q37 -70 36 -174q0 -55 -16 -115q-16 -57 -43 -96q-29 -41 -70 -68q-43 -29 -96 -37v-10q53 -12 103 -35q47 -23 83 -61q33 -35 56 -101q20 -59 20 -145q0 -96 -35 -178q-31 -74 -100 -133 q-66 -55 -160 -84q-96 -29 -211 -29h-516zM494 256h182q61 0 102 14q45 16 67.5 39t37.5 64q10 31 10 82q0 47 -10 75q-12 33 -39 58q-29 25 -70 37q-43 12 -106 12h-174v-381zM494 883h161q51 0 97 10q35 8 63 33q27 23 35 51q10 35 10 74q0 84 -53 120q-52 37 -166 37 h-147v-325z" />
<glyph unicode="&#x393;" horiz-adv-x="1064" d="M184 0v1462h842v-256h-532v-1206h-310z" />
<glyph unicode="&#x394;" horiz-adv-x="1265" d="M57 0v178l402 1290h350l399 -1292v-176h-1151zM373 258h520l-219 776q0 2 -4 14.5t-6 22.5l-13 55q-6 29 -12 53.5t-6 34.5q0 -10 -6 -34q-2 -8 -5.5 -26.5t-5.5 -27.5l-8 -28.5t-6 -26.5q-2 -10 -5 -22.5t-3 -16.5z" />
<glyph unicode="&#x395;" horiz-adv-x="1146" d="M184 0v1462h842v-254h-532v-321h495v-254h-495v-377h532v-256h-842z" />
<glyph unicode="&#x396;" horiz-adv-x="1103" d="M49 0v201l619 1005h-600v256h968v-200l-618 -1006h637v-256h-1006z" />
<glyph unicode="&#x397;" horiz-adv-x="1484" d="M184 0v1462h310v-573h497v573h309v-1462h-309v631h-497v-631h-310z" />
<glyph unicode="&#x398;" horiz-adv-x="1546" d="M119 735q0 174 39 309.5t121 235.5q80 98 204.5 151.5t292.5 53.5q166 0 291 -53q121 -51 203 -151.5t121 -238.5q39 -135 39 -309q0 -172 -39 -307q-41 -141 -121 -240q-76 -94 -205 -151q-123 -55 -291 -55t-291 55q-129 57 -204 151q-80 98 -121 240q-39 135 -39 309z M438 733q0 -119 21 -207q23 -98 61 -155q43 -63 105 -97q66 -35 149 -34q86 0 151.5 34.5t104.5 96.5q41 68 60 155q20 102 20 207t-20 207q-18 88 -60 156q-41 66 -102 98q-63 33 -151.5 33t-151.5 -33q-59 -31 -105 -98q-39 -57 -61 -156q-21 -88 -21 -207zM555 616v254 h438v-254h-438z" />
<glyph unicode="&#x399;" horiz-adv-x="796" d="M66 0v176l178 82v946l-178 82v176h665v-176l-178 -82v-946l178 -82v-176h-665z" />
<glyph unicode="&#x39a;" horiz-adv-x="1296" d="M184 0v1462h310v-704l122 207l334 497h344l-467 -659l471 -803h-352l-336 608l-116 -86v-522h-310z" />
<glyph unicode="&#x39b;" horiz-adv-x="1247" d="M0 0l455 1462h338l456 -1462h-313l-244 881q-4 10 -14 57q0 2 -8 36t-13 52l-18 96q-4 18 -9 48t-5 32q-2 -8 -6.5 -35.5t-8.5 -46.5q-8 -47 -18 -94q-6 -27 -9 -49.5t-8 -38.5q-10 -47 -14 -57l-248 -881h-313z" />
<glyph unicode="&#x39c;" horiz-adv-x="1869" d="M184 0v1462h422l316 -1118h6l336 1118h422v-1462h-289v692v60q0 10 1 33.5t1 36t1 38t1 37.5t2 36.5t2 37.5q4 92 6 174h-8l-346 -1145h-285l-321 1147h-9q8 -125 11 -178q2 -25 2 -76l4 -78q0 -12 1 -36.5t1 -35.5v-63v-680h-277z" />
<glyph unicode="&#x39d;" horiz-adv-x="1603" d="M184 0v1462h391l574 -1095h6l-6 149q0 10 -2 31.5t-2 34t-1 35t-1 32.5q0 12 -1 34t-1 32v55v692h278v-1462h-393l-575 1106h-9q8 -102 11 -154l6 -135q2 -47 2 -129v-688h-277z" />
<glyph unicode="&#x39e;" horiz-adv-x="1085" d="M82 0v256h924v-256h-924zM123 1208v254h842v-254h-842zM205 633v254h678v-254h-678z" />
<glyph unicode="&#x39f;" horiz-adv-x="1546" d="M119 735q0 174 39 309.5t121 235.5q80 98 204.5 151.5t292.5 53.5q166 0 291 -53q121 -51 203 -151.5t121 -238.5q39 -135 39 -309q0 -172 -39 -307q-41 -141 -121 -240q-76 -94 -205 -151q-123 -55 -291 -55t-291 55q-129 57 -204 151q-80 98 -121 240q-39 135 -39 309z M438 733q0 -119 21 -207q23 -98 61 -155q43 -63 105 -97q66 -35 149 -34q86 0 151.5 34.5t104.5 96.5q41 68 60 155q20 102 20 207t-20 207q-18 88 -60 156q-41 66 -102 98q-63 33 -151.5 33t-151.5 -33q-59 -31 -105 -98q-39 -57 -61 -156q-21 -88 -21 -207z" />
<glyph unicode="&#x3a0;" horiz-adv-x="1443" d="M184 0v1462h1076v-1462h-310v1204h-456v-1204h-310z" />
<glyph unicode="&#x3a1;" horiz-adv-x="1224" d="M184 0v1462h406q135 0 244 -32q104 -33 170 -89q68 -59 98 -143q31 -86 31 -192q0 -92 -29 -185q-27 -84 -96.5 -153.5t-174 -108.5t-268.5 -39h-71v-520h-310zM494 774h61q131 0 197 51q68 51 67 170q0 106 -59.5 159.5t-186.5 53.5h-79v-434z" />
<glyph unicode="&#x3a3;" horiz-adv-x="1132" d="M78 0v244l434 522l-422 459v237h914v-254h-390q-29 0 -51 2l-65 4q-12 2 -40 3.5t-42 1.5l418 -451l-441 -524q37 2 103 6q10 0 20 1t23 1q6 0 20 1t22.5 1t19.5 1t17 1h29h416v-256h-985z" />
<glyph unicode="&#x3a4;" horiz-adv-x="1122" d="M41 1204v258h1042v-258h-366v-1204h-309v1204h-367z" />
<glyph unicode="&#x3a5;" horiz-adv-x="1193" d="M0 1462h336l262 -602l264 602h334l-444 -893v-569h-308v559z" />
<glyph unicode="&#x3a6;" horiz-adv-x="1677" d="M92 758q0 104 33 200q33 94 102 175q66 76 174 122q106 47 250 48h49v180h279v-180h49q143 0 250 -48q109 -47 174 -122q70 -80 102 -175q33 -96 33 -200q0 -61 -12 -125q-10 -55 -43 -127q-28 -61 -74 -117q-45 -53 -110 -94q-68 -41 -152 -66q-86 -25 -197 -24h-20 v-225h-279v225h-20q-111 0 -197 24q-84 25 -151 66q-66 41 -111 94q-46 55 -74 117q-33 72 -43 127q-12 64 -12 125zM383 760q0 -68 18 -125q16 -53 58 -100q33 -39 96 -66q59 -25 133 -25h12v617h-36q-74 0 -125 -25q-57 -27 -88 -65q-33 -43 -52 -97q-16 -48 -16 -114z M979 444h12q74 0 133 25q63 27 97 66q41 47 57 100q18 57 18 125q0 55 -16 114q-14 47 -51 97q-31 39 -88 65q-51 25 -125 25h-37v-617z" />
<glyph unicode="&#x3a7;" horiz-adv-x="1282" d="M0 0l444 754l-413 708h342l274 -526l268 526h334l-418 -725l453 -737h-354l-299 553l-299 -553h-332z" />
<glyph unicode="&#x3a8;" horiz-adv-x="1710" d="M109 979v483h290v-479q0 -86 19 -145q16 -53 57 -90q39 -35 90 -48q66 -14 125 -14h27v776h278v-776h27q63 0 115 12q57 14 94 45q39 33 59 91q23 61 23 145v483h291v-479q0 -131 -31 -231q-31 -101 -98 -172q-68 -70 -175 -107q-108 -37 -258 -37h-47v-436h-278v436h-47 q-156 0 -258 35q-106 37 -174 107q-68 72 -99 170q-30 100 -30 231z" />
<glyph unicode="&#x3a9;" horiz-adv-x="1519" d="M55 0v260h371q-72 43 -131 106.5t-100 141.5q-43 84 -64 170q-23 96 -22 194q0 138 43 252q43 113 124 193q86 84 205 125q123 43 283 43t283 -43q119 -41 204 -125q82 -80 125 -192.5t43 -254.5q0 -98 -22 -194q-20 -90 -66 -170q-45 -82 -100 -139.5t-133 -106.5h375 v-260h-644v279q76 39 129 96q55 59 84 121q35 74 45 147q12 80 13 166q0 203 -80 311q-80 106 -256 106.5t-256 -106.5q-80 -108 -80 -313q0 -86 12 -166q10 -70 45 -145q31 -66 82 -121q55 -59 127 -96v-279h-639z" />
<glyph unicode="&#x3aa;" horiz-adv-x="796" d="M66 0v176l178 82v946l-178 82v176h665v-176l-178 -82v-946l178 -82v-176h-665zM53 1743q0 41 10 61q12 27 31 41q18 15 43 25q23 8 55.5 8t54.5 -8q25 -9 43 -25q18 -14 31 -41q12 -25 12 -61q0 -35 -12 -59q-12 -27 -31 -41q-18 -15 -43 -25q-23 -8 -55.5 -8t-54.5 8 q-25 9 -43 25q-18 14 -31 41q-10 20 -10 59zM456 1743q0 41 11 61q12 27 30 41q16 14 45 25q23 8 56 8q31 0 53 -8q29 -10 45 -25q18 -14 31 -41q12 -25 12 -61q0 -35 -12 -59q-12 -27 -31 -41q-16 -14 -45 -25q-23 -8 -53 -8q-61 0 -101 33q-41 34 -41 100z" />
<glyph unicode="&#x3ab;" horiz-adv-x="1193" d="M0 1462h336l262 -602l264 602h334l-444 -893v-569h-308v559zM256 1743q0 41 10 61q12 27 31 41q18 15 43 25q23 8 55.5 8t54.5 -8q25 -9 43 -25q18 -14 31 -41q12 -25 12 -61q0 -35 -12 -59q-12 -27 -31 -41q-18 -15 -43 -25q-23 -8 -55.5 -8t-54.5 8q-25 9 -43 25 q-18 14 -31 41q-10 20 -10 59zM659 1743q0 41 11 61q12 27 30 41q16 14 45 25q23 8 56 8q31 0 53 -8q29 -10 45 -25q18 -14 31 -41q12 -25 12 -61q0 -35 -12 -59q-12 -27 -31 -41q-16 -14 -45 -25q-23 -8 -53 -8q-61 0 -101 33q-41 34 -41 100z" />
<glyph unicode="&#x3ac;" horiz-adv-x="1273" d="M102 555q0 152 29 252q31 109 86 182q57 76 133 111q80 37 178 37q51 0 98.5 -10.5t82.5 -30.5q33 -18 63.5 -53t52.5 -74h13l26 75q14 41 41 74h252q-12 -37 -24 -82q-14 -59 -23 -108q-16 -102 -18 -127q-6 -68 -7 -135v-312q0 -35 7 -57q8 -27 18 -37q12 -12 26.5 -18 t32.5 -6q8 0 33 4q16 2 27 6v-240l-25 -8q-18 -8 -35 -10q-25 -4 -39 -6t-38 -2q-57 0 -93 8q-37 8 -73 28q-29 16 -58 52q-20 27 -41 79h-18q-25 -37 -49 -65q-29 -31 -66 -53q-41 -25 -82 -35q-53 -14 -106 -14q-92 0 -166 36q-76 37 -127 111q-55 80 -82 180 q-29 111 -29 248zM414 553q0 -166 45 -248t143 -82q55 0 92 19q41 20 62 59q20 37 32 100q12 61 13 144v12q0 72 -10 143q-10 66 -33 107q-25 43 -62 63q-41 23 -96 23q-95 0 -141 -86q-45 -84 -45 -254zM541 1241v27q10 35 18 69q2 14 8.5 39t8.5 39q12 53 16 80 q8 55 10 74h283v-21q-20 -45 -72 -147q-25 -49 -94 -160h-178z" />
<glyph unicode="&#x3ad;" horiz-adv-x="1073" d="M78 309q0 55 20 107q18 45 54 78q33 31 86 53q35 14 112 31v10q-108 25 -160 92q-53 70 -53 166q0 80 37 135q39 57 98 90q66 37 146 51q88 16 178 17q53 0 109 -6q70 -8 106 -17q70 -16 100 -26q45 -14 88 -35l-86 -221q-57 27 -141 55q-74 25 -160 24q-47 0 -84 -6 q-41 -6 -63 -18q-27 -12 -41 -31q-14 -16 -14 -49q0 -68 57 -94q55 -27 180 -27h131v-211h-145q-137 0 -195 -37q-59 -37 -59 -104q0 -28 12 -49q14 -25 43 -39q31 -16 76 -25q41 -8 113 -8q41 0 110 8q51 6 101 19q33 8 90 28q43 15 73 31v-244q-76 -37 -174 -57 q-96 -20 -233 -20q-133 0 -232 24q-102 27 -159 66q-68 47 -93 102q-28 63 -28 137zM477 1241v27q10 35 18 69q2 14 8.5 39t8.5 39q12 53 16 80q8 55 10 74h283v-21q-20 -45 -72 -147q-25 -49 -94 -160h-178z" />
<glyph unicode="&#x3ae;" horiz-adv-x="1282" d="M160 0v1118h233l41 -143h17q27 45 57.5 73.5t73.5 51.5q35 18 86 28.5t92 10.5q188 0 278 -103q92 -104 92 -317v-1211h-305v1139q0 125 -36.5 186.5t-118.5 61.5q-55 0 -97 -25q-39 -25 -63 -69q-25 -47 -35 -117q-10 -76 -10 -158v-526h-305zM539 1241v27q10 35 18 69 q2 14 8.5 39t8.5 39q12 53 16 80q8 55 10 74h283v-21q-20 -45 -72 -147q-25 -49 -94 -160h-178z" />
<glyph unicode="&#x3af;" horiz-adv-x="792" d="M160 350v768h305v-768q0 -63 33 -96q31 -31 84 -31q41 0 86 10q37 8 82 25v-227q-43 -23 -107 -37q-59 -14 -139 -14q-70 0 -135 18q-68 18 -111 59t-72 113q-26 67 -26 180zM207 1241v27q10 35 18 69q2 14 8.5 39t8.5 39q12 53 16 80q8 55 10 74h283v-21 q-20 -45 -72 -147q-25 -49 -94 -160h-178z" />
<glyph unicode="&#x3b0;" horiz-adv-x="1269" d="M143 510v608h306v-618q0 -145 47 -211q45 -63 143 -64q51 0 90 21q41 23 66 67q27 51 39 121q12 74 12 180q0 86 -4 127q-8 82 -15 123q-2 8 -24 125q-4 25 -29 129h307q10 -39 29 -129q16 -82 23 -123q12 -82 14 -125q4 -86 4 -135q0 -166 -33 -278q-33 -115 -100 -195 q-66 -78 -164 -114.5t-225 -36.5q-137 0 -236 41q-92 39 -149 112q-55 72 -78 168q-23 101 -23 207zM223 1405q0 74 35 102q39 33 94.5 33t94.5 -33q37 -31 36 -102q0 -66 -36 -100q-35 -33 -94.5 -33t-94.5 32.5t-35 100.5zM524 1389v26q12 41 19 68q2 12 8 38.5t8 41.5 q12 53 17 79q8 55 10 74h262v-20q-31 -68 -80 -148q-55 -88 -106 -159h-138zM770 1405q0 74 35 102q39 33 96 33q55 0 94 -33q37 -31 37 -102q0 -66 -37 -100q-35 -33 -94 -33q-61 0 -96 32.5t-35 100.5z" />
<glyph unicode="&#x3b1;" horiz-adv-x="1273" d="M102 555q0 152 29 252q31 109 86 182q57 76 133 111q80 37 178 37q51 0 98.5 -10.5t82.5 -30.5q33 -18 63.5 -53t52.5 -74h13l26 75q14 41 41 74h252q-12 -37 -24 -82q-14 -59 -23 -108q-16 -102 -18 -127q-6 -68 -7 -135v-312q0 -35 7 -57q8 -27 18 -37q12 -12 26.5 -18 t32.5 -6q8 0 33 4q16 2 27 6v-240l-25 -8q-18 -8 -35 -10q-25 -4 -39 -6t-38 -2q-57 0 -93 8q-37 8 -73 28q-29 16 -58 52q-20 27 -41 79h-18q-25 -37 -49 -65q-29 -31 -66 -53q-41 -25 -82 -35q-53 -14 -106 -14q-92 0 -166 36q-76 37 -127 111q-55 80 -82 180 q-29 111 -29 248zM414 553q0 -166 45 -248t143 -82q55 0 92 19q41 20 62 59q20 37 32 100q12 61 13 144v12q0 72 -10 143q-10 66 -33 107q-25 43 -62 63q-41 23 -96 23q-95 0 -141 -86q-45 -84 -45 -254z" />
<glyph unicode="&#x3b2;" horiz-adv-x="1288" d="M160 -492v1588q0 127 39 213q39 88 106 145q68 58 160 86q88 27 199 27q104 0 190 -25q84 -25 150 -74q63 -47 100 -122q35 -70 35 -172q0 -152 -76 -236q-78 -88 -217 -109v-6q82 -8 155 -39q68 -28 117 -73q51 -47 76 -117q25 -68 25 -162q0 -109 -31 -192 q-29 -78 -92 -142q-55 -55 -144 -88q-84 -31 -186 -30q-86 0 -168 16q-70 14 -133 47v-535h-305zM465 293q25 -18 49 -29q31 -14 57 -22q14 -4 58 -15q18 -4 53 -4q111 0 166 61.5t55 174.5q0 66 -20 106q-23 45 -56 70q-31 23 -84 37q-47 12 -100 12h-72v242h54q51 0 94 16 q39 14 63 43q29 33 39 66q12 40 13 86q0 100 -50 145q-51 47 -129 47q-40 0 -73 -12q-41 -14 -62 -41q-27 -33 -41 -80q-14 -45 -14 -129v-774z" />
<glyph unicode="&#x3b3;" horiz-adv-x="1101" d="M2 1118h317l146 -493l27 -95q12 -45 26 -108q4 -18 21 -100q14 -70 14 -74h6l8 74q6 41 19 88q8 31 24 100q8 35 29 100l145 508h318l-389 -1100q-14 -41 -39 -131q-12 -45 -29 -135q-12 -72 -18 -129q-6 -66 -6 -115h-324q0 20 8 103q4 37 21 129q8 45 32 139 q20 76 39 133z" />
<glyph unicode="&#x3b4;" horiz-adv-x="1226" d="M102 438q0 106 27 185q27 76 78 137q53 61 115 96q70 37 143 62q-53 41 -78 65q-49 49 -68 78q-25 39 -45 92q-16 43 -16 107q0 72 31 131q31 58 86 98q45 33 133 57q74 20 174 21q72 0 121 -8q74 -12 108 -23q78 -23 101 -33q4 -2 100 -47l-108 -215q-70 39 -162 72 q-80 29 -156 28q-39 0 -61 -8q-29 -10 -41 -22q-23 -20 -25 -31q-6 -18 -6 -39q0 -27 16 -53q16 -25 47 -53q23 -20 78 -58q49 -33 109 -65q168 -96 244 -217q78 -125 77 -283q0 -135 -37 -238q-37 -101 -104 -165q-70 -66 -162 -97q-102 -33 -212.5 -32.5t-202.5 30.5 q-90 31 -160 90q-72 61 -107 144q-37 85 -37 194zM416 451q0 -45 12 -89q10 -39 39 -73q23 -27 61 -47q33 -16 82 -17q98 0 150 68q53 70 53 199q0 55 -12.5 98t-34.5 82q-14 25 -55 65q-29 29 -72 56q-35 -12 -76 -37q-35 -20 -71 -66q-31 -35 -54 -98q-22 -61 -22 -141z " />
<glyph unicode="&#x3b5;" horiz-adv-x="1073" d="M78 309q0 55 20 107q18 45 54 78q33 31 86 53q35 14 112 31v10q-108 25 -160 92q-53 70 -53 166q0 80 37 135q39 57 98 90q66 37 146 51q88 16 178 17q53 0 109 -6q70 -8 106 -17q70 -16 100 -26q45 -14 88 -35l-86 -221q-57 27 -141 55q-74 25 -160 24q-47 0 -84 -6 q-41 -6 -63 -18q-27 -12 -41 -31q-14 -16 -14 -49q0 -68 57 -94q55 -27 180 -27h131v-211h-145q-137 0 -195 -37q-59 -37 -59 -104q0 -28 12 -49q14 -25 43 -39q31 -16 76 -25q41 -8 113 -8q41 0 110 8q51 6 101 19q33 8 90 28q43 15 73 31v-244q-76 -37 -174 -57 q-96 -20 -233 -20q-133 0 -232 24q-102 27 -159 66q-68 47 -93 102q-28 63 -28 137z" />
<glyph unicode="&#x3b6;" horiz-adv-x="968" d="M102 467q0 127 41 250q39 117 111 229q66 104 162 209q74 80 194 195q-10 -4 -43 -9q-8 -2 -26.5 -3t-26.5 -1q-37 -4 -55 -4h-43h-256v223h792v-182q-135 -125 -209 -209q-96 -111 -145 -182q-70 -102 -96 -156q-37 -74 -55.5 -135t-24.5 -114.5t-6 -96.5 q0 -72 18.5 -119t48.5 -71q29 -25 80 -41q37 -12 105 -27q72 -16 137 -45q59 -27 90 -57q35 -35 49 -72t14 -86q0 -45 -12 -90q-12 -49 -31 -90q-23 -53 -43 -86q-20 -35 -51 -76h-307l17.5 24.5l20.5 30l17 25.5q31 49 49 82q14 27 31 72q12 35 13 61q0 12 -7 25 q-8 14 -22 24q-16 10 -49 21q-43 12 -84 22q-98 20 -166 53q-72 37 -125 93q-51 53 -80 135q-27 74 -27 178z" />
<glyph unicode="&#x3b7;" horiz-adv-x="1282" d="M160 0v1118h233l41 -143h17q27 45 57.5 73.5t73.5 51.5q35 18 86 28.5t92 10.5q188 0 278 -103q92 -104 92 -317v-1211h-305v1139q0 125 -36.5 186.5t-118.5 61.5q-55 0 -97 -25q-39 -25 -63 -69q-25 -47 -35 -117q-10 -76 -10 -158v-526h-305z" />
<glyph unicode="&#x3b8;" horiz-adv-x="1224" d="M102 780q0 195 27 336q27 145 90 252q59 100 158 158q92 53 233 53q129 0 226 -53q94 -51 159 -156q61 -98 95 -252q33 -158 32 -338q0 -182 -28 -336q-27 -145 -90 -251q-61 -102 -158 -158q-98 -55 -236 -55q-131 0 -225 55t-157.5 157.5t-94.5 251.5q-31 148 -31 336z M414 672q4 -236 49 -353q47 -119 147 -118q101 0 148 116q45 115 51 355h-395zM416 899h393q-6 233 -51 344q-47 115 -145.5 115t-145.5 -115q-45 -111 -51 -344z" />
<glyph unicode="&#x3b9;" horiz-adv-x="792" d="M160 350v768h305v-768q0 -63 33 -96q31 -31 84 -31q41 0 86 10q37 8 82 25v-227q-43 -23 -107 -37q-59 -14 -139 -14q-70 0 -135 18q-68 18 -111 59t-72 113q-26 67 -26 180z" />
<glyph unicode="&#x3ba;" horiz-adv-x="1206" d="M160 0v1118h305v-293q0 -55 -2 -85.5t-6 -84.5l-8 -90h4l127 195l276 358h326l-404 -497l430 -621h-344l-280 418l-119 -82v-336h-305z" />
<glyph unicode="&#x3bb;" horiz-adv-x="1196" d="M8 0l443 1057l-33 92q-23 61 -39 86q-23 33 -45 49q-20 14 -53 23q-27 6 -66 6q-18 0 -51 -4q-29 -4 -43 -9v252q8 2 33 7q12 2 41 6q14 2 45 2q8 0 20 1t19 1q94 0 157 -25q68 -27 115 -69q51 -49 84 -113q41 -82 63 -152l265 -772q25 -74 41 -104q20 -37 40 -62 q20 -23 37 -28q25 -8 41 -8q18 0 31 2q20 4 35 8v-236q-14 -6 -33 -12q-16 -4 -45 -8q-8 -2 -23.5 -4t-23.5 -4q-16 -2 -43 -2q-57 0 -102 16q-43 14 -78 47q-31 27 -56 72q-23 39 -41 92l-92 272l-41 125q-20 66 -28 111h-7l-8 -28.5l-8 -29.5l-16 -59l-17 -59 q-12 -37 -18 -54l-184 -485h-316z" />
<glyph unicode="&#x3bc;" horiz-adv-x="1288" d="M160 -492v1610h305v-653q0 -121 37 -182q35 -59 119 -60q58 0 98 25q37 23 61.5 70t34.5 116q10 76 10 158v526h305v-1118h-233l-43 150h-12q-31 -80 -88 -127q-53 -43 -127 -43q-49 0 -99 22q-43 20 -73 68l6 -84q2 -25 2 -80q0 -14 1 -40t1 -38v-320h-305z" />
<glyph unicode="&#x3bd;" horiz-adv-x="1155" d="M6 1118h313l191 -620q2 -8 8 -25.5t8 -28.5l17 -63q4 -14 7 -30.5t7 -31.5l14 -49h9q49 72 88 164q39 90 59 191q25 121 33 225q10 137 10 268h307q0 -166 -18 -313q-18 -143 -65.5 -282.5t-125.5 -264.5q-82 -133 -198 -258h-275z" />
<glyph unicode="&#x3be;" horiz-adv-x="968" d="M102 438q0 70 21 125q20 57 57 103q33 43 90 82q55 39 115 61v10q-104 25 -161.5 88.5t-57.5 165.5q0 59 16 98q14 37 54 74q31 31 90 58q55 25 129 43q-57 -2 -119 -7q-6 0 -22.5 -1t-24.5 -1t-22.5 -1t-20.5 -1q-8 0 -21.5 -1t-17.5 -1h-25h-22v223h743v-210h-65 q-68 0 -140 -17q-63 -14 -118 -47q-45 -27 -80 -78q-31 -45 -31 -112q0 -47 10 -76q12 -35 39 -55q29 -23 74 -35q39 -10 115 -11h143v-210h-148q-152 0 -219 -61.5t-67 -184.5q0 -66 18.5 -107t49 -63.5t79.5 -38.5q37 -12 105 -27q72 -16 137 -45q59 -27 90 -57 q35 -35 49 -72t14 -86q0 -45 -12 -90q-12 -49 -31 -90q-23 -53 -43 -86q-20 -35 -51 -76h-307l17.5 24.5l20.5 30l17 25.5q31 49 49 82q14 27 31 72q12 35 13 61q0 12 -7 25q-8 14 -22 24q-16 10 -49 21q-43 12 -84 22q-88 18 -166 53q-68 31 -125 89q-51 51 -80 124 q-27 68 -27 164z" />
<glyph unicode="&#x3bf;" horiz-adv-x="1226" d="M102 561q0 145 35 248q37 109 103 180q72 78 161 113q95 37 215 37q111 0 203 -37t162 -113q68 -74 104 -180q39 -113 39 -248q0 -139 -37 -248q-39 -117 -100 -182q-68 -74 -162 -113q-92 -39 -215 -38q-115 0 -204 38q-94 41 -160 113q-70 76 -107 182q-37 109 -37 248 zM414 561q0 -164 47 -252q45 -84 153 -84q106 0 152 84q47 88 47 252q0 166 -47 250q-45 82 -154 82q-106 0 -151 -82q-47 -84 -47 -250z" />
<glyph unicode="&#x3c0;" horiz-adv-x="1449" d="M25 885v131l178 102h1177v-233h-235v-566q0 -51 26 -75q28 -25 68 -25q31 0 68 10q34 9 61 25v-219q-14 -10 -43 -21q-45 -16 -53 -18l-62 -12q-41 -4 -63 -4q-61 0 -127 20q-59 18 -98 57q-37 37 -60 103q-23 63 -22 147v578h-277v-885h-305v885h-233z" />
<glyph unicode="&#x3c1;" horiz-adv-x="1212" d="M121 -492v1053q0 143 35 246q35 104 102 180q61 72 158 113q90 39 207 39q111 0 196 -39q90 -41 154 -113q66 -76 102 -182q37 -108 37 -246q0 -147 -29 -248q-31 -106 -86 -180q-53 -72 -135 -113q-78 -39 -176 -38q-68 0 -139 22q-66 20 -119 55h-16l8 -90q3 -40 6 -86 q2 -31 2 -92v-281h-307zM428 311q39 -45 86 -65.5t102 -20.5q47 0 82 19q37 20 58 59q25 45 32 105q10 72 10.5 151.5t-10.5 151.5q-8 59 -32 104q-20 39 -58 59q-35 18 -82 19q-51 0 -84 -19q-35 -18 -57 -55t-34.5 -98.5t-12.5 -145.5v-264z" />
<glyph unicode="&#x3c2;" horiz-adv-x="968" d="M102 494q0 186 37 309t106.5 198.5t164 106.5t215.5 31q90 0 172 -20.5t159 -59.5l-88 -232q-70 31 -127 47q-61 18 -116 19q-111 0 -160 -98q-51 -102 -51 -293q0 -70 18.5 -113t50.5 -70q34 -28 80 -43q16 -6 105 -28q84 -18 137 -45q57 -29 90 -61.5t49 -75.5 q14 -37 14 -89q0 -47 -12 -94q-14 -51 -30.5 -94t-43.5 -88q-12 -20 -51 -80h-307l55 86q33 51 49 84q14 29 31 78q12 37 13 63q0 14 -7 27q-8 14 -22 25q-18 12 -49 24q-16 6 -84 23q-96 23 -166 57.5t-125 95.5q-52 58 -80 135q-27 75 -27 175z" />
<glyph unicode="&#x3c3;" horiz-adv-x="1284" d="M102 545q0 162 41 264q43 109 119 178.5t189 99.5q119 33 249 33h545v-223h-284q25 -27 69 -84q31 -39 57 -96q23 -49 39 -113q14 -57 15 -129q0 -111 -33 -196q-33 -84 -100 -156q-63 -68 -164 -105q-104 -39 -226 -38q-115 0 -210 36q-98 39 -164 107q-66 70 -105 178 q-37 105 -37 244zM416 545q0 -74 12 -131.5t37 -100.5q27 -45 63 -65q41 -23 94.5 -23t92.5 20.5t63.5 61.5t36.5 94q12 55 12 121q0 119 -28 211q-27 86 -82 164h-43q-68 0 -117 -18q-47 -18 -80 -59.5t-47 -108.5q-14 -64 -14 -166z" />
<glyph unicode="&#x3c4;" horiz-adv-x="1060" d="M41 889v127l168 102h774v-229h-356v-539q0 -63 32 -96q31 -31 84 -31q41 0 86 10q37 8 82 25v-227q-43 -23 -106 -37q-59 -14 -139 -14q-72 0 -136 18q-66 18 -108 59q-47 43 -74 113q-27 68 -26 180v539h-281z" />
<glyph unicode="&#x3c5;" horiz-adv-x="1269" d="M143 510v608h306v-618q0 -145 47 -211q45 -63 143 -64q51 0 90 21q41 23 66 67q27 51 39 121q12 74 12 180q0 86 -4 127q-8 82 -15 123q-2 8 -24 125q-4 25 -29 129h307q10 -39 29 -129q16 -82 23 -123q12 -82 14 -125q4 -86 4 -135q0 -166 -33 -278q-33 -115 -100 -195 q-66 -78 -164 -114.5t-225 -36.5q-137 0 -236 41q-92 39 -149 112q-55 72 -78 168q-23 101 -23 207z" />
<glyph unicode="&#x3c6;" horiz-adv-x="1579" d="M102 555q0 80 17 166q14 76 47 153.5t72 139.5q37 59 94 129l221 -144q-35 -47 -70 -104q-29 -49 -51 -107q-20 -51 -33 -112q-10 -49 -10 -127t19 -137q18 -57 51 -97q35 -41 76 -61q47 -25 94 -35v516q0 96 28 172q31 80 80 127q55 53 123 76q71 25 154 25 q106 0 192 -37q84 -37 148 -109q57 -66 92 -170q33 -98 33 -227q0 -141 -47.5 -252t-124.5 -182q-84 -76 -181 -117q-98 -41 -215 -53v-480h-282v480q-106 12 -209 51q-92 35 -166 106q-70 68 -111 170q-41 105 -41 240zM911 219q59 6 112.5 37t88.5 78q37 49 55 115 q18 65 19 141q0 74 -8 125q-8 55 -29 102q-18 43 -51 69.5t-78 26.5q-53 0 -80 -39q-29 -41 -29 -137v-518z" />
<glyph unicode="&#x3c7;" horiz-adv-x="1150" d="M-49 -492l471 885l-123 352q-10 35 -28.5 64t-32.5 41q-16 14 -37 20q-18 6 -41 7q-10 0 -47 -5q-33 -4 -60 -14v244q63 18 84 22q39 8 92 9q63 0 117 -17q47 -14 84 -51q35 -35 59.5 -90t49.5 -129l69 -221l248 493h307l-424 -762l183 -475q12 -35 28 -57q20 -27 31 -35 q23 -14 41 -20q14 -4 47 -5q27 0 41 3q37 6 53 10v-238q-8 -2 -41 -14q-12 -4 -41 -8q-14 -2 -47 -6q-16 -2 -55 -3q-66 0 -115 19q-53 20 -88 55q-41 41 -65 90q-33 66 -52 129l-100 326l-283 -619h-325z" />
<glyph unicode="&#x3c8;" horiz-adv-x="1662" d="M143 555v563h291v-571q0 -76 15 -148q12 -59 43 -100q27 -33 79 -57q47 -20 123 -27v1339h283v-1337q82 10 129 29q51 20 88 63q35 39 53 107q16 57 17 162q0 127 -23 266q-18 109 -57 274h282q43 -152 60 -276q18 -133 18 -267q0 -152 -45 -268q-43 -111 -119 -180 q-78 -72 -180 -104q-109 -35 -223 -41v-474h-283v474q-120 3 -221 36q-102 35 -174 101q-74 68 -115 176q-41 110 -41 260z" />
<glyph unicode="&#x3c9;" horiz-adv-x="1724" d="M119 543q0 82 6 155q6 80 20 142q23 98 35 137q10 31 51 141h293q-66 -139 -96 -274q-29 -129 -29 -291q0 -70 11 -137q8 -55 32 -105q23 -47 56 -69q34 -25 80 -25q41 0 69.5 16.5t44.5 49.5q18 39 25 77q6 45 6 107v295h281v-295q0 -45 8 -107q6 -45 22.5 -77.5t45 -49 t69.5 -16.5q46 0 80 24.5t55 67.5q25 47 33 107q10 68 10 133q0 152 -31 293q-31 145 -94 276h293q41 -111 51 -141q12 -39 35 -137q14 -61 21 -142q6 -74 6 -155q0 -127 -27 -228q-29 -106 -82 -178q-55 -74 -135 -117q-76 -41 -188 -40q-66 0 -111 14q-53 16 -88 43 q-37 29 -64 65q-27 39 -45 88h-10q-18 -49 -45 -88q-27 -37 -63 -65q-37 -28 -86 -43q-45 -14 -113 -14q-113 0 -189 40q-80 43 -135 117q-53 72 -82 178q-26 101 -26 228z" />
<glyph unicode="&#x3ca;" horiz-adv-x="792" d="M160 350v768h305v-768q0 -63 33 -96q31 -31 84 -31q41 0 86 10q37 8 82 25v-227q-43 -23 -107 -37q-59 -14 -139 -14q-70 0 -135 18q-68 18 -111 59t-72 113q-26 67 -26 180zM2 1405q0 41 10 61q12 27 31 41q18 15 43 25q23 8 55.5 8t54.5 -8q25 -9 43 -25q18 -14 31 -41 q12 -25 12 -61q0 -35 -12 -59q-12 -27 -31 -41q-18 -15 -43 -25q-23 -8 -55.5 -8t-54.5 8q-25 9 -43 25q-18 14 -31 41q-10 20 -10 59zM405 1405q0 41 11 61q12 27 30 41q16 14 45 25q23 8 56 8q31 0 53 -8q29 -10 45 -25q18 -14 31 -41q12 -25 12 -61q0 -35 -12 -59 q-12 -27 -31 -41q-16 -14 -45 -25q-23 -8 -53 -8q-61 0 -101 33q-41 34 -41 100z" />
<glyph unicode="&#x3cb;" horiz-adv-x="1269" d="M143 510v608h306v-618q0 -145 47 -211q45 -63 143 -64q51 0 90 21q41 23 66 67q27 51 39 121q12 74 12 180q0 86 -4 127q-8 82 -15 123q-2 8 -24 125q-4 25 -29 129h307q10 -39 29 -129q16 -82 23 -123q12 -82 14 -125q4 -86 4 -135q0 -166 -33 -278q-33 -115 -100 -195 q-66 -78 -164 -114.5t-225 -36.5q-137 0 -236 41q-92 39 -149 112q-55 72 -78 168q-23 101 -23 207zM293 1405q0 41 10 61q12 27 31 41q18 15 43 25q23 8 55.5 8t54.5 -8q25 -9 43 -25q18 -14 31 -41q12 -25 12 -61q0 -35 -12 -59q-12 -27 -31 -41q-18 -15 -43 -25 q-23 -8 -55.5 -8t-54.5 8q-25 9 -43 25q-18 14 -31 41q-10 20 -10 59zM696 1405q0 41 11 61q12 27 30 41q16 14 45 25q23 8 56 8q31 0 53 -8q29 -10 45 -25q18 -14 31 -41q12 -25 12 -61q0 -35 -12 -59q-12 -27 -31 -41q-16 -14 -45 -25q-23 -8 -53 -8q-61 0 -101 33 q-41 34 -41 100z" />
<glyph unicode="&#x3cc;" horiz-adv-x="1226" d="M102 561q0 145 35 248q37 109 103 180q72 78 161 113q95 37 215 37q111 0 203 -37t162 -113q68 -74 104 -180q39 -113 39 -248q0 -139 -37 -248q-39 -117 -100 -182q-68 -74 -162 -113q-92 -39 -215 -38q-115 0 -204 38q-94 41 -160 113q-70 76 -107 182q-37 109 -37 248 zM414 561q0 -164 47 -252q45 -84 153 -84q106 0 152 84q47 88 47 252q0 166 -47 250q-45 82 -154 82q-106 0 -151 -82q-47 -84 -47 -250zM506 1241v27q10 35 18 69q2 14 8.5 39t8.5 39q12 53 16 80q8 55 10 74h283v-21q-20 -45 -72 -147q-25 -49 -94 -160h-178z" />
<glyph unicode="&#x3cd;" horiz-adv-x="1269" d="M143 510v608h306v-618q0 -145 47 -211q45 -63 143 -64q51 0 90 21q41 23 66 67q27 51 39 121q12 74 12 180q0 86 -4 127q-8 82 -15 123q-2 8 -24 125q-4 25 -29 129h307q10 -39 29 -129q16 -82 23 -123q12 -82 14 -125q4 -86 4 -135q0 -166 -33 -278q-33 -115 -100 -195 q-66 -78 -164 -114.5t-225 -36.5q-137 0 -236 41q-92 39 -149 112q-55 72 -78 168q-23 101 -23 207zM522 1241v27q10 35 18 69q2 14 8.5 39t8.5 39q12 53 16 80q8 55 10 74h283v-21q-20 -45 -72 -147q-25 -49 -94 -160h-178z" />
<glyph unicode="&#x3ce;" horiz-adv-x="1724" d="M119 543q0 82 6 155q6 80 20 142q23 98 35 137q10 31 51 141h293q-66 -139 -96 -274q-29 -129 -29 -291q0 -70 11 -137q8 -55 32 -105q23 -47 56 -69q34 -25 80 -25q41 0 69.5 16.5t44.5 49.5q18 39 25 77q6 45 6 107v295h281v-295q0 -45 8 -107q6 -45 22.5 -77.5t45 -49 t69.5 -16.5q46 0 80 24.5t55 67.5q25 47 33 107q10 68 10 133q0 152 -31 293q-31 145 -94 276h293q41 -111 51 -141q12 -39 35 -137q14 -61 21 -142q6 -74 6 -155q0 -127 -27 -228q-29 -106 -82 -178q-55 -74 -135 -117q-76 -41 -188 -40q-66 0 -111 14q-53 16 -88 43 q-37 29 -64 65q-27 39 -45 88h-10q-18 -49 -45 -88q-27 -37 -63 -65q-37 -28 -86 -43q-45 -14 -113 -14q-113 0 -189 40q-80 43 -135 117q-53 72 -82 178q-26 101 -26 228zM768 1241v27q10 35 18 69q2 14 8.5 39t8.5 39q12 53 16 80q8 55 10 74h283v-21q-20 -45 -72 -147 q-25 -49 -94 -160h-178z" />
<glyph unicode="&#x3d1;" horiz-adv-x="1437" d="M41 735q61 37 135 60q84 27 166 26q88 0 141 -47q51 -45 52 -135q0 -61 -7 -129q-8 -90 -8 -139q0 -35 8 -60q10 -31 28.5 -49t53.5 -33q31 -12 76 -12q125 0 191 115q63 113 63 362v13v18v18q0 4 -1 8.5t-1 6.5q-170 2 -297 47q-115 39 -197 113q-72 63 -108 155 q-35 88 -35 174q0 76 23 133q25 61 73.5 104.5t122.5 68t176 24.5q127 0 219 -43q90 -41 158 -123q66 -80 103 -184q37 -109 55 -236h145v-229h-129q0 -2 1 -8t1 -11v-24v-25v-20q0 -94 -12 -180q-10 -74 -43 -164q-25 -72 -76 -142q-47 -66 -112 -110q-72 -49 -156 -72 q-96 -27 -201 -26q-125 0 -207 28q-78 27 -125 74q-45 45 -61 106.5t-16 122.5q0 52 6 105q6 51 6 96q0 37 -14 55q-12 14 -39 15q-20 0 -47 -11q-23 -8 -39 -18zM600 1235q0 -49 16 -88q20 -45 58 -78q43 -37 100 -55q68 -23 156 -23q-10 92 -29 152q-20 66 -49 112 q-27 43 -66 70q-33 23 -77 23q-51 0 -80 -27t-29 -86z" />
<glyph unicode="&#x3d2;" horiz-adv-x="1208" d="M0 1462h336l260 -610l47 131l49 127l16.5 37.5l18.5 42l16 35.5q14 31 52 96q20 35 49 68q27 31 55 47q39 25 70 30q35 8 88 9q45 0 78 -7q41 -8 69 -20v-229l-11 3l-19 5q-25 4 -39 4q-8 0 -29 -4q-8 -2 -29 -15q-10 -6 -28 -28q-14 -16 -33 -45q-6 -10 -53 -95 q-33 -61 -70 -139q-33 -72 -74 -170q-39 -92 -65 -180v-555h-308v559z" />
<glyph unicode="&#x3d6;" horiz-adv-x="1984" d="M51 889v127l168 102h1714v-229h-258q25 -84 45 -191q18 -98 19 -196q0 -127 -27 -221q-27 -96 -82 -164q-57 -70 -135 -103q-82 -35 -188 -34q-68 0 -113 14q-49 15 -86 43q-37 29 -64 65q-27 39 -45 88h-10q-18 -49 -45 -88q-27 -37 -63 -65q-37 -28 -86 -43 q-45 -14 -113 -14q-106 0 -188 34q-78 33 -136 103q-55 68 -82 164q-27 94 -26 221q0 98 18 196q20 106 45 191h-262zM530 512q0 -150 43 -223q41 -72 136 -72q41 0 69.5 16.5t44.5 49.5q18 39 25 77q6 45 6 107v137h281v-137q0 -45 8 -107q6 -45 22.5 -77.5t45 -49 t69.5 -16.5q92 0 135 71.5t43 219.5q0 84 -16 188q-14 96 -43 193h-811q-29 -98 -43 -189q-15 -88 -15 -188z" />
<glyph unicode="&#x401;" horiz-adv-x="1146" d="M184 0v1462h842v-254h-532v-321h495v-254h-495v-377h532v-256h-842zM273 1743q0 41 10 61q12 27 31 41q18 15 43 25q23 8 55.5 8t54.5 -8q25 -9 43 -25q18 -14 31 -41q12 -25 12 -61q0 -35 -12 -59q-12 -27 -31 -41q-18 -15 -43 -25q-23 -8 -55.5 -8t-54.5 8 q-25 9 -43 25q-18 14 -31 41q-10 20 -10 59zM676 1743q0 41 11 61q12 27 30 41q16 14 45 25q23 8 56 8q31 0 53 -8q29 -10 45 -25q18 -14 31 -41q12 -25 12 -61q0 -35 -12 -59q-12 -27 -31 -41q-16 -14 -45 -25q-23 -8 -53 -8q-61 0 -101 33q-41 34 -41 100z" />
<glyph unicode="&#x402;" horiz-adv-x="1566" d="M41 1204v258h1032v-258h-356v-272h303q106 0 184 -27q90 -31 139 -78q57 -53 86 -122.5t29 -167.5v-129q0 -209 -102.5 -317.5t-304.5 -108.5q-47 0 -105 10q-59 10 -98 28v256q39 -18 90 -32q37 -10 82 -11q16 0 49 5q23 2 41 18t29 47q10 35 10 84v127q0 86 -35 125 q-33 35 -115 35h-282v-674h-309v1204h-367z" />
<glyph unicode="&#x403;" horiz-adv-x="1064" d="M184 0v1462h842v-256h-532v-1206h-310zM424 1579v27l45 67q33 53 47 78q8 12 45 82q22 40 37 74h342v-21q-16 -23 -33 -43q-43 -49 -47 -53q-27 -29 -57 -57l-64 -58l-59 -53q-16 -14 -31.5 -25.5t-21.5 -17.5h-203z" />
<glyph unicode="&#x404;" horiz-adv-x="1304" d="M119 729q0 170 45 305q45 133 133 238q84 100 215 155q129 55 293 56q113 0 219 -27q109 -27 209 -76l-100 -252q-88 43 -164 68q-86 29 -164 29q-76 0 -137 -25q-66 -27 -109 -70q-51 -51 -76 -112q-28 -68 -37 -154h551v-254h-553q12 -184 103 -276q92 -96 258 -96 q94 0 178 20q102 25 195 57v-260q-33 -14 -95 -35q-31 -10 -96 -22t-100 -14q-70 -4 -111 -4q-170 0 -293 55q-129 57 -204 151q-82 100 -121 235.5t-39 307.5z" />
<glyph unicode="&#x405;" horiz-adv-x="1071" d="M94 68v288q80 -39 96 -45l101 -39q41 -16 100 -26q55 -10 101 -10q51 0 88 12q43 14 59 31q25 25 33 49q10 31 10 63q0 41 -18 72q-23 37 -48 59q-27 25 -77 53l-99 56l-102 57q-53 31 -109 86q-49 49 -84 121q-35 74 -34 172q0 102 32 176q37 84 93 131q63 53 145 80 q90 29 192 29q53 0 103 -6q37 -4 100 -21q39 -10 101 -33q53 -20 102 -43l-100 -241q-55 27 -84 37q-27 10 -76 26q-27 8 -72 17q-37 6 -72 6q-80 0 -120.5 -41t-40.5 -111q0 -37 12 -65.5t41 -53.5q37 -33 70 -51l106 -59q76 -41 137 -82q59 -39 109 -92 q47 -51 71.5 -114.5t24.5 -149.5q0 -98 -33 -177q-33 -76 -98 -133q-63 -55 -158 -86q-92 -31 -215 -30q-102 0 -205 22q-96 21 -182 66z" />
<glyph unicode="&#x406;" horiz-adv-x="796" d="M66 0v176l178 82v946l-178 82v176h665v-176l-178 -82v-946l178 -82v-176h-665z" />
<glyph unicode="&#x407;" horiz-adv-x="796" d="M66 0v176l178 82v946l-178 82v176h665v-176l-178 -82v-946l178 -82v-176h-665zM53 1743q0 41 10 61q12 27 31 41q18 15 43 25q23 8 55.5 8t54.5 -8q25 -9 43 -25q18 -14 31 -41q12 -25 12 -61q0 -35 -12 -59q-12 -27 -31 -41q-18 -15 -43 -25q-23 -8 -55.5 -8t-54.5 8 q-25 9 -43 25q-18 14 -31 41q-10 20 -10 59zM456 1743q0 41 11 61q12 27 30 41q16 14 45 25q23 8 56 8q31 0 53 -8q29 -10 45 -25q18 -14 31 -41q12 -25 12 -61q0 -35 -12 -59q-12 -27 -31 -41q-16 -14 -45 -25q-23 -8 -53 -8q-61 0 -101 33q-41 34 -41 100z" />
<glyph unicode="&#x408;" horiz-adv-x="677" d="M-199 -150q25 -6 78 -14q39 -6 88 -6q41 0 86 10q35 8 68 35q31 25 47 66q16 43 16 102v1419h310v-1409q0 -125 -37 -217q-39 -94 -101 -151q-63 -57 -157 -86q-96 -29 -201 -29q-66 0 -115 6q-41 4 -82 16v258z" />
<glyph unicode="&#x409;" horiz-adv-x="1961" d="M16 2v254q12 -4 52 -14q25 -6 57 -6q31 0 51 14q23 16 41.5 49t32.5 90q16 61 31 143l24 142q27 154 35 215l39 268q16 106 39 305h815v-561h108q139 0 237.5 -32.5t164.5 -92.5q70 -63 98 -141q31 -82 31 -178q0 -109 -33 -193q-33 -86 -100 -143q-68 -59 -174 -90 q-104 -31 -250 -31h-391v1204h-250l-27 -207l-29 -223l-30 -213q-10 -68 -33 -180q-23 -98 -49 -170q-29 -76 -74 -127q-43 -49 -110 -78q-61 -27 -158 -26q-41 0 -78 6q-50 8 -70 16zM1233 254h84q53 0 100 10q45 10 76 35t49 63q16 35 16.5 94.5t-18 96.5t-51.5 57 q-29 18 -84 29q-43 8 -109 8h-63v-393z" />
<glyph unicode="&#x40a;" horiz-adv-x="1968" d="M184 0v1462h310v-573h436v573h309v-561h109q141 0 237 -33q100 -35 164 -92q70 -63 98 -141q31 -82 31 -178q0 -109 -33 -193q-33 -86 -100 -143q-68 -59 -174 -90q-104 -31 -250 -31h-391v631h-436v-631h-310zM1239 254h84q49 0 100 10q45 8 78 35t47 63q16 43 17 95 q0 59 -19 96q-16 35 -53 57q-29 18 -82 29q-43 8 -108 8h-64v-393z" />
<glyph unicode="&#x40b;" horiz-adv-x="1566" d="M41 1204v258h1032v-258h-356v-272h303q106 0 184 -27q90 -31 139 -78q57 -53 86 -122.5t29 -167.5v-537h-309v514q0 86 -35 125q-33 35 -115 35h-282v-674h-309v1204h-367z" />
<glyph unicode="&#x40c;" horiz-adv-x="1292" d="M184 0v1462h310v-708l442 708h330l-451 -702l479 -760h-352l-448 741v-741h-310zM498 1579v27l45 67q33 53 47 78q8 12 45 82q22 40 37 74h342v-21q-16 -23 -33 -43q-43 -49 -47 -53q-27 -29 -57 -57l-64 -58l-59 -53q-16 -14 -31.5 -25.5t-21.5 -17.5h-203z" />
<glyph unicode="&#x40e;" horiz-adv-x="1253" d="M0 1462h328l276 -631q2 -6 8 -18l9 -18q2 -8 8 -22.5t8 -20.5q8 -20 14 -39q8 -25 8 -27h11q2 8 6 27q2 12 10 41l12 41q4 14 13 34l225 633h319l-424 -1034q-47 -115 -88 -188q-47 -86 -106 -141.5t-145 -88.5q-82 -31 -205 -30q-31 0 -109 8q-53 6 -110 22v266 q41 -18 108 -28q51 -8 111 -8q43 0 86 14q41 12 61 35q20 18 41 55q18 31 31 68zM139 1937h273q6 -57 18 -94q10 -31 39 -55q20 -18 64 -29q33 -8 90 -8q47 0 80 8q35 8 63 31q25 20 45 59q16 33 23 88h276q-10 -84 -37 -147q-29 -68 -86 -113q-59 -47 -147 -71 q-96 -27 -223 -27q-135 0 -226 25q-86 25 -143 71q-51 43 -78 113q-25 63 -31 149z" />
<glyph unicode="&#x40f;" horiz-adv-x="1443" d="M184 0v1462h310v-1204h456v1204h310v-1462h-388v-426h-299v426h-389z" />
<glyph unicode="&#x410;" horiz-adv-x="1329" d="M0 0l475 1468h379l477 -1468h-313l-100 348h-504l-101 -348h-313zM489 608h357l-94 320l-19 59q-6 20 -11 43t-13 47q-4 16 -13.5 50t-13.5 50.5t-16 84.5l-11 -52q-8 -41 -14 -63l-9 -31.5t-9.5 -36t-16.5 -63.5l-14 -53q-2 -12 -6 -20.5t-4 -14.5z" />
<glyph unicode="&#x411;" horiz-adv-x="1224" d="M184 0v1462h842v-256h-532v-305h108q139 0 237.5 -32.5t164.5 -92.5q70 -63 98 -141q31 -82 31 -178q0 -109 -33 -193q-33 -86 -101 -143q-68 -59 -174 -90q-104 -31 -250 -31h-391zM494 254h84q53 0 100 10q45 10 76 35q35 29 49 63q16 43 16 95q0 59 -18.5 96t-50.5 57 q-29 18 -84 29q-43 8 -109 8h-63v-393z" />
<glyph unicode="&#x412;" horiz-adv-x="1314" d="M184 0v1462h428q125 0 242 -20q102 -18 174 -62q66 -39 105 -114q37 -70 36 -174q0 -55 -16 -115q-16 -57 -43 -96q-29 -41 -70 -68q-43 -29 -96 -37v-10q53 -12 103 -35q47 -23 83 -61q33 -35 56 -101q20 -59 20 -145q0 -96 -35 -178q-31 -74 -100 -133 q-66 -55 -160 -84q-96 -29 -211 -29h-516zM494 256h182q61 0 102 14q45 16 67.5 39t37.5 64q10 31 10 82q0 47 -10 75q-12 33 -39 58q-29 25 -70 37q-43 12 -106 12h-174v-381zM494 883h161q51 0 97 10q35 8 63 33q27 23 35 51q10 35 10 74q0 84 -53 120q-52 37 -166 37 h-147v-325z" />
<glyph unicode="&#x413;" horiz-adv-x="1064" d="M184 0v1462h842v-256h-532v-1206h-310z" />
<glyph unicode="&#x414;" horiz-adv-x="1482" d="M10 258h113q58 114 110 240q51 123 99 274q51 162 84 318q37 174 61 372h770v-1204h195v-684h-299v426h-834v-426h-299v684zM449 258h489v946h-215q-12 -90 -41 -227q-25 -123 -61 -244q-33 -109 -80 -244q-45 -127 -92 -231z" />
<glyph unicode="&#x415;" horiz-adv-x="1146" d="M184 0v1462h842v-254h-532v-321h495v-254h-495v-377h532v-256h-842z" />
<glyph unicode="&#x416;" horiz-adv-x="1847" d="M0 0l479 760l-450 702h319l432 -708v708h289v-708l432 708h320l-451 -702l479 -760h-331l-449 741v-741h-289v741l-448 -741h-332z" />
<glyph unicode="&#x417;" horiz-adv-x="1243" d="M94 1323q43 31 107 66q49 27 121 51q61 20 139 33q63 10 166 10q119 0 204 -27q92 -29 152 -76q66 -51 96 -114q33 -66 33 -146q0 -72 -25 -133q-25 -59 -71.5 -104t-108.5 -72q-63 -29 -137 -41v-6q86 -8 164 -39q70 -27 121 -72t75 -104q27 -63 27 -133q0 -96 -37 -176 q-37 -78 -110 -138q-78 -61 -179 -90q-115 -33 -247 -32q-162 0 -273 20q-117 20 -205 59v260q53 -27 95 -40q51 -18 108.5 -30.5t108.5 -19.5q55 -6 100 -6q172 0 252 55.5t80 159.5q0 51 -28.5 90t-82.5 64q-45 20 -127 35q-74 12 -168 12h-118v242h104q100 0 186 14 q74 12 117 37q39 23 60 59q18 34 18 80q0 76 -59 119q-61 45 -174 45q-102 0 -187 -33q-92 -37 -162 -86z" />
<glyph unicode="&#x418;" horiz-adv-x="1603" d="M184 0v1462h279v-692v-55q0 -10 -1 -31.5t-1 -34.5q0 -16 -1 -33.5t-1 -33.5q0 -45 -2 -66q0 -25 -3 -74t-5 -75h6l594 1095h370v-1462h-276v688q0 82 2 129l6 135q2 51 10 154h-8l-596 -1106h-373z" />
<glyph unicode="&#x419;" horiz-adv-x="1603" d="M184 0v1462h279v-692v-55q0 -10 -1 -31.5t-1 -34.5q0 -16 -1 -33.5t-1 -33.5q0 -45 -2 -66q0 -25 -3 -74t-5 -75h6l594 1095h370v-1462h-276v688q0 82 2 129l6 135q2 51 10 154h-8l-596 -1106h-373zM303 1937h273q6 -57 18 -94q10 -31 39 -55q20 -18 64 -29q33 -8 90 -8 q47 0 80 8q35 8 63 31q25 20 45 59q16 33 23 88h276q-10 -84 -37 -147q-29 -68 -86 -113q-59 -47 -147 -71q-96 -27 -223 -27q-135 0 -226 25q-86 25 -143 71q-51 43 -78 113q-25 63 -31 149z" />
<glyph unicode="&#x41a;" horiz-adv-x="1292" d="M184 0v1462h310v-708l442 708h330l-451 -702l479 -760h-352l-448 741v-741h-310z" />
<glyph unicode="&#x41b;" horiz-adv-x="1443" d="M16 2v254q12 -4 52 -14q25 -6 57 -6q31 0 51 14q23 16 41.5 49t32.5 90q16 61 31 143l24 142q27 154 35 215l39 268q16 106 39 305h842v-1462h-310v1204h-276l-27 -207l-29 -223l-30 -213q-10 -68 -33 -180q-23 -98 -49 -170q-29 -76 -74 -127q-43 -49 -110 -78 q-61 -27 -158 -26q-41 0 -78 6q-50 8 -70 16z" />
<glyph unicode="&#x41c;" horiz-adv-x="1869" d="M184 0v1462h422l316 -1118h6l336 1118h422v-1462h-289v692v60q0 10 1 33.5t1 36t1 38t1 37.5t2 36.5t2 37.5q4 92 6 174h-8l-346 -1145h-285l-321 1147h-9q8 -125 11 -178q2 -25 2 -76l4 -78q0 -12 1 -36.5t1 -35.5v-63v-680h-277z" />
<glyph unicode="&#x41d;" horiz-adv-x="1484" d="M184 0v1462h310v-573h497v573h309v-1462h-309v631h-497v-631h-310z" />
<glyph unicode="&#x41e;" horiz-adv-x="1546" d="M119 735q0 174 39 309.5t121 235.5q80 98 204.5 151.5t292.5 53.5q166 0 291 -53q121 -51 203 -151.5t121 -238.5q39 -135 39 -309q0 -172 -39 -307q-41 -141 -121 -240q-76 -94 -205 -151q-123 -55 -291 -55t-291 55q-129 57 -204 151q-80 98 -121 240q-39 135 -39 309z M438 733q0 -119 21 -207q23 -98 61 -155q43 -63 105 -97q66 -35 149 -34q86 0 151.5 34.5t104.5 96.5q41 68 60 155q20 102 20 207t-20 207q-18 88 -60 156q-41 66 -102 98q-63 33 -151.5 33t-151.5 -33q-59 -31 -105 -98q-39 -57 -61 -156q-21 -88 -21 -207z" />
<glyph unicode="&#x41f;" horiz-adv-x="1443" d="M184 0v1462h1076v-1462h-310v1204h-456v-1204h-310z" />
<glyph unicode="&#x420;" horiz-adv-x="1224" d="M184 0v1462h406q135 0 244 -32q104 -33 170 -89q68 -59 98 -143q31 -86 31 -192q0 -92 -29 -185q-27 -84 -96.5 -153.5t-174 -108.5t-268.5 -39h-71v-520h-310zM494 774h61q131 0 197 51q68 51 67 170q0 106 -59.5 159.5t-186.5 53.5h-79v-434z" />
<glyph unicode="&#x421;" horiz-adv-x="1304" d="M119 729q0 170 45 305q45 133 133 238q84 100 215 155q129 55 293 56q113 0 219 -27q109 -27 209 -76l-100 -252q-88 43 -164 68q-86 29 -164 29q-88 0 -157.5 -35t-115.5 -98q-43 -61 -69 -158q-25 -92 -25 -207q0 -121 21 -209q20 -86 67 -153q43 -61 113 -95 q68 -33 166 -32q94 0 178 20q102 25 195 57v-260q-33 -14 -95 -35q-31 -10 -96 -22t-100 -14q-70 -4 -111 -4q-170 0 -293 55q-129 57 -204 151q-82 100 -121 235.5t-39 307.5z" />
<glyph unicode="&#x422;" horiz-adv-x="1122" d="M41 1204v258h1042v-258h-366v-1204h-309v1204h-367z" />
<glyph unicode="&#x423;" horiz-adv-x="1253" d="M0 1462h328l276 -631q2 -6 8 -18l9 -18q2 -8 8 -22.5t8 -20.5q8 -20 14 -39q8 -25 8 -27h11q2 8 6 27q2 12 10 41l12 41q4 14 13 34l225 633h319l-424 -1034q-47 -115 -88 -188q-47 -86 -106 -141.5t-145 -88.5q-82 -31 -205 -30q-31 0 -109 8q-53 6 -110 22v266 q41 -18 108 -28q51 -8 111 -8q43 0 86 14q41 12 61 35q20 18 41 55q18 31 31 68z" />
<glyph unicode="&#x424;" horiz-adv-x="1677" d="M92 758q0 104 33 200q33 94 102 175q66 76 174 122q106 47 250 48h49v180h279v-180h49q143 0 250 -48q109 -47 174 -122q70 -80 102 -175q33 -96 33 -200q0 -61 -12 -125q-10 -55 -43 -127q-28 -61 -74 -117q-45 -53 -110 -94q-68 -41 -152 -66q-86 -25 -197 -24h-20 v-225h-279v225h-20q-111 0 -197 24q-84 25 -151 66q-66 41 -111 94q-46 55 -74 117q-33 72 -43 127q-12 64 -12 125zM383 760q0 -68 18 -125q16 -53 58 -100q33 -39 96 -66q59 -25 133 -25h12v617h-36q-74 0 -125 -25q-57 -27 -88 -65q-33 -43 -52 -97q-16 -48 -16 -114z M979 444h12q74 0 133 25q63 27 97 66q41 47 57 100q18 57 18 125q0 55 -16 114q-14 47 -51 97q-31 39 -88 65q-51 25 -125 25h-37v-617z" />
<glyph unicode="&#x425;" horiz-adv-x="1282" d="M0 0l444 754l-413 708h342l274 -526l268 526h334l-418 -725l453 -737h-354l-299 553l-299 -553h-332z" />
<glyph unicode="&#x426;" horiz-adv-x="1517" d="M184 0v1462h310v-1204h456v1204h310v-1216l217 -29v-643h-299v426h-994z" />
<glyph unicode="&#x427;" horiz-adv-x="1406" d="M109 858v604h309v-516q0 -108 43 -160q43 -53 141 -53q74 0 148 19q82 20 165 55v655h310v-1462h-310v565l-110 -39q-25 -8 -105 -28q-33 -8 -98 -17q-49 -6 -98 -6q-92 0 -166 24.5t-125 76t-77.5 119t-26.5 163.5z" />
<glyph unicode="&#x428;" horiz-adv-x="2125" d="M184 0v1462h310v-1204h413v1204h312v-1204h413v1204h310v-1462h-1758z" />
<glyph unicode="&#x429;" horiz-adv-x="2199" d="M184 0v1462h310v-1204h413v1204h312v-1204h413v1204h310v-1216l217 -29v-643h-299v426h-1676z" />
<glyph unicode="&#x42a;" horiz-adv-x="1447" d="M41 1204v258h676v-561h108q139 0 237.5 -32.5t164.5 -92.5q70 -63 98 -141q31 -82 31 -178q0 -109 -33 -193q-33 -86 -100 -143q-68 -59 -174 -90q-104 -31 -250 -31h-391v1204h-367zM717 254h84q53 0 100 10q45 10 76 35q35 29 49 63q16 43 16 95q0 59 -18 96t-51 57 q-29 18 -84 29q-43 8 -109 8h-63v-393z" />
<glyph unicode="&#x42b;" horiz-adv-x="1773" d="M184 0v1462h310v-561h108q139 0 237.5 -32.5t164.5 -92.5q70 -63 98 -141q31 -82 31 -178q0 -109 -33 -193q-33 -86 -101 -143q-68 -59 -174 -90q-104 -31 -250 -31h-391zM494 254h84q53 0 100 10q45 10 76 35q35 29 49 63q16 43 16 95q0 59 -18.5 96t-50.5 57 q-29 18 -84 29q-43 8 -109 8h-63v-393zM1280 0v1462h309v-1462h-309z" />
<glyph unicode="&#x42c;" horiz-adv-x="1224" d="M184 0v1462h310v-561h108q139 0 237.5 -32.5t164.5 -92.5q70 -63 98 -141q31 -82 31 -178q0 -109 -33 -193q-33 -86 -101 -143q-68 -59 -174 -90q-104 -31 -250 -31h-391zM494 254h84q53 0 100 10q45 10 76 35q35 29 49 63q16 43 16 95q0 59 -18.5 96t-50.5 57 q-29 18 -84 29q-43 8 -109 8h-63v-393z" />
<glyph unicode="&#x42d;" horiz-adv-x="1275" d="M72 1380q96 47 213 76q106 27 239 27q147 0 268 -51.5t199 -147.5q82 -100 123 -235q43 -141 43 -320q0 -172 -39 -307t-121 -236q-76 -94 -204 -151q-123 -55 -293 -55q-41 0 -111 4q-35 2 -100.5 14t-95.5 22q-61 20 -95 35v260q92 -33 195 -57q84 -20 178 -20 q168 0 260 92q90 90 100 280h-552v254h550q-4 90 -26.5 153.5t-65.5 112.5q-39 45 -98 70q-58 25 -129 25q-82 0 -172 -29q-96 -31 -168 -66z" />
<glyph unicode="&#x42e;" horiz-adv-x="2107" d="M184 0v1462h310v-573h276q16 143 59 248q45 106 121 186q74 78 183 121q102 41 245 41q154 0 273 -53q111 -49 190 -152q76 -96 113 -238q37 -137 37 -309q0 -169 -37 -307q-39 -145 -113 -240q-76 -96 -192.5 -151t-272.5 -55q-141 0 -254 47q-111 45 -186 131 q-76 84 -119 204q-41 113 -53 269h-270v-631h-310zM1081 733q0 -125 17 -207q18 -90 55 -155q35 -61 92.5 -96t130.5 -35q76 0 133.5 34.5t92.5 96.5q35 59 53 155q16 82 16 207t-16 207q-18 96 -53 156q-39 66 -91 98q-53 33 -133 33t-133 -33q-55 -34 -92 -98 q-37 -66 -55 -156q-17 -82 -17 -207z" />
<glyph unicode="&#x42f;" horiz-adv-x="1280" d="M-10 0l409 655q-47 20 -88 50q-43 31 -80 79q-39 53 -59 115q-23 72 -22 156q0 205 137 305q139 102 407 102h402v-1462h-310v561h-122l-330 -561h-344zM463 1022q0 -96 51 -154q49 -55 156 -55h116v395h-122q-95 0 -148 -43t-53 -143z" />
</font>
</defs>
</svg>
